Bob Dylan: Live Albums Collection (1974 - 1995) Re-up

Posted By: v3122
Bob Dylan: Live Albums Collection (1974 - 1995) Re-up

Bob Dylan: Live Albums Collection (1974 - 1995)
EAC | Flac(Image) + Cue + Log & MP3 CBR 320Kbps
9CD | Columbia | ~ 3270 or 1215 Mb | Scans(jpg, 600dpi) -> 875 Mb
Rock / Folk-Rock

- 6 Live Albums on 9 CD's -

Bob Dylan: Live Albums Collection (1974 - 1995):

Bob Dylan: Live Albums Collection (1974 - 1995) Re-up

Bob Dylan & The Band - Before the Flood (1974)
EAC | Flac(Image) + Cue + Log & MP3 CBR 320Kbps
2CD | Columbia, CD 22137 | ~ 556 or 318 Mb | Scans(jpg, 600dpi) -> 77 Mb
Rock / Folk-Rock

Bob Dylan and the Band both needed the celebrated reunion tour of 1974, since Dylan's fortunes had been floundering since Self Portrait and the Band stumbled with 1971's Cahoots. The tour, with its attendant publicity, definitely returned both artists to center stage, and it definitely succeeded, breaking box office records and earning great reviews. Before the Flood, a double-album souvenir of the tour, suggests that these were generally dynamic shows, but not because they were reveling in the past, but because Dylan was fighting the nostalgia of his audience – nostalgia, it must be noted, that was promoted as the very reason behind these shows. Yet that's what gives this music such kick – Dylan reworks, rearranges, reinterprets these songs in ways that are still disarming, years after its initial release. He could only have performed interpretations this radical with a group as sympathetic, knowing of his traits as the band, whose own recordings here are respites from the storm. And this is a storm – the sound of a great rocker, surprising his band and audience by tearing through his greatest songs in a manner that might not be comforting, but it guarantees it to be one of the best live albums of its time. Ever, maybe.

by Stephen Thomas Erlewine, AMG

Tracklist CD1:

01 Most Likely Go Your Way (And I'll Go Mine) 4:12
02 Lay Lady Lay 3:22
03 Rainy Day Women #12 & 35 3:25
04 Knockin' On Heaven's Door 3:46
05 It Ain't Me, Babe 3:28
06 Ballad Of A Thin Man 4:04
07 Up On Cripple Creek 5:22
08 I Shall Be Released 3:33
09 Endless Highway 5:12
10 The Night They Drove Old Dixie Down 4:37
11 Stage Fright 4:38

Exact Audio Copy V0.99 prebeta 5 from 4. May 2009

EAC extraction logfile from 25. August 2012, 23:24

Bob Dylan & The Band / Before the Flood (CD 1)

Used drive : PLEXTOR DVDR PX-L890SA Adapter: 2 ID: 0

Read mode : Secure
Utilize accurate stream : Yes
Defeat audio cache : Yes
Make use of C2 pointers : No

Read offset correction : 6
Overread into Lead-In and Lead-Out : No
Fill up missing offset samples with silence : Yes
Delete leading and trailing silent blocks : No
Null samples used in CRC calculations : Yes
Used interface : Native Win32 interface for Win NT & 2000

Used output format : User Defined Encoder
Selected bitrate : 768 kBit/s
Quality : High
Add ID3 tag : No
Command line compressor : d:\Program Files\Exact Audio Copy\FLAC\FLAC.EXE
Additional command line options : -T "DATE=%y" -T "GENRE=%m" -8 -V %s


TOC of the extracted CD

Track | Start | Length | Start sector | End sector
––––––––––––––––––––––––––––-
1 | 0:00.00 | 4:18.02 | 0 | 19351
2 | 4:18.02 | 3:14.05 | 19352 | 33906
3 | 7:32.07 | 3:28.13 | 33907 | 49519
4 | 11:00.20 | 3:52.05 | 49520 | 66924
5 | 14:52.25 | 3:40.50 | 66925 | 83474
6 | 18:33.00 | 3:41.05 | 83475 | 100054
7 | 22:14.05 | 5:26.40 | 100055 | 124544
8 | 27:40.45 | 3:50.20 | 124545 | 141814
9 | 31:30.65 | 5:10.37 | 141815 | 165101
10 | 36:41.27 | 4:24.18 | 165102 | 184919
11 | 41:05.45 | 4:46.07 | 184920 | 206376


Range status and errors

Selected range

Filename H:\MUSIC\COLLECTION\Bob Dylan\Before the Flood\Bob Dylan & The Band - Before the Flood (CD 1).wav

Peak level 89.9 %
Range quality 100.0 %
Test CRC D622C01C
Copy CRC D622C01C
Copy OK

No errors occurred


AccurateRip summary

Track 1 accurately ripped (confidence 24) [4A816DA9]
Track 2 accurately ripped (confidence 24) [9A9511A6]
Track 3 accurately ripped (confidence 23) [1B8DAEA8]
Track 4 accurately ripped (confidence 24) [DBD166EF]
Track 5 accurately ripped (confidence 24) [E0DBBA2B]
Track 6 accurately ripped (confidence 24) [AEE6AAE7]
Track 7 accurately ripped (confidence 24) [39EC43AB]
Track 8 accurately ripped (confidence 24) [674A254B]
Track 9 accurately ripped (confidence 24) [015EFFE7]
Track 10 accurately ripped (confidence 24) [F023BC6F]
Track 11 accurately ripped (confidence 24) [5B195593]

All tracks accurately ripped

End of status report

foobar2000 1.2.9 / Dynamic Range Meter 1.1.1
log date: 2013-11-23 17:34:55

––––––––––––––––––––––––––––––––––––––––
Analyzed: Bob Dylan & The Band / Before the Flood (CD 1)
––––––––––––––––––––––––––––––––––––––––

DR Peak RMS Duration Track
––––––––––––––––––––––––––––––––––––––––
DR12 -3.01 dB -17.30 dB 4:18 01-Most Likely You Go Your Way (And I'll Go Mine)
DR12 -3.43 dB -17.37 dB 3:14 02-Lay Lady lay
DR11 -1.45 dB -16.06 dB 3:28 03-Rainy Day Women #12 & 35
DR13 -1.17 dB -17.19 dB 3:52 04-Knockin' on Heavens Door
DR12 -2.18 dB -16.48 dB 3:41 05-It Ain't Me Babe
DR12 -2.81 dB -17.15 dB 3:41 06-Ballad of a Thin Man
DR13 -1.37 dB -17.09 dB 5:27 07-Up on Cripple Creek
DR13 -2.21 dB -18.18 dB 3:50 08-I Shall Be Released
DR13 -0.92 dB -16.23 dB 5:10 09-Endless Highway
DR13 -0.93 dB -17.01 dB 4:24 10-The Night They Drove Old Dixie Down
DR12 -1.60 dB -16.88 dB 4:46 11-Stage Fright
––––––––––––––––––––––––––––––––––––––––

Number of tracks: 11
Official DR value: DR12

Samplerate: 44100 Hz
Channels: 2
Bits per sample: 16
Bitrate: 825 kbps
Codec: FLAC

Tracklist CD2:

01 Don't Think Twice, It's All Right 4:22
02 Just Like A Woman 5:13
03 It's Allright Ma (I'm Only Bleeding) 5:35
04 The Shape I'm In 4:10
05 When You Awake 3:08
06 The Weight 4:47
07 All Along The Watchtower 3:21
08 Highway 61 Revisited 4:22
09 Like A Rolling Stone 6:22
10 Blowin' In The Wind 5:11

Exact Audio Copy V0.99 prebeta 5 from 4. May 2009

EAC extraction logfile from 26. August 2012, 0:07

Bob Dylan & The Band / Before the Flood (CD 2)

Used drive : PLEXTOR DVDR PX-L890SA Adapter: 2 ID: 0

Read mode : Secure
Utilize accurate stream : Yes
Defeat audio cache : Yes
Make use of C2 pointers : No

Read offset correction : 6
Overread into Lead-In and Lead-Out : No
Fill up missing offset samples with silence : Yes
Delete leading and trailing silent blocks : No
Null samples used in CRC calculations : Yes
Used interface : Native Win32 interface for Win NT & 2000

Used output format : User Defined Encoder
Selected bitrate : 768 kBit/s
Quality : High
Add ID3 tag : No
Command line compressor : d:\Program Files\Exact Audio Copy\FLAC\FLAC.EXE
Additional command line options : -T "DATE=%y" -T "GENRE=%m" -8 -V %s


TOC of the extracted CD

Track | Start | Length | Start sector | End sector
––––––––––––––––––––––––––––-
1 | 0:00.00 | 4:37.17 | 0 | 20791
2 | 4:37.17 | 5:06.15 | 20792 | 43756
3 | 9:43.32 | 5:48.18 | 43757 | 69874
4 | 15:31.50 | 4:01.25 | 69875 | 87974
5 | 19:33.00 | 3:13.25 | 87975 | 102474
6 | 22:46.25 | 4:47.50 | 102475 | 124049
7 | 27:34.00 | 3:07.47 | 124050 | 138121
8 | 30:41.47 | 4:27.03 | 138122 | 158149
9 | 35:08.50 | 7:09.70 | 158150 | 190394
10 | 42:18.45 | 4:30.55 | 190395 | 210699


Range status and errors

Selected range

Filename H:\MUSIC\COLLECTION\Bob Dylan\Before the Flood\Bob Dylan & The Band - Before the Flood (CD 2).wav

Peak level 80.5 %
Range quality 100.0 %
Test CRC D2EE7FA9
Copy CRC D2EE7FA9
Copy OK

No errors occurred


AccurateRip summary

Track 1 accurately ripped (confidence 11) [1E7A6917]
Track 2 accurately ripped (confidence 11) [429732DA]
Track 3 accurately ripped (confidence 11) [53022581]
Track 4 accurately ripped (confidence 11) [6BFF69F7]
Track 5 accurately ripped (confidence 11) [2EFC8664]
Track 6 accurately ripped (confidence 11) [69258579]
Track 7 accurately ripped (confidence 11) [3DFB5491]
Track 8 accurately ripped (confidence 11) [932F1412]
Track 9 accurately ripped (confidence 11) [7E8AF6B9]
Track 10 accurately ripped (confidence 11) [8AC73B1D]

All tracks accurately ripped

End of status report

foobar2000 1.2.9 / Dynamic Range Meter 1.1.1
log date: 2013-11-23 17:35:11

––––––––––––––––––––––––––––––––––––––––
Analyzed: Bob Dylan & The Band / Before the Flood (CD 2)
––––––––––––––––––––––––––––––––––––––––

DR Peak RMS Duration Track
––––––––––––––––––––––––––––––––––––––––
DR12 -6.42 dB -21.30 dB 4:37 01-Don't Think Twice, It's All Right
DR13 -5.35 dB -21.36 dB 5:06 02-Just Like A Woman
DR13 -4.91 dB -20.99 dB 5:48 03-It's Alright, Ma (I'm Only Bleeding)
DR13 -2.98 dB -17.92 dB 4:01 04-The Shape I'm In
DR14 -3.45 dB -19.33 dB 3:13 05-When You Awake
DR13 -2.96 dB -18.96 dB 4:48 06-The Weight
DR12 -3.20 dB -18.06 dB 3:08 07-All Along The Watchtower
DR13 -1.96 dB -16.57 dB 4:27 08-Highway 61 Revisited
DR12 -2.18 dB -16.67 dB 7:10 09-Like A Rolling Stone
DR12 -1.88 dB -16.58 dB 4:31 10-Blowin' In The Wind
––––––––––––––––––––––––––––––––––––––––

Number of tracks: 10
Official DR value: DR13

Samplerate: 44100 Hz
Channels: 2
Bits per sample: 16
Bitrate: 807 kbps
Codec: FLAC

=============================

Bob Dylan: Live Albums Collection (1974 - 1995) Re-up

Bob Dylan - Hard Rain (1976)
EAC | Flac(Image) + Cue + Log & MP3 CBR 320Kbps
Columbia, CD 32308 | ~ 295 or 120 Mb | Scans(jpg, 600dpi) -> 126 Mb
Rock / Folk-Rock

Hard Rain is a snapshot of Bob Dylan's fabled Rolling Thunder Revue, a traveling circus that was more notable for its excess and character than the music. There are some new interpretations along the lines of what appeared on Before the Flood. A few of the new versions hit home and Dylan is generally spirited throughout.

by Stephen Thomas Erlewine, AMG

Tracklist:

01 Maggie's Farm 5:23
02 One Too Many Mornings 3:46
03 Stuck Inside Of Mobile With The Memphis Blues Again 6:00
04 Oh, Sister 5:07
05 Lay, Lady, Lay 4:46
06 Shelter From The Storm 5:28
07 You're A Big Girl Now 7:00
08 I Threw It All Away 3:17
09 Idiot Wind 10:20

Exact Audio Copy V0.99 prebeta 5 from 4. May 2009

EAC extraction logfile from 5. August 2012, 20:37

Bob Dylan / Hard Rain

Used drive : PLEXTOR DVDR PX-L890SA Adapter: 2 ID: 0

Read mode : Secure
Utilize accurate stream : Yes
Defeat audio cache : Yes
Make use of C2 pointers : No

Read offset correction : 6
Overread into Lead-In and Lead-Out : No
Fill up missing offset samples with silence : Yes
Delete leading and trailing silent blocks : No
Null samples used in CRC calculations : Yes
Used interface : Native Win32 interface for Win NT & 2000

Used output format : User Defined Encoder
Selected bitrate : 768 kBit/s
Quality : High
Add ID3 tag : No
Command line compressor : d:\Program Files\Exact Audio Copy\FLAC\FLAC.EXE
Additional command line options : -T "DATE=%y" -T "GENRE=%m" -8 -V %s


TOC of the extracted CD

Track | Start | Length | Start sector | End sector
––––––––––––––––––––––––––––-
1 | 0:00.00 | 5:23.25 | 0 | 24249
2 | 5:23.25 | 3:47.00 | 24250 | 41274
3 | 9:10.25 | 6:01.00 | 41275 | 68349
4 | 15:11.25 | 5:08.00 | 68350 | 91449
5 | 20:19.25 | 4:47.00 | 91450 | 112974
6 | 25:06.25 | 5:29.00 | 112975 | 137649
7 | 30:35.25 | 7:01.00 | 137650 | 169224
8 | 37:36.25 | 3:18.00 | 169225 | 184074
9 | 40:54.25 | 10:20.55 | 184075 | 230629


Range status and errors

Selected range

Filename H:\MUSIC\COLLECTION\Bob Dylan\1976 Hard Rain - LIve\Bob Dylan - Hard Rain.wav

Peak level 93.3 %
Range quality 100.0 %
Test CRC C7C5E210
Copy CRC C7C5E210
Copy OK

No errors occurred


AccurateRip summary

Track 1 accurately ripped (confidence 16) [D0CDF578]
Track 2 accurately ripped (confidence 16) [99704242]
Track 3 accurately ripped (confidence 16) [293AF139]
Track 4 accurately ripped (confidence 16) [495F1229]
Track 5 accurately ripped (confidence 16) [0D60D5C8]
Track 6 accurately ripped (confidence 16) [D0532188]
Track 7 accurately ripped (confidence 15) [DAEDCDE1]
Track 8 accurately ripped (confidence 16) [10673776]
Track 9 accurately ripped (confidence 16) [3956B009]

All tracks accurately ripped

End of status report

foobar2000 1.2.9 / Dynamic Range Meter 1.1.1
log date: 2013-11-23 17:35:28

––––––––––––––––––––––––––––––––––––––––
Analyzed: Bob Dylan / Hard Rain
––––––––––––––––––––––––––––––––––––––––

DR Peak RMS Duration Track
––––––––––––––––––––––––––––––––––––––––
DR12 -1.24 dB -15.26 dB 5:23 01-Maggie's farm
DR12 -2.57 dB -15.68 dB 3:47 02-One too many mornings
DR13 -0.88 dB -15.24 dB 6:01 03-Stuck inside of mobile with the Memphis blues again
DR13 -0.70 dB -15.71 dB 5:08 04-Oh, sister
DR12 -1.71 dB -15.00 dB 4:47 05-Lay, lady, lay
DR12 -0.60 dB -15.03 dB 5:29 06-Shelter from the storm
DR13 -1.55 dB -17.10 dB 7:01 07-You're a big girl now
DR13 -0.60 dB -15.70 dB 3:18 08-I threw it all away
DR13 -0.89 dB -15.39 dB 10:21 09-Idiot wind
––––––––––––––––––––––––––––––––––––––––

Number of tracks: 9
Official DR value: DR12

Samplerate: 44100 Hz
Channels: 2
Bits per sample: 16
Bitrate: 783 kbps
Codec: FLAC

=============================

Bob Dylan: Live Albums Collection (1974 - 1995) Re-up

Bob Dylan - Live At Budokan (1979)
EAC | Flac(Image) + Cue + Log & MP3 CBR 320Kbps
2CD | 1991, Columbia, 467850 2 | ~ 628 or 242 Mb | Scans(jpg, 600dpi) -> 258 Mb
Rock / Folk-Rock

On his third live album in a mere five years, Bob Dylan brings the big, professional showmanship of Street Legal to the stage, recasting recent and classic favorites into that album's image – and, he does that over the course of two albums, no less. It's a bit much, even for the diehards, even if moments work pretty well. Nevertheless, those moments work because of pizzazz, although those are the very moments that will make most long-term Dylan fans bristle. Which, of course, raises the question – who is this for? The dedicated aren't going to be dazzled by the slickness and the casual fans certainly aren't going to pay much attention to a live album from 1978. Interesting historically, perhaps, but only marginally.

by Stephen Thomas Erlewine, AMG

Tracklist CD1:

01 Mr. Tambourine Man 4:53
02 Shelter From The Storm 4:29
03 Love Minus Zero/No Limit 3:53
04 Ballad Of A Thin Man 4:44
05 Don't Think Twice, It's Allright 5:02
06 Maggie's Farm 5:02
07 One More Cup Of Coffee (Valley Below) 3:18
08 Like A Rolling Stone 6:30
09 I Shall Be Released 4:04
10 Is Your Love In Vain? 3:57
11 Going, Going, Gone 3:55

Exact Audio Copy V0.99 prebeta 5 from 4. May 2009

EAC extraction logfile from 3. May 2013, 16:07

Bob Dylan / Bob Dylan At Budokan

Used drive : PLEXTOR DVDR PX-L890SA Adapter: 1 ID: 0

Read mode : Secure
Utilize accurate stream : Yes
Defeat audio cache : Yes
Make use of C2 pointers : No

Read offset correction : 6
Overread into Lead-In and Lead-Out : No
Fill up missing offset samples with silence : Yes
Delete leading and trailing silent blocks : No
Null samples used in CRC calculations : Yes
Used interface : Native Win32 interface for Win NT & 2000

Used output format : User Defined Encoder
Selected bitrate : 768 kBit/s
Quality : High
Add ID3 tag : No
Command line compressor : d:\Program Files\Exact Audio Copy\FLAC\FLAC.EXE
Additional command line options : -T "DATE=%y" -T "GENRE=%m" -8 -V %s


TOC of the extracted CD

Track | Start | Length | Start sector | End sector
––––––––––––––––––––––––––––-
1 | 0:00.00 | 5:03.42 | 0 | 22766
2 | 5:03.42 | 4:39.23 | 22767 | 43714
3 | 9:42.65 | 3:57.25 | 43715 | 61514
4 | 13:40.15 | 4:53.27 | 61515 | 83516
5 | 18:33.42 | 5:01.28 | 83517 | 106119
6 | 23:34.70 | 5:26.35 | 106120 | 130604
7 | 29:01.30 | 3:30.42 | 130605 | 146396
8 | 32:31.72 | 6:36.25 | 146397 | 176121
9 | 39:08.22 | 4:23.68 | 176122 | 195914
10 | 43:32.15 | 4:02.22 | 195915 | 214086
11 | 47:34.37 | 4:23.25 | 214087 | 233836


Range status and errors

Selected range

Filename H:\MUSIC\COLLECTION\Bob Dylan\1978 Bob Dylan At Budokan - live\Bob Dylan - Bob Dylan At Budokan CD1.wav

Peak level 100.0 %
Range quality 100.0 %
Test CRC D0E7E7DA
Copy CRC D0E7E7DA
Copy OK

No errors occurred


AccurateRip summary

Track 1 cannot be verified as accurate (confidence 52) [52BFD566], AccurateRip returned [96868575]
Track 2 cannot be verified as accurate (confidence 52) [9481CD20], AccurateRip returned [9111FA85]
Track 3 cannot be verified as accurate (confidence 52) [BA169517], AccurateRip returned [8C9F01D1]
Track 4 cannot be verified as accurate (confidence 52) [66CE0FC5], AccurateRip returned [065F4CA4]
Track 5 cannot be verified as accurate (confidence 52) [C8122E95], AccurateRip returned [AA4AA007]
Track 6 cannot be verified as accurate (confidence 52) [8F80C736], AccurateRip returned [0700CE24]
Track 7 cannot be verified as accurate (confidence 52) [3314F2EA], AccurateRip returned [50A08401]
Track 8 cannot be verified as accurate (confidence 52) [CBE28F97], AccurateRip returned [62D47635]
Track 9 cannot be verified as accurate (confidence 52) [21749ADA], AccurateRip returned [68D3F8EC]
Track 10 cannot be verified as accurate (confidence 52) [98E16AF0], AccurateRip returned [8AA7E20B]
Track 11 cannot be verified as accurate (confidence 51) [DA2FFF38], AccurateRip returned [9BF3626D]

No tracks could be verified as accurate
You may have a different pressing from the one(s) in the database

End of status report

foobar2000 1.2.9 / Dynamic Range Meter 1.1.1
log date: 2013-11-23 17:35:46

––––––––––––––––––––––––––––––––––––––––
Analyzed: Bob Dylan / Bob Dylan At Budokan
––––––––––––––––––––––––––––––––––––––––

DR Peak RMS Duration Track
––––––––––––––––––––––––––––––––––––––––
DR12 -1.01 dB -14.52 dB 5:04 01-Mr. Tambourine Man
DR12 0.00 dB -14.89 dB 4:39 02-Shelter From The Storm
DR13 -0.08 dB -15.75 dB 3:57 03-Love Minus Zero / No Limit
DR12 -1.79 dB -16.89 dB 4:53 04-Ballad Of A Thin Man
DR13 0.00 dB -16.24 dB 5:01 05-Don't Think Twice, Its All Right
DR12 -1.31 dB -16.00 dB 5:26 06-Maggie's Farm
DR12 -2.36 dB -18.50 dB 3:31 07-One More Cup Of Coffee (Valley Below)
DR12 -1.06 dB -15.20 dB 6:36 08-Like A Rolling Stone
DR12 -1.07 dB -17.15 dB 4:24 09-I Shall Be Released
DR13 -0.39 dB -16.55 dB 4:02 10-Is Your Love In Vain
DR11 -1.53 dB -16.26 dB 4:23 11-Going, Going, Gone
––––––––––––––––––––––––––––––––––––––––

Number of tracks: 11
Official DR value: DR12

Samplerate: 44100 Hz
Channels: 2
Bits per sample: 16
Bitrate: 841 kbps
Codec: FLAC

Tracklist CD2:

01 Blowin' In The Wind 4:28
02 Just Like A Woman 5:03
03 Oh, Sister 4:43
04 Simple Twist Of Fate 4:03
05 All Along The Watchtower 3:18
06 I Want You 2:34
07 All I Really Want To Do 3:41
08 Knockin' On Heaven's Door 4:01
09 It's Alright Ma (I'm Only Bleeding) 6:03
10 Forever Young 5:27
11 The Times They Are A-Changin' 4:46

Exact Audio Copy V0.99 prebeta 5 from 4. May 2009

EAC extraction logfile from 3. May 2013, 16:40

Bob Dylan / Bob Dylan At Budokan

Used drive : PLEXTOR DVDR PX-L890SA Adapter: 1 ID: 0

Read mode : Secure
Utilize accurate stream : Yes
Defeat audio cache : Yes
Make use of C2 pointers : No

Read offset correction : 6
Overread into Lead-In and Lead-Out : No
Fill up missing offset samples with silence : Yes
Delete leading and trailing silent blocks : No
Null samples used in CRC calculations : Yes
Used interface : Native Win32 interface for Win NT & 2000

Used output format : User Defined Encoder
Selected bitrate : 768 kBit/s
Quality : High
Add ID3 tag : No
Command line compressor : d:\Program Files\Exact Audio Copy\FLAC\FLAC.EXE
Additional command line options : -T "DATE=%y" -T "GENRE=%m" -8 -V %s


TOC of the extracted CD

Track | Start | Length | Start sector | End sector
––––––––––––––––––––––––––––-
1 | 0:00.00 | 4:31.62 | 0 | 20386
2 | 4:31.62 | 5:06.35 | 20387 | 43371
3 | 9:38.22 | 4:50.28 | 43372 | 65149
4 | 14:28.50 | 4:27.30 | 65150 | 85204
5 | 18:56.05 | 3:26.20 | 85205 | 100674
6 | 22:22.25 | 2:39.60 | 100675 | 112659
7 | 25:02.10 | 3:45.37 | 112660 | 129571
8 | 28:47.47 | 4:03.28 | 129572 | 147824
9 | 32:51.00 | 6:08.52 | 147825 | 175476
10 | 38:59.52 | 6:31.73 | 175477 | 204874
11 | 45:31.50 | 5:29.20 | 204875 | 229569


Range status and errors

Selected range

Filename H:\MUSIC\COLLECTION\Bob Dylan\1978 Bob Dylan At Budokan - live\Bob Dylan - Bob Dylan At Budokan CD2.wav

Peak level 93.3 %
Range quality 100.0 %
Test CRC E75733E9
Copy CRC E75733E9
Copy OK

No errors occurred


AccurateRip summary

Track 1 accurately ripped (confidence 26) [2E8D716A]
Track 2 accurately ripped (confidence 25) [DD458409]
Track 3 accurately ripped (confidence 26) [589CA953]
Track 4 accurately ripped (confidence 26) [A8BF5D3E]
Track 5 accurately ripped (confidence 26) [2FB9A0E1]
Track 6 accurately ripped (confidence 26) [B7B28ECE]
Track 7 accurately ripped (confidence 26) [76CEB6B6]
Track 8 accurately ripped (confidence 26) [2839D228]
Track 9 accurately ripped (confidence 26) [51833F4B]
Track 10 accurately ripped (confidence 26) [C02A863B]
Track 11 accurately ripped (confidence 26) [1F1D235D]

All tracks accurately ripped

End of status report

foobar2000 1.2.9 / Dynamic Range Meter 1.1.1
log date: 2013-11-23 17:36:03

––––––––––––––––––––––––––––––––––––––––
Analyzed: Bob Dylan / Bob Dylan At Budokan
––––––––––––––––––––––––––––––––––––––––

DR Peak RMS Duration Track
––––––––––––––––––––––––––––––––––––––––
DR12 -0.73 dB -17.80 dB 4:32 01-Blowin' In The Wind (Live 28-2 & 1-3-1978 Nippon Budokan Hall, Tokyo)
DR13 -1.36 dB -18.41 dB 5:06 02-Just Like A Women (Live 28-2 & 1-3-1978 Nippon Budokan Hall, Tokyo)
DR13 -1.46 dB -18.47 dB 4:50 03-Oh, Sister (Live 28-2 & 1-3-1978 Nippon Budokan Hall, Tokyo)
DR15 -0.60 dB -18.35 dB 4:27 04-Simple Twist Of Fate (Live 28-2 & 1-3-1978 Nippon Budokan Hall, Tokyo)
DR13 -0.96 dB -16.16 dB 3:26 05-All Allong The Watchtower (Live 28-2 & 1-3-1978 Nippon Budokan Hall, Tokyo)
DR15 -4.41 dB -22.81 dB 2:40 06-I Want You (Live 28-2 & 1-3-1978 Nippon Budokan Hall, Tokyo)
DR12 -1.06 dB -16.11 dB 3:45 07-All I Really Want To Do (Live 28-2 & 1-3-1978 Nippon Budokan Hall, Tokyo)
DR14 -1.20 dB -17.88 dB 4:03 08-Knowin' On Heaven's Door (Live1-3-1978 Nippon Budokan Hall, Tokyo)
DR12 -1.90 dB -16.43 dB 6:09 09-It's Alright, Ma (I'm Only Bleeding) (Live 28-2 & 1-3-1978 Nippon Budokan Hal…
DR11 -1.59 dB -16.85 dB 6:32 10-Forever Young (Live 28-2 & 1-3-1978 Nippon Budokan Hall, Tokyo)
DR12 -1.74 dB -17.19 dB 5:29 11-The Time They Are Changing
––––––––––––––––––––––––––––––––––––––––

Number of tracks: 11
Official DR value: DR13

Samplerate: 44100 Hz
Channels: 2
Bits per sample: 16
Bitrate: 815 kbps
Codec: FLAC

=============================

Bob Dylan: Live Albums Collection (1974 - 1995) Re-up

Bob Dylan - Real Live (1984)
EAC | Flac(Image) + Cue + Log & MP3 CBR 320Kbps
Columbia, CK 39944 | ~ 363 or 123 Mb | Scans(jpg, 600dpi) -> 89 Mb
Rock / Folk-Rock

It may be his first live album in six years, but Real Live still is his fourth live album in ten years, and, as such, it still feels a little redundant. Nevertheless, it doesn't feel anywhere nearly as unnecessary as At Budokan and if it doesn't capture a historically significant tour, as Hard Rain did with the Rolling Thunder Revue, this is a better record all the same, capturing a working band – a working band featuring ex-Stones guitarist Mick Taylor, no less – on a pretty good night. That means there are few revelations – though diehards will certainly revel in "Tangled Up in Blue," which has several brand-new (not necessarily better) verses – but it's still pretty good all the same, providing lean, relatively muscular renditions of Dylan's great songs. This isn't an important, necessary Dylan record, but it's a good, solid live album, his best live album since Before the Flood, even if it's hardly as monumental as that.

by Stephen Thomas Erlewine, AMG

Tracklist:

01 Highway 61 Revisited 5:07
02 Maggie's Farm 4:54
03 I And I 6:00
04 License To Kill 3:26
05 It Ain't Me, Babe 5:17
06 Tangled Up In Blue 6:54
07 Masters Of War 6:35
08 Ballad Of A Thin Man 3:05
09 Girl From The North Country 4:25
10 Tombstone Blues 4:32

Exact Audio Copy V0.99 prebeta 5 from 4. May 2009

EAC extraction logfile from 9. June 2013, 14:43

Bob Dylan / Real Live

Used drive : PLEXTOR DVDR PX-L890SA Adapter: 1 ID: 0

Read mode : Secure
Utilize accurate stream : Yes
Defeat audio cache : Yes
Make use of C2 pointers : No

Read offset correction : 6
Overread into Lead-In and Lead-Out : No
Fill up missing offset samples with silence : Yes
Delete leading and trailing silent blocks : No
Null samples used in CRC calculations : Yes
Used interface : Native Win32 interface for Win NT & 2000

Used output format : User Defined Encoder
Selected bitrate : 768 kBit/s
Quality : High
Add ID3 tag : No
Command line compressor : d:\Program Files\Exact Audio Copy\FLAC\FLAC.EXE
Additional command line options : -T "DATE=%y" -T "GENRE=%m" -8 -V %s


TOC of the extracted CD

Track | Start | Length | Start sector | End sector
––––––––––––––––––––––––––––-
1 | 0:00.00 | 5:10.33 | 0 | 23282
2 | 5:10.33 | 4:54.32 | 23283 | 45364
3 | 10:04.65 | 6:03.70 | 45365 | 72659
4 | 16:08.60 | 3:45.73 | 72660 | 89607
5 | 19:54.58 | 5:26.12 | 89608 | 114069
6 | 25:20.70 | 7:02.28 | 114070 | 145747
7 | 32:23.23 | 6:33.67 | 145748 | 175289
8 | 38:57.15 | 4:17.68 | 175290 | 194632
9 | 43:15.08 | 4:28.15 | 194633 | 214747
10 | 47:43.23 | 4:33.27 | 214748 | 235249


Range status and errors

Selected range

Filename H:\MUSIC\COLLECTION\Bob Dylan\1984 Real Live - Live\Bob Dylan - Real Live.wav

Peak level 95.6 %
Range quality 99.9 %
Test CRC 3DA0B28D
Copy CRC 3DA0B28D
Copy OK

No errors occurred


AccurateRip summary

Track 1 cannot be verified as accurate (confidence 9) [F72B9320], AccurateRip returned [E64D750C]
Track 2 cannot be verified as accurate (confidence 9) [61431AD3], AccurateRip returned [401CE4E4]
Track 3 cannot be verified as accurate (confidence 9) [EBA2DD56], AccurateRip returned [719B9E3E]
Track 4 cannot be verified as accurate (confidence 9) [DFD21EDB], AccurateRip returned [F10A9A6F]
Track 5 cannot be verified as accurate (confidence 9) [FA50195D], AccurateRip returned [890696E8]
Track 6 cannot be verified as accurate (confidence 9) [3D0E6C06], AccurateRip returned [181ACE13]
Track 7 cannot be verified as accurate (confidence 8) [9D5313C7], AccurateRip returned [334BB30A]
Track 8 cannot be verified as accurate (confidence 8) [F542752E], AccurateRip returned [E943DC7B]
Track 9 cannot be verified as accurate (confidence 8) [A82B7EED], AccurateRip returned [4D539C8D]
Track 10 cannot be verified as accurate (confidence 7) [941008B8], AccurateRip returned [97F17FEC]

No tracks could be verified as accurate
You may have a different pressing from the one(s) in the database

End of status report

foobar2000 1.2.9 / Dynamic Range Meter 1.1.1
log date: 2013-11-23 17:36:21

––––––––––––––––––––––––––––––––––––––––
Analyzed: Bob Dylan / Real Live
––––––––––––––––––––––––––––––––––––––––

DR Peak RMS Duration Track
––––––––––––––––––––––––––––––––––––––––
DR14 -0.45 dB -15.95 dB 5:10 01-Highway 61 Revisited (live)
DR13 -0.65 dB -15.92 dB 4:54 02-Maggie's Farm (live)
DR13 -1.40 dB -17.97 dB 6:04 03-I And I (live)
DR13 -1.14 dB -16.85 dB 3:46 04-License To Kill (live)
DR14 -2.45 dB -21.01 dB 5:26 05-It Ain't Me, Babe (live)
DR13 -2.48 dB -18.96 dB 7:02 06-Tangled Up In Blue (live)
DR14 -1.10 dB -17.00 dB 6:34 07-Masters Of War (live)
DR13 -1.59 dB -17.22 dB 4:18 08-Ballad Of A Thin Man (live)
DR15 -4.41 dB -23.04 dB 4:28 09-Girl From The North Country (live)
DR13 -0.39 dB -16.13 dB 4:33 10-Tombstone Blues (live)
––––––––––––––––––––––––––––––––––––––––

Number of tracks: 10
Official DR value: DR14

Samplerate: 44100 Hz
Channels: 2
Bits per sample: 16
Bitrate: 943 kbps
Codec: FLAC


=============================

Bob Dylan: Live Albums Collection (1974 - 1995) Re-up

VA: Bob Dylan - The 30th Anniversary Concert Celebration (1993)
EAC | Flac(Image) + Cue + Log & MP3 CBR 320Kbps
2CD | Columbia, 474000 2 | ~ 989 or 349 Mb | Scans(jpg, 600dpi) -> 172 Mb
Rock / Folk-Rock

To commemorate 30 years since the release of Dylan's first Columbia album, a marathon tribute concert was held at New York's Madison Square Garden, with a galaxy of stars and voices from the past taking part. The cumulative effect of this tribute was staggering, revealing just how much truly great Dylan material there is to choose from all of his periods. A firm nucleus of the three surviving members of Booker T. & the MG's, plus G.E. Smith on guitar and Jim Keltner and Anton Fig on drums, anchors the bands, and most of the stars offer fresh slants on songs familiar and obscure. Among the more memorable interpretations are Richie Havens' moving "Just Like a Woman," completely within his style; the Clancy Brothers' fervent conversion of "When the Ship Comes In" to an Irish folk idiom; the swinging, countrified "You Ain't Goin' Nowhere" from Mary Chapin Carpenter, Shawn Colvin, and Rosanne Cash; and a sullen "Masters of War" by Eddie Vedder and Mike McCready on acoustic guitars. Lou Reed went through the bootlegs to come up with the pounding "Foot of Pride," which is perfectly suited to Reed's declamatory style. Eric Clapton shrugs off his diffident manner to deliver one of the most electrifying performances of his life in "Don't Think Twice, It's All Right" – each guitar lick and vocal cuts angrily to the bone – and George Harrison makes his first U.S. concert appearance in 18 years with "Absolutely Sweet Marie." Dylan himself appears at the end, wildly improvisational and harshly authentic in voice on "It's Alright, Ma" and "Girl of the North Country." By no means does this box contain the entire concert, though, and while the reason was probably to make the thing fit on two well-packed CDs, some of the deletions are inexplicable. To cite just a few examples, Harrison's "If Not for You" is missing; so are Clapton's "Love Minus Zero, No Limit" and some numbers by Booker T. & the MG's ("Gotta Serve Somebody" and "Lay Lady Lay" are in Stax's Time Is Tight box). Even Dylan's own performance of "Song to Woody" is not here; the booklet pleads "technical problems" but it sounded fine on the live telecast. Nevertheless, enough of the concert is here to suggest its triumph – and all were reminded that the fountainhead of all of this music was still alive, creative, and unwilling to be consigned to the history books.

by Richard S. Ginell, AMG

Tracklist CD1:

01 John Mellencamp – Like A Rolling Stone 06:54
02 John Mellencamp – Leopard-Skin Pill-Box Hat 4:20
03 Kris Kristofferson – Introduction 0:56
04 Stevie Wonder – Blowin' In The Wind 8:54
05 Lou Reed – Foot Of Pride 8:48
06 Eddie Vedder, Mike McCready – Masters Of War 5:56
07 Tracy Chapman – The Times They Are A-Changin' 3:01
08 June Carter Cash / Johnny Cash – It Ain't Me, Babe 3:50
09 Willie Nelson – What Was It You Wanted 5:47
10 Kris Kristofferson – I'll Be Your Baby Tonight 3:05
11 Johnny Winter – Highway 61 Revisited 5:06
12 Ron Wood – Seven Days 5:26
13 Richie Havens – Just Like A Woman 5:50
14 Clancy Brothers, The And Robbie O'Connell With Special Guest Tommy Makem – When The Ship Comes In 4:24
15 Mary-Chapin Carpenter* / Rosanne Cash / Shawn Colvin – You Ain't Goin' Nowhere 3:52

Exact Audio Copy V0.99 prebeta 5 from 4. May 2009

EAC extraction logfile from 28. April 2013, 16:48

Bob Dylan / The 30th Anniversary Concert Celebration CD1

Used drive : PLEXTOR DVDR PX-L890SA Adapter: 1 ID: 0

Read mode : Secure
Utilize accurate stream : Yes
Defeat audio cache : Yes
Make use of C2 pointers : No

Read offset correction : 6
Overread into Lead-In and Lead-Out : No
Fill up missing offset samples with silence : Yes
Delete leading and trailing silent blocks : No
Null samples used in CRC calculations : Yes
Used interface : Native Win32 interface for Win NT & 2000

Used output format : User Defined Encoder
Selected bitrate : 768 kBit/s
Quality : High
Add ID3 tag : No
Command line compressor : d:\Program Files\Exact Audio Copy\FLAC\FLAC.EXE
Additional command line options : -T "DATE=%y" -T "GENRE=%m" -8 -V %s


TOC of the extracted CD

Track | Start | Length | Start sector | End sector
––––––––––––––––––––––––––––-
1 | 0:00.00 | 6:54.12 | 0 | 31061
2 | 6:54.12 | 4:19.70 | 31062 | 50556
3 | 11:14.07 | 0:55.68 | 50557 | 54749
4 | 12:10.00 | 8:53.62 | 54750 | 94786
5 | 21:03.62 | 8:47.65 | 94787 | 134376
6 | 29:51.52 | 5:06.30 | 134377 | 157356
7 | 34:58.07 | 3:01.18 | 157357 | 170949
8 | 37:59.25 | 3:50.05 | 170950 | 188204
9 | 41:49.30 | 5:47.12 | 188205 | 214241
10 | 47:36.42 | 3:04.50 | 214242 | 228091
11 | 50:41.17 | 5:05.63 | 228092 | 251029
12 | 55:47.05 | 5:26.30 | 251030 | 275509
13 | 61:13.35 | 5:50.00 | 275510 | 301759
14 | 67:03.35 | 4:24.00 | 301760 | 321559
15 | 71:27.35 | 3:52.20 | 321560 | 338979


Range status and errors

Selected range

Filename H:\MUSIC\COLLECTION\Bob Dylan\1993 The 30th Anniversary Concert Celebration\Bob Dylan - The 30th Anniversary Concert Celebration CD1.wav

Peak level 100.0 %
Range quality 99.9 %
Test CRC 97CC11AA
Copy CRC 97CC11AA
Copy OK

No errors occurred


AccurateRip summary

Track 1 accurately ripped (confidence 16) [379330C6]
Track 2 accurately ripped (confidence 16) [AF69C261]
Track 3 accurately ripped (confidence 16) [FFA930C5]
Track 4 accurately ripped (confidence 16) [C3FB3723]
Track 5 accurately ripped (confidence 16) [767ABBD7]
Track 6 accurately ripped (confidence 16) [66733204]
Track 7 accurately ripped (confidence 16) [81FE6D58]
Track 8 accurately ripped (confidence 16) [F998C5C5]
Track 9 accurately ripped (confidence 16) [CFA04DB9]
Track 10 accurately ripped (confidence 16) [1CE1E6B4]
Track 11 accurately ripped (confidence 15) [08667A5B]
Track 12 accurately ripped (confidence 15) [B40B70B0]
Track 13 accurately ripped (confidence 16) [ED880EEF]
Track 14 accurately ripped (confidence 17) [07954841]
Track 15 accurately ripped (confidence 16) [06CFE1D8]

All tracks accurately ripped

End of status report

foobar2000 1.2.9 / Dynamic Range Meter 1.1.1
log date: 2013-11-23 17:36:43

––––––––––––––––––––––––––––––––––––––––
Analyzed: Bob Dylan / The 30th Anniversary Concert Celebration CD1
––––––––––––––––––––––––––––––––––––––––

DR Peak RMS Duration Track
––––––––––––––––––––––––––––––––––––––––
DR12 0.00 dB -13.90 dB 6:54 01-Like a Rolling Stone / John Mellencamp
DR12 0.00 dB -13.41 dB 4:20 02-Leopard-skin Pill-box hat / John Mellencamp
DR12 -3.17 dB -18.36 dB 0:56 03-Introduction / Kris Kristofferson
DR12 0.00 dB -14.84 dB 8:54 04-Blowin' in the Wind / Stevie Wonder
DR12 0.00 dB -13.16 dB 8:48 05-Foot of Pride / Lou Reed
DR11 0.00 dB -15.95 dB 5:06 06-Masters of War / Eddie Vedder & Mike McCready
DR14 -0.08 dB -18.29 dB 3:01 07-The Times They Are A-changin' / Tracy Chapman
DR12 0.00 dB -13.66 dB 3:50 08-It Ain't Me, Babe / Carter Cash, June & Johnny Cash
DR12 0.00 dB -13.63 dB 5:47 09-What Was It You Wanted / Willie Nelson
DR12 0.00 dB -13.52 dB 3:05 10-I'll Be Your Baby Tonight / Kris Kristofferson
DR9 0.00 dB -9.93 dB 5:06 11-Highway 61 Revisited / Johnny Winter
DR9 -1.27 dB -11.66 dB 5:26 12-Seven Days / Ron Wood
DR16 0.00 dB -18.66 dB 5:50 13-Just Like a Woman / Richie Havens
DR13 0.00 dB -15.75 dB 4:24 14-When the Ship Comes In / The Clancy Brothers & Robbie O'Connell + Tommy Makem
DR12 0.00 dB -14.90 dB 3:52 15-You Ain't Goin' Nowhere / Mary Carpenter + Chapin & Rosanne Cash + Shawn Colvin
––––––––––––––––––––––––––––––––––––––––

Number of tracks: 15
Official DR value: DR12

Samplerate: 44100 Hz
Channels: 2
Bits per sample: 16
Bitrate: 886 kbps
Codec: FLAC

Tracklist CD2:

01 Neil Young – Just Like Tom Thumb's Blues 3:58
02 Neil Young – All Along The Watchtower 6:21
03 Chrissie Hynde – I Shall Be Released 4:26
04 Eric Clapton – Don't Think Twice, It's All Right 6:10
05 O'Jays, The – Emotionally Yours 5:43
06 Band, The – When I Paint My Masterpiece 4:23
07 George Harrison – Absolutely Sweet Marie 4:44
08 Tom Petty & The Heartbreakers – License To Kill 4:53
09 Tom Petty & The Heartbreakers – Rainy Day Women #12 & 35 4:44
10 Roger McGuinn – Mr. Tambourine Man 4:10
11 Bob Dylan – It's Alright, Ma (I'm Only Bleeding) 6:21
12 Bob Dylan, Roger McGuinn, Tom Petty, Neil Young, Eric Clapton, George Harrison – My Back Pages 4:39
13 Everyone – Knockin' On Heaven's Door 5:38
14 Bob Dylan – Girl Of The North Country 5:12

Exact Audio Copy V0.99 prebeta 5 from 4. May 2009

EAC extraction logfile from 28. April 2013, 17:11

Various Artists / Bob Dylan - The 30th Anniversary Concert Celebration (CD 2)

Used drive : PLEXTOR DVDR PX-L890SA Adapter: 1 ID: 0

Read mode : Secure
Utilize accurate stream : Yes
Defeat audio cache : Yes
Make use of C2 pointers : No

Read offset correction : 6
Overread into Lead-In and Lead-Out : No
Fill up missing offset samples with silence : Yes
Delete leading and trailing silent blocks : No
Null samples used in CRC calculations : Yes
Used interface : Native Win32 interface for Win NT & 2000

Used output format : User Defined Encoder
Selected bitrate : 768 kBit/s
Quality : High
Add ID3 tag : No
Command line compressor : d:\Program Files\Exact Audio Copy\FLAC\FLAC.EXE
Additional command line options : -T "DATE=%y" -T "GENRE=%m" -8 -V %s


TOC of the extracted CD

Track | Start | Length | Start sector | End sector
––––––––––––––––––––––––––––-
1 | 0:00.00 | 5:38.00 | 0 | 25349
2 | 5:38.00 | 6:20.50 | 25350 | 53899
3 | 11:58.50 | 4:26.07 | 53900 | 73856
4 | 16:24.57 | 6:09.70 | 73857 | 101601
5 | 22:34.52 | 5:43.30 | 101602 | 127356
6 | 28:18.07 | 4:23.05 | 127357 | 147086
7 | 32:41.12 | 4:43.40 | 147087 | 168351
8 | 37:24.52 | 4:53.03 | 168352 | 190329
9 | 42:17.55 | 4:44.37 | 190330 | 211666
10 | 47:02.17 | 4:10.13 | 211667 | 230429
11 | 51:12.30 | 6:21.30 | 230430 | 259034
12 | 57:33.60 | 4:39.35 | 259035 | 279994
13 | 62:13.20 | 5:38.27 | 279995 | 305371
14 | 67:51.47 | 5:12.13 | 305372 | 328784


Range status and errors

Selected range

Filename H:\MUSIC\COLLECTION\Bob Dylan\1993 The 30th Anniversary Concert Celebration\Bob Dylan - The 30th Anniversary Concert Celebration CD2.wav

Peak level 100.0 %
Range quality 100.0 %
Test CRC 74EAFF05
Copy CRC 74EAFF05
Copy OK

No errors occurred


AccurateRip summary

Track 1 cannot be verified as accurate (confidence 54) [DBB0A6C5], AccurateRip returned [A7AB7CF8]
Track 2 cannot be verified as accurate (confidence 54) [903FBB20], AccurateRip returned [2A2FE844]
Track 3 cannot be verified as accurate (confidence 54) [6667374D], AccurateRip returned [C5BCFD3D]
Track 4 cannot be verified as accurate (confidence 55) [9416EDF8], AccurateRip returned [A40051EE]
Track 5 cannot be verified as accurate (confidence 54) [7F4C2B90], AccurateRip returned [F3FD9058]
Track 6 cannot be verified as accurate (confidence 54) [3B4B0A00], AccurateRip returned [B8B931CF]
Track 7 cannot be verified as accurate (confidence 55) [EBC35CE3], AccurateRip returned [BEA78FAD]
Track 8 cannot be verified as accurate (confidence 53) [0D4437AF], AccurateRip returned [12CDCBC7]
Track 9 cannot be verified as accurate (confidence 55) [9A4A4C38], AccurateRip returned [7C009BEE]
Track 10 cannot be verified as accurate (confidence 52) [438F75E4], AccurateRip returned [7726AB03]
Track 11 cannot be verified as accurate (confidence 54) [74A6C947], AccurateRip returned [D0DC8528]
Track 12 cannot be verified as accurate (confidence 52) [4F18792B], AccurateRip returned [47BCE233]
Track 13 cannot be verified as accurate (confidence 50) [96340A52], AccurateRip returned [00A0A8ED]
Track 14 cannot be verified as accurate (confidence 50) [5D1F887C], AccurateRip returned [B86A98A3]

No tracks could be verified as accurate
You may have a different pressing from the one(s) in the database

End of status report

foobar2000 1.2.9 / Dynamic Range Meter 1.1.1
log date: 2013-11-23 17:36:55

––––––––––––––––––––––––––––––––––––––––
Analyzed: Bob Dylan / Bob Dylan - The 30th Anniversary Concert Celebration (CD 2)
––––––––––––––––––––––––––––––––––––––––

DR Peak RMS Duration Track
––––––––––––––––––––––––––––––––––––––––
DR15 0.00 dB -17.37 dB 6:21 11-It's Alright, Ma (I'm Only Bleeding)
DR16 0.00 dB -19.52 dB 5:12 14-Girl Of The North Country
––––––––––––––––––––––––––––––––––––––––

Number of tracks: 2
Official DR value: DR15

Samplerate: 44100 Hz
Channels: 2
Bits per sample: 16
Bitrate: 924 kbps
Codec: FLAC
================================================================================

––––––––––––––––––––––––––––––––––––––––
Analyzed: Chrissie Hynde / Bob Dylan - The 30th Anniversary Concert Celebration (CD 2) (1)
Eric Clapton / Bob Dylan - The 30th Anniversary Concert Celebration (CD 2) (2)
Everyone / Bob Dylan - The 30th Anniversary Concert Celebration (CD 2) (3)
––––––––––––––––––––––––––––––––––––––––

DR Peak RMS Duration Track
––––––––––––––––––––––––––––––––––––––––
DR12 0.00 dB -13.45 dB 4:26 03-I Shall Be Released
DR12 0.00 dB -13.57 dB 6:10 04-Don't Think Twice, It's All Right
DR11 0.00 dB -11.85 dB 5:38 13-Knockin' On Heaven's Door
––––––––––––––––––––––––––––––––––––––––

Number of tracks: 3
Official DR value: DR12

Samplerate: 44100 Hz
Channels: 2
Bits per sample: 16
Bitrate: 924 kbps
Codec: FLAC
================================================================================

––––––––––––––––––––––––––––––––––––––––
Statistics for: 07-Absolutely Sweet Marie
Number of samples: 12503820
Duration: 4:44
––––––––––––––––––––––––––––––––––––––––

Left Right

Peak Value: -0.20 dB –- -0.20 dB
Avg RMS: -13.89 dB –- -12.88 dB
DR channel: 12.04 dB –- 11.48 dB
––––––––––––––––––––––––––––––––––––––––

Official DR Value: DR12

Samplerate: 44100 Hz
Channels: 2
Bits per sample: 16
Bitrate: 924 kbps
Codec: FLAC
================================================================================
––––––––––––––––––––––––––––––––––––––––
Analyzed: Neil Young / Bob Dylan - The 30th Anniversary Concert Celebration (CD 2) (1-2)
Roger McGuinn / Bob Dylan - The 30th Anniversary Concert Celebration (CD 2) (3)
––––––––––––––––––––––––––––––––––––––––

DR Peak RMS Duration Track
––––––––––––––––––––––––––––––––––––––––
DR12 0.00 dB -13.41 dB 5:38 01-Just Like Tom Thumb's Blues
DR9 -0.57 dB -11.91 dB 6:21 02-All Along The Watchtower
DR12 -0.13 dB -13.31 dB 4:10 10-Mr. Tambourine Man
––––––––––––––––––––––––––––––––––––––––

Number of tracks: 3
Official DR value: DR11

Samplerate: 44100 Hz
Channels: 2
Bits per sample: 16
Bitrate: 924 kbps
Codec: FLAC
================================================================================

––––––––––––––––––––––––––––––––––––––––
Statistics for: 06-When I Paint My Masterpiece
Number of samples: 11601240
Duration: 4:23
––––––––––––––––––––––––––––––––––––––––

Left Right

Peak Value: 0.00 dB –- 0.00 dB
Avg RMS: -13.99 dB –- -14.72 dB
DR channel: 12.14 dB –- 12.93 dB
––––––––––––––––––––––––––––––––––––––––

Official DR Value: DR13

Samplerate: 44100 Hz
Channels: 2
Bits per sample: 16
Bitrate: 924 kbps
Codec: FLAC
================================================================================
––––––––––––––––––––––––––––––––––––––––
Analyzed: The O'Jays / Bob Dylan - The 30th Anniversary Concert Celebration (CD 2) (1)
Tom Petty & The Heartbreakers / Bob Dylan - The 30th Anniversary Concert Celebration (CD 2) (2-3)
––––––––––––––––––––––––––––––––––––––––

DR Peak RMS Duration Track
––––––––––––––––––––––––––––––––––––––––
DR12 0.00 dB -14.13 dB 5:43 05-Emotionally Yours
DR13 0.00 dB -14.96 dB 4:53 08-License To Kill
DR11 0.00 dB -11.98 dB 4:44 09-Rainy Day Women #12 & 35
––––––––––––––––––––––––––––––––––––––––

Number of tracks: 3
Official DR value: DR12

Samplerate: 44100 Hz
Channels: 2
Bits per sample: 16
Bitrate: 924 kbps
Codec: FLAC

=============================

Bob Dylan: Live Albums Collection (1974 - 1995) Re-up

Bob Dylan - MTV Unplugged (1995) Repost
EAC | Flac(Image) + Cue + Log & MP3 CBR 320Kbps
Columbia, 478374 2 | ~ 439 or 163 Mb | Scans(jpg, 600dpi) -> 153 Mb
Rock / Folk-Rock

This show, taped for MTV, finds Dylan turning in an 11-song set, with eight of the songs dating from his 1963-1967 heyday, including such standards as "The Times They Are A-Changin'" and "Like a Rolling Stone." ("John Brown," a powerful antiwar song from 1963, had not been released on a Dylan album previously.) The '70s are represented by "Knockin' on Heaven's Door," and the '80s by "Shooting Star" and "Dignity" (a trunk song, the studio version of which had emerged only the previous November on Bob Dylan's Greatest Hits, Vol. 3). Dylan, accompanied by a competent five-piece band, approaches his material in a gentler fashion than on some of the originals – "The Times They Are A-Changin'" and "With God on Our Side," for example, seem sadder and less defiant than they did back in 1964. Otherwise, unlike some other Unplugged performances, this one doesn't offer a noticeably different view of the artist's work. But then, Dylan has been unplugged for much of his career, anyway.

by William Ruhlmann, AMG

Tracklist:

01 Tombstone Blues 4:54
02 Shooting Star 4:06
03 All Along The Watchtower 3:36
04 The Times They Are A-Changin' 5:48
05 John Brown 5:26
06 Desolation Row 8:17
07 Rainy Day Women # 12 & 35 3:29
08 Love Minus Zero / No Limit 5:22
09 Dignity 6:29
10 Knockin' On Heaven's Door 5:36
11 Like A Rolling Stone 9:09
12 With God On Our Side 7:07

Exact Audio Copy V0.99 prebeta 5 from 4. May 2009

EAC extraction logfile from 28. April 2013, 10:12

Dylan, Bob / MTV Unplugged

Used drive : PLEXTOR DVDR PX-L890SA Adapter: 1 ID: 0

Read mode : Secure
Utilize accurate stream : Yes
Defeat audio cache : Yes
Make use of C2 pointers : No

Read offset correction : 6
Overread into Lead-In and Lead-Out : No
Fill up missing offset samples with silence : Yes
Delete leading and trailing silent blocks : No
Null samples used in CRC calculations : Yes
Used interface : Native Win32 interface for Win NT & 2000

Used output format : User Defined Encoder
Selected bitrate : 768 kBit/s
Quality : High
Add ID3 tag : No
Command line compressor : d:\Program Files\Exact Audio Copy\FLAC\FLAC.EXE
Additional command line options : -T "DATE=%y" -T "GENRE=%m" -8 -V %s


TOC of the extracted CD

Track | Start | Length | Start sector | End sector
––––––––––––––––––––––––––––-
1 | 0:00.00 | 4:54.57 | 0 | 22106
2 | 4:54.57 | 4:06.03 | 22107 | 40559
3 | 9:00.60 | 3:36.40 | 40560 | 56799
4 | 12:37.25 | 5:48.40 | 56800 | 82939
5 | 18:25.65 | 5:26.25 | 82940 | 107414
6 | 23:52.15 | 8:17.62 | 107415 | 144751
7 | 32:10.02 | 3:29.18 | 144752 | 160444
8 | 35:39.20 | 5:22.20 | 160445 | 184614
9 | 41:01.40 | 6:29.67 | 184615 | 213856
10 | 47:31.32 | 5:36.08 | 213857 | 239064
11 | 53:07.40 | 9:09.52 | 239065 | 280291
12 | 62:17.17 | 7:07.33 | 280292 | 312349


Range status and errors

Selected range

Filename H:\MUSIC\COLLECTION\Bob Dylan\1995 MTV Unplugged - live\Dylan, Bob - MTV Unplugged.wav

Peak level 100.0 %
Range quality 100.0 %
Test CRC 101AD219
Copy CRC 101AD219
Copy OK

No errors occurred


AccurateRip summary

Track 1 cannot be verified as accurate (confidence 96) [D9A8F426], AccurateRip returned [578A58BB]
Track 2 cannot be verified as accurate (confidence 96) [22B539C9], AccurateRip returned [FA22ED08]
Track 3 cannot be verified as accurate (confidence 96) [FDD94ED4], AccurateRip returned [C9D79620]
Track 4 cannot be verified as accurate (confidence 95) [283BB090], AccurateRip returned [F71AC04A]
Track 5 cannot be verified as accurate (confidence 95) [28B13101], AccurateRip returned [8AE624B1]
Track 6 cannot be verified as accurate (confidence 95) [63CFF1D5], AccurateRip returned [C706C555]
Track 7 cannot be verified as accurate (confidence 95) [3FDDDB48], AccurateRip returned [7D83A9AF]
Track 8 cannot be verified as accurate (confidence 94) [D933AF17], AccurateRip returned [A51BBD95]
Track 9 cannot be verified as accurate (confidence 93) [CCFB5D5B], AccurateRip returned [BF85E18C]
Track 10 cannot be verified as accurate (confidence 91) [ECF6C949], AccurateRip returned [C39DC613]
Track 11 cannot be verified as accurate (confidence 87) [31E593E5], AccurateRip returned [EFCBCDDF]
Track 12 cannot be verified as accurate (confidence 89) [D650B639], AccurateRip returned [B5B1101F]

No tracks could be verified as accurate
You may have a different pressing from the one(s) in the database

End of status report

foobar2000 1.2.9 / Dynamic Range Meter 1.1.1
log date: 2013-11-23 17:37:25

––––––––––––––––––––––––––––––––––––––––
Analyzed: Dylan, Bob / MTV Unplugged
––––––––––––––––––––––––––––––––––––––––

DR Peak RMS Duration Track
––––––––––––––––––––––––––––––––––––––––
DR10 -0.26 dB -11.95 dB 4:55 01-Tombstone Blues
DR12 0.00 dB -14.60 dB 4:06 02-Shooting Star
DR11 0.00 dB -12.64 dB 3:37 03-All along the Watchtower
DR12 0.00 dB -14.59 dB 5:49 04-The times they are a-changing
DR12 0.00 dB -14.31 dB 5:26 05-John Brown
DR12 0.00 dB -14.14 dB 8:18 06-Desolation row
DR10 0.00 dB -11.47 dB 3:29 07-Rainy Day Women
DR12 -0.91 dB -16.44 dB 5:22 08-Love minus zero / No Limit
DR10 0.00 dB -11.69 dB 6:30 09-Dignity
DR11 0.00 dB -13.46 dB 5:36 10-KnockinТ‘ on heavens door
DR10 0.00 dB -12.22 dB 9:10 11-Like a rolling stone
DR11 0.00 dB -15.40 dB 7:07 12-With God on our side
––––––––––––––––––––––––––––––––––––––––

Number of tracks: 12
Official DR value: DR11

Samplerate: 44100 Hz
Channels: 2
Bits per sample: 16
Bitrate: 859 kbps
Codec: FLAC

All thanks go to snakesharmer

Download Bob Dylan: Live Albums Collection (1974 - 1995):