Subcategories

Bob Dylan - The Original Mono Recordings (1962-1967) [2010, Japan mini LPs, SICP-2951~9] Re-up

Posted By: v3122
Bob Dylan - The Original Mono Recordings (1962-1967) [2010, Japan mini LPs, SICP-2951~9] Re-up

Bob Dylan - The Original Mono Recordings (1962-1967) [2010, Japan mini LPs, SICP-2951~9]
Rock/Folk Rock | Flac(Image) + Cue + Log & MP3 CBR 320Kbps
Sony Music | SICP-2951~9 | 2010 Remastering | ~1343 or 1034 Mb
Scans(300dpi, jpg) Included | Scans(600dpi, png) -> 1101 Mb | Box Art(300dpi, jpg) -> 219 Mb (600dpi, png) -> 1.76 Gb

Bob Dylan - The Original Mono Recordings (1962-1967) [2010, Japan mini LPs, SICP-2951~9] Re-up

CD box set release from Bob Dylan including his eight original albums from "Bob Dylan (1962)" to "John Wesley Harding (1968)." All albums feature the 2010 remastering from each mono master. *Japan edition exclusively features cardboard sleeve (mini LP) manufactured by Japan (size: 13.5 x 13.5cm). It faithfully repricates the original LP artwork with Obi. Limited copies of 5000.

Bob Dylan - The Original Mono Recordings (1962-1967) [2010, Japan mini LPs, SICP-2951~9] Re-up
Bob Dylan - The Original Mono Recordings (1962-1967) [2010, Japan mini LPs, SICP-2951~9] Re-up

Bob Dylan:

Born: May 24, 1941, Duluth, MN
Active: '60s, '70s, '80s, '90s, 2000s
Genres: Rock
Instrument: Vocals, Harmonica
Representative Albums: "Another Side of Bob Dylan", "Bringing It All Back Home", "Bob Dylan's Greatest Hits"
Representative Songs: "Like a Rolling Stone", "Blowin' in the Wind", "Just Like a Woman"

Bob Dylan's influence on popular music is incalculable. As a songwriter, he pioneered several different schools of pop songwriting, from confessional singer/songwriter to winding, hallucinatory, stream-of-consciousness narratives. As a vocalist, he broke down the notion that a singer must have a conventionally good voice in order to perform, thereby redefining the vocalist's role in popular music. As a musician, he sparked several genres of pop music, including electrified folk-rock and country-rock. And that just touches on the tip of his achievements. Dylan's force was evident during his height of popularity in the '60s – the Beatles' shift toward introspective songwriting in the mid-'60s never would have happened without him – but his influence echoed throughout several subsequent generations, as many of his songs became popular standards and his best albums became undisputed classics of the rock & roll canon. Dylan's influence throughout folk music was equally powerful, and he marks a pivotal turning point in its 20th century evolution, signifying when the genre moved away from traditional songs and toward personal songwriting. Even when his sales declined in the '80s and '90s, Dylan's presence rarely lagged, and his commercial revival in the 2000s proved his staying power.

For a figure of such substantial influence, Dylan came from humble beginnings. Born in Duluth, MN, Bob Dylan (b. Robert Allen Zimmerman, May 24, 1941) was raised in Hibbing, MN, from the age of six. As a child he learned how to play guitar and harmonica, forming a rock & roll band called the Golden Chords when he was in high school. Following his graduation in 1959, he began studying art at the University of Minnesota in Minneapolis. While at college, he began performing folk songs at coffeehouses under the name Bob Dylan, taking his last name from the poet Dylan Thomas. Already inspired by Hank Williams and Woody Guthrie, Dylan began listening to blues while at college, and the genre weaved its way into his music. He spent the summer of 1960 in Denver, where he met bluesman Jesse Fuller, the inspiration behind the songwriter's signature harmonica rack and guitar. By the time he returned to Minneapolis in the fall, he had grown substantially as a performer and was determined to become a professional musician.

Dylan made his way to New York City in January of 1961, immediately making a substantial impression on the folk community of Greenwich Village. He began visiting his idol Guthrie in the hospital, where he was slowly dying from Huntington's chorea. Dylan also began performing in coffeehouses, and his rough charisma won him a significant following. In April, he opened for John Lee Hooker at Gerde's Folk City. Five months later, Dylan performed another concert at the venue, which was reviewed positively by Robert Shelton in The New York Times. Columbia A&R man John Hammond sought out Dylan on the strength of the review, and signed the songwriter in the fall of 1961. Hammond produced Dylan's eponymous debut album (released in March 1962), a collection of folk and blues standards that boasted only two original songs. Over the course of 1962, Dylan began to write a large batch of original songs, many of which were political protest songs in the vein of his Greenwich contemporaries. These songs were showcased on his second album, The Freewheelin' Bob Dylan. Before its release, Freewheelin' went through several incarnations. Dylan had recorded a rock & roll single, "Mixed Up Confusion," at the end of 1962, but his manager, Albert Grossman, made sure the record was deleted because he wanted to present Dylan as an acoustic folkie. Similarly, several tracks with a full backing band that were recorded for Freewheelin' were scrapped before the album's release. Furthermore, several tracks recorded for the album – including "Talking John Birch Society Blues" – were eliminated from the album before its release.

Comprised entirely of original songs, The Freewheelin' Bob Dylan made a huge impact in the U.S. folk community, and many performers began covering songs from the album. Of these, the most significant were Peter, Paul and Mary, who made "Blowin' in the Wind" into a huge pop hit in the summer of 1963 and thereby made Bob Dylan into a recognizable household name. On the strength of Peter, Paul and Mary's cover and his opening gigs for popular folkie Joan Baez, Freewheelin' became a hit in the fall of 1963, climbing to number 23 on the charts. By that point, Baez and Dylan had become romantically involved, and she was beginning to record his songs frequently. Dylan was writing just as fast.

By the time The Times They Are A-Changin' was released in early 1964, Dylan's songwriting had developed far beyond that of his New York peers. Heavily inspired by poets like Arthur Rimbaud and John Keats, his writing took on a more literate and evocative quality. Around the same time, he began to expand his musical boundaries, adding more blues and R&B influences to his songs. Released in the summer of 1964, Another Side of Bob Dylan made these changes evident. However, Dylan was moving faster than his records could indicate. By the end of 1964, he had ended his romantic relationship with Baez and had begun dating a former model named Sara Lowndes, whom he subsequently married. Simultaneously, he gave the Byrds "Mr. Tambourine Man" to record for their debut album. The Byrds gave the song a ringing, electric arrangement, but by the time the single became a hit, Dylan was already exploring his own brand of folk-rock. Inspired by the British Invasion, particularly the Animals' version of "House of the Rising Sun," Dylan recorded a set of original songs backed by a loud rock & roll band for his next album. While Bringing It All Back Home (March 1965) still had a side of acoustic material, it made clear that Dylan had turned his back on folk music. For the folk audience, the true breaking point arrived a few months after the album's release, when he played the Newport Folk Festival supported by the Paul Butterfield Blues Band. The audience greeted him with vicious derision, but he had already been accepted by the growing rock & roll community. Dylan's spring tour of Britain was the basis for D.A. Pennebaker's documentary Don't Look Back, a film that captures the songwriter's edgy charisma and charm.

Dylan made his breakthrough to the pop audience in the summer of 1965, when "Like a Rolling Stone" became a number two hit. Driven by a circular organ riff and a steady beat, the six-minute single broke the barrier of the three-minute pop single. Dylan became the subject of innumerable articles, and his lyrics became the subject of literary analyses across the U.S. and U.K. Well over 100 artists covered his songs between 1964 and 1966; the Byrds and the Turtles, in particular, had big hits with his compositions. Highway 61 Revisited, his first full-fledged rock & roll album, became a Top Ten hit shortly after its summer 1965 release. "Positively 4th Street" and "Rainy Day Women #12 & 35" became Top Ten hits in the fall of 1965 and spring of 1966, respectively. Following the May 1966 release of the double album Blonde on Blonde, he had sold over ten million records around the world.

During the fall of 1965, Dylan hired the Hawks, formerly Ronnie Hawkins' backing group, as his touring band. The Hawks, who changed their name to the Band in 1968, would become Dylan's most famous backing band, primarily because of their intuitive chemistry and "wild, thin mercury sound," but also because of their British tour in the spring of 1966. The tour was the first time the British had heard the electric Dylan, and their reaction was disagreeable and violent. At the Manchester concert (long mistakenly identified as the show from London's Royal Albert Hall), an audience member called Dylan "Judas," inspiring a positively vicious version of "Like a Rolling Stone" from Dylan and the band. The performance was immortalized on countless bootleg albums (an official release finally surfaced in 1998), and it indicates the intensity of Dylan in the middle of 1966. He had assumed control of Pennebaker's second Dylan documentary, Eat the Document, and was under deadline to complete his book Tarantula, as well as record a new record. Following the British tour, he returned to America.

On July 29, 1966, he was injured in a motorcycle accident outside of his home in Woodstock, NY, suffering injuries to his neck vertebrae and a concussion. Details of the accident remain elusive – he was reportedly in critical condition for a week and had amnesia – and some biographers have questioned its severity, but the event was a pivotal turning point in his career. After the accident, Dylan became a recluse, disappearing into his home in Woodstock and raising his family with his wife, Sara. After a few months, he retreated with the Band to a rented house, subsequently dubbed Big Pink, in West Saugerties to record a number of demos. For several months, Dylan and the Band recorded an enormous amount of material, ranging from old folk, country, and blues songs to newly written originals. The songs indicated that Dylan's songwriting had undergone a metamorphosis, becoming streamlined and more direct. Similarly, his music had changed, owing less to traditional rock & roll, and demonstrating heavy country, blues, and traditional folk influences. None of the Big Pink recordings was intended to be released, but tapes from the sessions were circulated by Dylan's music publisher with the intent of generating cover versions. Copies of these tapes, as well as other songs, were available on illegal bootleg albums by the end of the '60s; it was the first time that bootleg copies of unreleased recordings became widely circulated. Portions of the tapes were officially released in 1975 as the double album The Basement Tapes.

While Dylan was in seclusion, rock & roll had become heavier and artier in the wake of the psychedelic revolution. When Dylan returned with John Wesley Harding in December of 1967, its quiet, country ambience was a surprise to the general public, but it was a significant hit, peaking at number two in the U.S. and number one in the U.K. Furthermore, the record arguably became the first significant country-rock record to be released, setting the stage for efforts by the Byrds and the Flying Burrito Brothers later in 1969. Dylan followed his country inclinations on his next album, 1969's Nashville Skyline, which was recorded in Nashville with several of the country industry's top session men. While the album was a hit, spawning the Top Ten single "Lay Lady Lay," it was criticized in some quarters for uneven material. The mixed reception was the beginning of a full-blown backlash that arrived with the double-album Self Portrait. Released early in June of 1970, the album was a hodgepodge of covers, live tracks, re-interpretations, and new songs greeted with negative reviews from all quarters of the press. Dylan followed the album quickly with New Morning, which was hailed as a comeback.

Following the release of New Morning, Dylan began to wander restlessly. He moved back to Greenwich Village, he finally published Tarantula in November of 1970, and he performed at the Concert for Bangladesh in August 1971. During 1972, he began his acting career by playing Alias in Sam Peckinpah's Pat Garrett and Billy the Kid, which was released in 1973. He also wrote the soundtrack for the film, which featured "Knockin' on Heaven's Door," his biggest hit since "Lay Lady Lay." The Pat Garrett soundtrack was the final record released under his Columbia contract before he moved to David Geffen's fledgling Asylum Records. As retaliation, Columbia assembled Dylan, a collection of Self Portrait outtakes, for release at the end of 1973. Dylan only recorded two albums – including 1974's Planet Waves, coincidentally his first number one album – before he moved back to Columbia. The Band supported Dylan on Planet Waves and its accompanying tour, which became the most successful tour in rock & roll history; it was captured on 1974's double live album Before the Flood.

Dylan's 1974 tour was the beginning of a comeback culminating with 1975's Blood on the Tracks. Largely inspired by the disintegration of his marriage, Blood on the Tracks was hailed as a return to form by critics and it became his second number one album. After jamming with folkies in Greenwich Village, Dylan decided to launch a gigantic tour, loosely based on traveling medicine shows. Lining up an extensive list of supporting musicians – including Joan Baez, Joni Mitchell, Ramblin' Jack Elliott, Arlo Guthrie, Mick Ronson, Roger McGuinn, and poet Allen Ginsberg – Dylan dubbed the tour the Rolling Thunder Revue and set out on the road in the fall of 1975. For the next year, the Rolling Thunder Revue toured on and off, with Dylan filming many of the concerts for a future film. During the tour, Desire was released to considerable acclaim and success, spending five weeks on the top of the charts. Throughout the Rolling Thunder Revue, Dylan showcased "Hurricane," a protest song he had written about boxer Rubin Carter, who had been unjustly imprisoned for murder. The live album Hard Rain was released at the end of the tour. Dylan released Renaldo and Clara, a four-hour film based on the Rolling Thunder tour, to poor reviews in early 1978.

Early in 1978, Dylan set out on another extensive tour, this time backed by a band that resembled a Las Vegas lounge act. The group was featured on the 1978 album Street Legal and the 1979 live album At Budokan. At the conclusion of the tour in late 1978, Dylan announced that he was a born-again Christian, and he launched a series of Christian albums that following summer with Slow Train Coming. Though the reviews were mixed, the album was a success, peaking at number three and going platinum. His supporting tour for Slow Train Coming featured only his new religious material, much to the bafflement of his long-term fans. Two other religious albums – Saved (1980) and Shot of Love (1981) – followed, both to poor reviews. In 1982, Dylan traveled to Israel, sparking rumors that his conversion to Christianity was short-lived. He returned to secular recording with 1983's Infidels, which was greeted with favorable reviews.

Dylan returned to performing in 1984, releasing the live album Real Live at the end of the year. Empire Burlesque followed in 1985, but its odd mix of dance tracks and rock & roll won few fans. However, the five-album/triple-disc retrospective box set Biograph appeared that same year to great acclaim. In 1986, Dylan hit the road with Tom Petty & the Heartbreakers for a successful and acclaimed tour, but his album that year, Knocked Out Loaded, was received poorly. The following year, he toured with the Grateful Dead as his backing band; two years later, the souvenir album Dylan & the Dead appeared.

In 1988, Dylan embarked on what became known as "the Never-Ending Tour" – a constant stream of shows that ran on and off into the late '90s. That same year, he released Down in the Groove, an album largely comprised of covers. The Never-Ending Tour received far stronger reviews than Down in the Groove, but 1989's Oh Mercy was his most acclaimed album since 1975's Blood on the Tracks, due in part to Daniel Lanois' strong production. However, Dylan's 1990 follow-up, Under the Red Sky, was received poorly, especially when compared to the enthusiastic reception for the 1991 box set The Bootleg Series, Vols. 1-3 (Rare & Unreleased), a collection of previously unreleased outtakes and rarities.

For the remainder of the '90s, Dylan divided his time between live concerts, painting, and studio projects. He returned to recording in 1992 with Good as I Been to You, an acoustic collection of traditional folk songs. It was followed in 1993 by another folk record, World Gone Wrong, which won the Grammy for Best Traditional Folk Album. After the release of World Gone Wrong, Dylan released a greatest-hits album and a live record.

Dylan released Time Out of Mind, his first album of original material in seven years, in the fall of 1997. Time Out of Mind received his strongest reviews in years and unexpectedly debuted in the Top Ten, eventually climbing to platinum certification. Such success sparked a revival of interest in Dylan, who appeared on the cover of Newsweek and began selling out concerts once again. Early in 1998, Time Out of Mind received three Grammy Awards – Album of the Year, Best Contemporary Folk Album, and Best Male Rock Vocal. Another album of original material, Love and Theft, followed in 2001 and went gold. Soon after its release, Dylan announced that he was making his own film, to star Jeff Bridges, Penelope Cruz, John Goodman, Val Kilmer, and many more. The accompanying soundtrack, Masked and Anonymous, was released in July 2003. Dylan opted to self-produce his new studio album, Modern Times, which topped the Billboard charts and went platinum in both America and the U.K. It was Dylan's third consecutive album to receive praise from critics and support from consumers, and it was followed three years later in 2009 by Together Through Life, another self-produced effort (as Jack Frost) that also featured contributions from David Hidalgo of Los Lobos and Mike Campbell of Tom Petty & the Heartbreakers. He capped off the year with an old-fashioned holiday effort Christmas in the Heart. Proceeds from the album were donated to various charities around the world.

~ Stephen Thomas Erlewine, Rovi
==================================

Bob Dylan - The Original Mono Recordings (1962-1967):

Bob Dylan - The Original Mono Recordings (1962-1967) [2010, Japan mini LPs, SICP-2951~9] Re-up

CD1: Bob Dylan - Bob Dylan (1962)
Rock/Folk Rock | EAC Rip | Flac(Image) + Cue + Log & MP3 CBR 320Kbps
Sony Music | SICP-2951 | 2010 Remastering | ~132 or 105 Mb
Scans(300dpi, jpg) Included | Scans(600dpi, png) -> 145 Mb

Bob Dylan - The Original Mono Recordings (1962-1967) [2010, Japan mini LPs, SICP-2951~9] Re-up

Tracklist:

01. You're No Good [01:37]
02. Talkin' New York [03:21]
03. In My Time of Dyin' [02:42]
04. Man of Constant Sorrow [03:10]
05. Fixin' to Die [02:22]
06. Pretty Peggy-O [03:26]
07. Highway 51 [02:54]
08. Gospel Plow [01:47]
09. Baby, Let Me Follow You Down [02:37]
10. House of The Risin' Sun [05:20]
11. Freight Train Blues [02:21]
12. Song to Woody [02:44]
13. See That My Grave is Kept Clean [02:46]

Exact Audio Copy V0.99 prebeta 5 from 4. May 2009

EAC extraction logfile from 15. November 2010, 18:07

Bob Dylan / Bob Dylan (2010 Mono Remaster)

Used drive : ASUS DRW-2014L1T Adapter: 2 ID: 2

Read mode : Secure
Utilize accurate stream : Yes
Defeat audio cache : Yes
Make use of C2 pointers : No

Read offset correction : 6
Overread into Lead-In and Lead-Out : No
Fill up missing offset samples with silence : Yes
Delete leading and trailing silent blocks : No
Null samples used in CRC calculations : Yes
Used interface : Native Win32 interface for Win NT & 2000

Used output format : User Defined Encoder
Selected bitrate : 768 kBit/s
Quality : High
Add ID3 tag : No
Command line compressor : F:\Program Files\Exact Audio Copy\FLAC\FLAC.EXE
Additional command line options : -T "DATE=%y" -T "GENRE=%m" -8 -V %s


TOC of the extracted CD

Track | Start | Length | Start sector | End sector
––––––––––––––––––––––––––––-
1 | 0:00.00 | 1:41.28 | 0 | 7602
2 | 1:41.28 | 3:21.45 | 7603 | 22722
3 | 5:02.73 | 2:41.26 | 22723 | 34823
4 | 7:44.24 | 3:10.21 | 34824 | 49094
5 | 10:54.45 | 2:22.19 | 49095 | 59763
6 | 13:16.64 | 3:25.64 | 59764 | 75202
7 | 16:42.53 | 2:53.65 | 75203 | 88242
8 | 19:36.43 | 1:47.16 | 88243 | 96283
9 | 21:23.59 | 2:37.02 | 96284 | 108060
10 | 24:00.61 | 5:19.67 | 108061 | 132052
11 | 29:20.53 | 2:20.62 | 132053 | 142614
12 | 31:41.40 | 2:44.15 | 142615 | 154929
13 | 34:25.55 | 2:42.18 | 154930 | 167097


Range status and errors

Selected range

Filename W:\EAC\BD\Bob Dylan - Bob Dylan (2010 Mono Remaster)\Bob Dylan - Bob Dylan (2010 Mono Remaster).wav

Peak level 99.6 %
Range quality 100.0 %
Test CRC E51625CA
Copy CRC E51625CA
Copy OK

No errors occurred


AccurateRip summary

Track 1 not present in database
Track 2 not present in database
Track 3 not present in database
Track 4 not present in database
Track 5 not present in database
Track 6 not present in database
Track 7 not present in database
Track 8 not present in database
Track 9 not present in database
Track 10 not present in database
Track 11 not present in database
Track 12 not present in database
Track 13 not present in database

None of the tracks are present in the AccurateRip database

End of status report

AUDIOCHECKER v2.0 beta (build 457) - by Dester - opdester@freemail.hu
~~~~~~~~~~~~~~~~~~~~~~~~~~~~~~~~~~
-=== DO NOT EDIT THIS FILE! ===-

Path: …\Bob Dylan - Bob Dylan (2010 Mono Remaster)

1 -=- Bob Dylan - Bob Dylan (2010 Mono Remaster).flac -=- CDDA (100%)

234643076

[Verification date: 15.11.2010 21:46:48]
[Disc ID: 00115f40-00afd667-a308b30d]
Disk not present in database.

Track [ CRC32 ] [W/O NULL] [ LOG ]
– [E51625CA] [AF1D13EF] CRC32
01 [F10FEA0F] [FFB416CB]
02 [43137DB9] [950B6B02]
03 [A4E85D07] [CA470879]
04 [00FC4E4C] [AA4FA6FA]
05 [20D0566F] [AC1F1873]
06 [067D3670] [BB30FBD7]
07 [BDAABF9F] [A7CEB220]
08 [DF63C143] [72579B7A]
09 [740EC0A7] [23229B58]
10 [4D69B334] [2028DEF7]
11 [044397AE] [9A955C40]
12 [93162C67] [DE075C10]
13 [F495119D] [278921C6]

––––––––––––––––––––––––––––––––––

Bob Dylan - The Original Mono Recordings (1962-1967) [2010, Japan mini LPs, SICP-2951~9] Re-up

CD2: Bob Dylan - The Freewheelin' Bob Dylan (1963)
Rock/Folk Rock | EAC Rip | Flac(Image) + Cue + Log & MP3 CBR 320Kbps
Sony Music | SICP-2952 | 2010 Remastering | ~174 or 132 Mb
Scans(300dpi, jpg) Included | Scans(600dpi, png) -> 147 Mb

Bob Dylan - The Original Mono Recordings (1962-1967) [2010, Japan mini LPs, SICP-2951~9] Re-up

Tracklist:

01. Blowin' in the Wind [02:48]
02. Girl from the North Country [03:25]
03. Masters of War [04:35]
04. Down the Highway [03:25]
05. Bob Dylan's Blues [02:24]
06. A Hard Rain's A-Gonna Fall [06:55]
07. Don't Think Twice, It's All Right [03:41]
08. Bob Dylan's Dream [05:04]
09. Oxford Town [01:52]
10. Talking World War III Blues [06:29]
11. Corrina, Corrina [02:46]
12. Honey, Just Allow Me One More Chance [02:02]
13. I Shall Be Free [04:52]

Exact Audio Copy V0.99 prebeta 5 from 4. May 2009

EAC extraction logfile from 15. November 2010, 18:29

Bob Dylan / The Freewheelin' Bob Dylan

Used drive : ASUS DRW-2014L1T Adapter: 2 ID: 2

Read mode : Secure
Utilize accurate stream : Yes
Defeat audio cache : Yes
Make use of C2 pointers : No

Read offset correction : 6
Overread into Lead-In and Lead-Out : No
Fill up missing offset samples with silence : Yes
Delete leading and trailing silent blocks : No
Null samples used in CRC calculations : Yes
Used interface : Native Win32 interface for Win NT & 2000

Used output format : User Defined Encoder
Selected bitrate : 768 kBit/s
Quality : High
Add ID3 tag : No
Command line compressor : F:\Program Files\Exact Audio Copy\FLAC\FLAC.EXE
Additional command line options : -T "DATE=%y" -T "GENRE=%m" -8 -V %s


TOC of the extracted CD

Track | Start | Length | Start sector | End sector
––––––––––––––––––––––––––––-
1 | 0:00.00 | 2:53.10 | 0 | 12984
2 | 2:53.10 | 3:24.28 | 12985 | 28312
3 | 6:17.38 | 4:34.53 | 28313 | 48915
4 | 10:52.16 | 3:25.04 | 48916 | 64294
5 | 14:17.20 | 2:24.60 | 64295 | 75154
6 | 16:42.05 | 6:53.33 | 75155 | 106162
7 | 23:35.38 | 3:41.38 | 106163 | 122775
8 | 27:17.01 | 5:04.32 | 122776 | 145607
9 | 32:21.33 | 1:52.06 | 145608 | 154013
10 | 34:13.39 | 6:28.59 | 154014 | 183172
11 | 40:42.23 | 2:46.16 | 183173 | 195638
12 | 43:28.39 | 2:02.49 | 195639 | 204837
13 | 45:31.13 | 4:46.63 | 204838 | 226350


Range status and errors

Selected range

Filename W:\EAC\BD\Bob Dylan - The Freewheelin' Bob Dylan\Bob Dylan - The Freewheelin' Bob Dylan.wav

Peak level 97.5 %
Range quality 100.0 %
Test CRC EAF0812B
Copy CRC EAF0812B
Copy OK

No errors occurred


AccurateRip summary

Track 1 not present in database
Track 2 not present in database
Track 3 not present in database
Track 4 not present in database
Track 5 not present in database
Track 6 not present in database
Track 7 not present in database
Track 8 not present in database
Track 9 not present in database
Track 10 not present in database
Track 11 not present in database
Track 12 not present in database
Track 13 not present in database

None of the tracks are present in the AccurateRip database

End of status report

AUDIOCHECKER v2.0 beta (build 457) - by Dester - opdester@freemail.hu
~~~~~~~~~~~~~~~~~~~~~~~~~~~~~~~~~~
-=== DO NOT EDIT THIS FILE! ===-

Path: …\Bob Dylan - The Freewheelin' Bob Dylan

1 -=- Bob Dylan - The Freewheelin' Bob Dylan.flac -=- CDDA (100%)

188020084

[Verification date: 15.11.2010 21:49:20]
[Disc ID: 0017ede2-00f1d767-af0bca0d]
Disk not present in database.

Track [ CRC32 ] [W/O NULL] [ LOG ]
– [EAF0812B] [2FC2A29C] CRC32
01 [9BDF1E21] [6C907849]
02 [8D31B543] [8974B58A]
03 [57AA3975] [E89D69F3]
04 [4CC838FF] [27B0664F]
05 [3FCF6C5F] [AB7BC5E4]
06 [85B5CE90] [4E7CECC6]
07 [7846388C] [147F4AF0]
08 [F831475E] [11472166]
09 [DC7E01F7] [F7BC83DE]
10 [A165D5F5] [DD75A6F7]
11 [35777BBB] [B7B98F0A]
12 [F16C2869] [03EF47D0]
13 [4568AFC6] [3BDD473E]

––––––––––––––––––––––––––––––––––

Bob Dylan - The Original Mono Recordings (1962-1967) [2010, Japan mini LPs, SICP-2951~9] Re-up

CD3: Bob Dylan - The Times They Are A-Changin' (1964)
Rock/Folk Rock | EAC Rip | Flac(Image) + Cue + Log & MP3 CBR 320Kbps
Sony Music | SICP-2953 | 2010 Remastering | ~155 or 122 Mb
Scans(300dpi, jpg) Included | Scans(600dpi, png) -> 204 Mb

Bob Dylan - The Original Mono Recordings (1962-1967) [2010, Japan mini LPs, SICP-2951~9] Re-up

Tracklist:

01. The Times They Are A-Changin' [03:14]
02. Ballad of Hollis Brown [05:07]
03. With God on Our Side [07:12]
04. One Too Many Mornings [02:43]
05. North Country Blues [04:37]
06. Only a Pawn In Their Game [03:34]
07. Boots of Spanish Leather [04:43]
08. When The Ship Comes In [03:20]
09. The Lonesome Death of Hattie Carroll [05:51]
10. Restless Farewell [05:38]

Exact Audio Copy V0.99 prebeta 5 from 4. May 2009

EAC extraction logfile from 15. November 2010, 18:55

Bob Dylan / The Times They Are A-Changin' (2010 Mono Remaster)

Used drive : ASUS DRW-2014L1T Adapter: 2 ID: 2

Read mode : Secure
Utilize accurate stream : Yes
Defeat audio cache : Yes
Make use of C2 pointers : No

Read offset correction : 6
Overread into Lead-In and Lead-Out : No
Fill up missing offset samples with silence : Yes
Delete leading and trailing silent blocks : No
Null samples used in CRC calculations : Yes
Used interface : Native Win32 interface for Win NT & 2000

Used output format : User Defined Encoder
Selected bitrate : 768 kBit/s
Quality : High
Add ID3 tag : No
Command line compressor : F:\Program Files\Exact Audio Copy\FLAC\FLAC.EXE
Additional command line options : -T "DATE=%y" -T "GENRE=%m" -8 -V %s


TOC of the extracted CD

Track | Start | Length | Start sector | End sector
––––––––––––––––––––––––––––-
1 | 0:00.00 | 3:17.49 | 0 | 14823
2 | 3:17.49 | 5:07.38 | 14824 | 37886
3 | 8:25.12 | 7:11.33 | 37887 | 70244
4 | 15:36.45 | 2:43.26 | 70245 | 82495
5 | 18:19.71 | 4:36.60 | 82496 | 103255
6 | 22:56.56 | 3:34.24 | 103256 | 119329
7 | 26:31.05 | 4:43.05 | 119330 | 140559
8 | 31:14.10 | 3:19.62 | 140560 | 155546
9 | 34:33.72 | 5:50.02 | 155547 | 181798
10 | 40:23.74 | 5:35.10 | 181799 | 206933


Range status and errors

Selected range

Filename W:\EAC\BD\Bob Dylan - The Times They Are A-Changin' (2010 Mono Remaster)\Bob Dylan - The Times They Are A-Changin' (2010 Mono Remaster).wav

Peak level 98.0 %
Range quality 99.9 %
Test CRC A65FEBF6
Copy CRC A65FEBF6
Copy OK

No errors occurred


AccurateRip summary

Track 1 not present in database
Track 2 not present in database
Track 3 not present in database
Track 4 not present in database
Track 5 not present in database
Track 6 not present in database
Track 7 not present in database
Track 8 not present in database
Track 9 not present in database
Track 10 not present in database

None of the tracks are present in the AccurateRip database

End of status report

AUDIOCHECKER v2.0 beta (build 457) - by Dester - opdester@freemail.hu
~~~~~~~~~~~~~~~~~~~~~~~~~~~~~~~~~~
-=== DO NOT EDIT THIS FILE! ===-

Path: …\Bob Dylan - The Times They Are A-Changin' (2010 Mono Remaster)

1 -=- Bob Dylan - The Times They Are A-Changin' (2010 Mono Remaster).flac -=- CDDA (100%)

161845012

[Verification date: 15.11.2010 21:50:04]
[Disc ID: 0010fb2e-0087f5cb-8e0ac70a]
Disk not present in database.

Track [ CRC32 ] [W/O NULL] [ LOG ]
– [A65FEBF6] [D8AD1FF9] CRC32
01 [54AD6FE1] [02542524]
02 [C5D5F71A] [111D486E]
03 [C4160817] [EDE3DBD7]
04 [9D824C93] [DEE06C8C]
05 [440D0E58] [E6965698]
06 [FDE3242F] [360193DC]
07 [F679F3C0] [A371D441]
08 [46C2895C] [192E16ED]
09 [E9B99C6D] [CF35B7BC]
10 [C3A4342D] [F7879790]

––––––––––––––––––––––––––––––––––

Bob Dylan - The Original Mono Recordings (1962-1967) [2010, Japan mini LPs, SICP-2951~9] Re-up

CD4: Bob Dylan - Another Side of Bob Dylan (1964)
Rock/Folk Rock | EAC Rip | Flac(Image) + Cue + Log & MP3 CBR 320Kbps
Sony Music | SICP-2954 | 2010 Remastering | ~156 or 128 Mb
Scans(300dpi, jpg) Included | Scans(600dpi, png) -> 102 Mb

Bob Dylan - The Original Mono Recordings (1962-1967) [2010, Japan mini LPs, SICP-2951~9] Re-up

Tracklist:

01. All I Really Want to Do [04:03]
02. Black Crow Blues [03:18]
03. Spanish Harlem Incident [02:28]
04. Chimes of Freedom [07:15]
05. I Shall Be Free No.10 [04:51]
06. To Ramona [03:56]
07. Motorpsycho Nitemare [04:36]
08. My Back Pages [04:27]
09. I Don't Believe You [04:26]
10. Ballad in Plain D [08:22]
11. It Ain't Me Babe [03:38]

Exact Audio Copy V0.99 prebeta 5 from 4. May 2009

EAC extraction logfile from 15. November 2010, 19:11

Bob Dylan / Another Side of Bob Dylan (2010 Mono Remaster)

Used drive : ASUS DRW-2014L1T Adapter: 2 ID: 2

Read mode : Secure
Utilize accurate stream : Yes
Defeat audio cache : Yes
Make use of C2 pointers : No

Read offset correction : 6
Overread into Lead-In and Lead-Out : No
Fill up missing offset samples with silence : Yes
Delete leading and trailing silent blocks : No
Null samples used in CRC calculations : Yes
Used interface : Native Win32 interface for Win NT & 2000

Used output format : User Defined Encoder
Selected bitrate : 768 kBit/s
Quality : High
Add ID3 tag : No
Command line compressor : F:\Program Files\Exact Audio Copy\FLAC\FLAC.EXE
Additional command line options : -T "DATE=%y" -T "GENRE=%m" -8 -V %s


TOC of the extracted CD

Track | Start | Length | Start sector | End sector
––––––––––––––––––––––––––––-
1 | 0:00.00 | 4:07.55 | 0 | 18579
2 | 4:07.55 | 3:17.67 | 18580 | 33421
3 | 7:25.47 | 2:28.06 | 33422 | 44527
4 | 9:53.53 | 7:14.59 | 44528 | 77136
5 | 17:08.37 | 4:51.04 | 77137 | 98965
6 | 21:59.41 | 3:54.70 | 98966 | 116585
7 | 25:54.36 | 4:36.68 | 116586 | 137353
8 | 30:31.29 | 4:27.10 | 137354 | 157388
9 | 34:58.39 | 4:26.22 | 157389 | 177360
10 | 39:24.61 | 8:21.72 | 177361 | 215007
11 | 47:46.58 | 3:34.16 | 215008 | 231073


Range status and errors

Selected range

Filename W:\EAC\BD\Bob Dylan - Another Side of Bob Dylan (2010 Mono Remaster)\Bob Dylan - Another Side of Bob Dylan (2010 Mono Remaster).wav

Peak level 99.0 %
Range quality 100.0 %
Test CRC 49929671
Copy CRC 49929671
Copy OK

No errors occurred


AccurateRip summary

Track 1 not present in database
Track 2 not present in database
Track 3 not present in database
Track 4 not present in database
Track 5 not present in database
Track 6 not present in database
Track 7 not present in database
Track 8 not present in database
Track 9 not present in database
Track 10 not present in database
Track 11 not present in database

None of the tracks are present in the AccurateRip database

End of status report

AUDIOCHECKER v2.0 beta (build 457) - by Dester - opdester@freemail.hu
~~~~~~~~~~~~~~~~~~~~~~~~~~~~~~~~~~
-=== DO NOT EDIT THIS FILE! ===-

Path: …\Bob Dylan - Another Side of Bob Dylan (2010 Mono Remaster)

1 -=- Bob Dylan - Another Side of Bob Dylan (2010 Mono Remaster).flac -=- CDDA (100%)

114987508

[Verification date: 15.11.2010 21:45:28]
[Disc ID: 0013f30d-00b00e79-8a0c080b]
Disk not present in database.

Track [ CRC32 ] [W/O NULL] [ LOG ]
– [49929671] [9977B32A] CRC32
01 [295E7A70] [8EF59856]
02 [4CB335CB] [4055DD61]
03 [44CB4449] [C099A5B7]
04 [056FD0D4] [A5461E95]
05 [37AE8268] [DA5EDF43]
06 [7FD243A8] [159A6667]
07 [A5446183] [4A4FB11F]
08 [563248B8] [A1EE833D]
09 [0C43E07C] [5A4F4D5E]
10 [045EFBFF] [D39208E5]
11 [D65C2CCD] [DE5C7BF8]

––––––––––––––––––––––––––––––––––

Bob Dylan - The Original Mono Recordings (1962-1967) [2010, Japan mini LPs, SICP-2951~9] Re-up

CD5: Bob Dylan - Bob Dylan - Bringing It All Back Home (1965)
Rock/Folk Rock | EAC Rip | Flac(Image) + Cue + Log & MP3 CBR 320Kbps
Sony Music | SICP-2955 | 2010 Remastering | ~159 or 120 Mb
Scans(300dpi, jpg) Included | Scans(600dpi, png) -> 102 Mb

Bob Dylan - The Original Mono Recordings (1962-1967) [2010, Japan mini LPs, SICP-2951~9] Re-up

Tracklist:

01. Subterranean Homesick Blues [02:16]
02. She Belongs to Me [02:52]
03. Maggie's Farm [03:58]
04. Love Minus Zero, No Limit [02:52]
05. Outlaw Blues [03:01]
06. On the Road Again [02:36]
07. Bob Dylan's 115th Dream [06:35]
08. Mr. Tambourine Man [05:35]
09. Gates of Eden [05:45]
10. It's Alright, Ma (I'm Only Bleeding) [07:36]
11. It's All Over Now, Baby Blue [04:19]

Exact Audio Copy V0.99 prebeta 5 from 4. May 2009

EAC extraction logfile from 15. November 2010, 19:27

Bob Dylan / Bringing It All Back Home

Used drive : ASUS DRW-2014L1T Adapter: 2 ID: 2

Read mode : Secure
Utilize accurate stream : Yes
Defeat audio cache : Yes
Make use of C2 pointers : No

Read offset correction : 6
Overread into Lead-In and Lead-Out : No
Fill up missing offset samples with silence : Yes
Delete leading and trailing silent blocks : No
Null samples used in CRC calculations : Yes
Used interface : Native Win32 interface for Win NT & 2000

Used output format : User Defined Encoder
Selected bitrate : 768 kBit/s
Quality : High
Add ID3 tag : No
Command line compressor : F:\Program Files\Exact Audio Copy\FLAC\FLAC.EXE
Additional command line options : -T "DATE=%y" -T "GENRE=%m" -8 -V %s


TOC of the extracted CD

Track | Start | Length | Start sector | End sector
––––––––––––––––––––––––––––-
1 | 0:00.00 | 2:19.62 | 0 | 10486
2 | 2:19.62 | 2:52.28 | 10487 | 23414
3 | 5:12.15 | 3:56.73 | 23415 | 41187
4 | 9:09.13 | 2:51.65 | 41188 | 54077
5 | 12:01.03 | 3:01.59 | 54078 | 67711
6 | 15:02.62 | 2:36.35 | 67712 | 79446
7 | 17:39.22 | 6:34.21 | 79447 | 109017
8 | 24:13.43 | 5:34.23 | 109018 | 134090
9 | 29:47.66 | 5:46.02 | 134091 | 160042
10 | 35:33.68 | 7:35.35 | 160043 | 194202
11 | 43:09.28 | 4:16.30 | 194203 | 213432


Range status and errors

Selected range

Filename W:\EAC\BD\Bob Dylan - Bringing It All Back Home\Bob Dylan - Bringing It All Back Home.wav

Peak level 92.5 %
Range quality 99.9 %
Test CRC C4F42CD0
Copy CRC C4F42CD0
Copy OK

No errors occurred


AccurateRip summary

Track 1 not present in database
Track 2 not present in database
Track 3 not present in database
Track 4 not present in database
Track 5 not present in database
Track 6 not present in database
Track 7 not present in database
Track 8 not present in database
Track 9 not present in database
Track 10 not present in database
Track 11 not present in database

None of the tracks are present in the AccurateRip database

End of status report

AUDIOCHECKER v2.0 beta (build 457) - by Dester - opdester@freemail.hu
~~~~~~~~~~~~~~~~~~~~~~~~~~~~~~~~~~
-=== DO NOT EDIT THIS FILE! ===-

Path: …\Bob Dylan - Bringing It All Back Home

1 -=- Bob Dylan - Bringing It All Back Home.flac -=- CDDA (100%)

261150884

[Verification date: 15.11.2010 21:47:33]
[Disc ID: 0010968b-00968971-800b1d0b]
Disk not present in database.

Track [ CRC32 ] [W/O NULL] [ LOG ]
– [C4F42CD0] [953D7772] CRC32
01 [C19AC81C] [022E1031]
02 [A8C7F263] [848C3CDE]
03 [97464A75] [0072E0F8]
04 [145A37C0] [FF0BCF1D]
05 [5D82EC00] [228A57CA]
06 [CC490285] [EC7B1395]
07 [7FF2BDDE] [F07D34D1]
08 [38F17D8B] [EC5B1AEC]
09 [C1E7F354] [DD2E7A52]
10 [D0329107] [94B63E36]
11 [27A4CA1E] [99381EC9]

––––––––––––––––––––––––––––––––––

Bob Dylan - The Original Mono Recordings (1962-1967) [2010, Japan mini LPs, SICP-2951~9] Re-up

CD6: Bob Dylan - Highway 61 Revisited (1965)
Rock/Folk Rock | EAC Rip | Flac(Image) + Cue + Log & MP3 CBR 320Kbps
Sony Music | SICP-2956 | 2010 Remastering | ~162 or 126 Mb
Scans(300dpi, jpg) Included | Scans(600dpi, png) -> 115 Mb

Bob Dylan - The Original Mono Recordings (1962-1967) [2010, Japan mini LPs, SICP-2951~9] Re-up

Tracklist:

01. Like A Rolling Stone [05:58]
02. Tombstone Blues [05:56]
03. It Takes A Lot To Laugh, It Takes A Train To Cry [03:29]
04. From A Buick 6 [03:11]
05. Ballad Of A Thin Man [05:54]
06. Queen Jane Approximately [04:59]
07. Highway 61 Revisited [03:19]
08. Just Like Tom Thumb's Blues [05:12]
09. Desolation Row [11:21]

Exact Audio Copy V0.99 prebeta 5 from 4. May 2009

EAC extraction logfile from 15. November 2010, 19:43

Bob Dylan / Highway 61 Revisited (2010 Mono Remaster) 1965

Used drive : ASUS DRW-2014L1T Adapter: 2 ID: 2

Read mode : Secure
Utilize accurate stream : Yes
Defeat audio cache : Yes
Make use of C2 pointers : No

Read offset correction : 6
Overread into Lead-In and Lead-Out : No
Fill up missing offset samples with silence : Yes
Delete leading and trailing silent blocks : No
Null samples used in CRC calculations : Yes
Used interface : Native Win32 interface for Win NT & 2000

Used output format : User Defined Encoder
Selected bitrate : 768 kBit/s
Quality : High
Add ID3 tag : No
Command line compressor : F:\Program Files\Exact Audio Copy\FLAC\FLAC.EXE
Additional command line options : -T "DATE=%y" -T "GENRE=%m" -8 -V %s


TOC of the extracted CD

Track | Start | Length | Start sector | End sector
––––––––––––––––––––––––––––-
1 | 0:00.00 | 6:02.39 | 0 | 27188
2 | 6:02.39 | 5:55.72 | 27189 | 53885
3 | 11:58.36 | 3:29.60 | 53886 | 69620
4 | 15:28.21 | 3:10.30 | 69621 | 83900
5 | 18:38.51 | 5:51.68 | 83901 | 110293
6 | 24:30.44 | 5:01.14 | 110294 | 132882
7 | 29:31.58 | 3:18.56 | 132883 | 147788
8 | 32:50.39 | 5:11.61 | 147789 | 171174
9 | 38:02.25 | 11:17.48 | 171175 | 221997


Range status and errors

Selected range

Filename W:\EAC\BD\Bob Dylan - Highway 61 Revisited (2010 Mono Remaster) 1965\Bob Dylan - Highway 61 Revisited (2010 Mono Remaster) 1965.wav

Peak level 99.8 %
Range quality 100.0 %
Test CRC 33C65A22
Copy CRC 33C65A22
Copy OK

No errors occurred


AccurateRip summary

Track 1 not present in database
Track 2 not present in database
Track 3 not present in database
Track 4 not present in database
Track 5 not present in database
Track 6 not present in database
Track 7 not present in database
Track 8 not present in database
Track 9 not present in database

None of the tracks are present in the AccurateRip database

End of status report

AUDIOCHECKER v2.0 beta (build 457) - by Dester - opdester@freemail.hu
~~~~~~~~~~~~~~~~~~~~~~~~~~~~~~~~~~
-=== DO NOT EDIT THIS FILE! ===-

Path: …\Bob Dylan - Highway 61 Revisited (2010 Mono Remaster) 1965

1 -=- Bob Dylan - Highway 61 Revisited (2010 Mono Remaster) 1965.flac -=- CDDA (100%)

42452916

Verification date: 15.11.2010 21:48:09]
[Disc ID: 000f8b70-0071a906-6b0b8f09]
Disk not present in database.

Track [ CRC32 ] [W/O NULL] [ LOG ]
– [33C65A22] [6997A2BF] CRC32
01 [7B584B48] [082464CE]
02 [7F2DF943] [68635747]
03 [81CF6840] [43753C7A]
04 [4A5DF4A3] [6F5D0057]
05 [9047D109] [90EAB603]
06 [7E0E6C51] [CA83F0A1]
07 [BA67ADAC] [5C5D0B8D]
08 [6FCC3E54] [3AE0EC23]
09 [A8C2DC76] [F606B6D0]

––––––––––––––––––––––––––––––––––

Bob Dylan - The Original Mono Recordings (1962-1967) [2010, Japan mini LPs, SICP-2951~9] Re-up

CD7-8: Bob Dylan - Blonde On Blonde (1966)
2CD | Rock/Folk Rock | EAC Rip | Flac(Image) + Cue + Log & MP3 CBR 320Kbps
Sony Music | SICP-2957~8 | 2010 Remastering | ~250 or 197 Mb
Scans(300dpi, jpg) Included | Scans(600dpi, png) -> 183 Mb

Bob Dylan - The Original Mono Recordings (1962-1967) [2010, Japan mini LPs, SICP-2951~9] Re-up

Tracklist CD7:

01. Rainy Day Women #12 & 35 [04:25]
02. Pledging My Time [03:54]
03. Visions Of Johanna [07:35]
04. One Of Us Must Know (Sooner Or Later) [04:59]
05. I Want You [03:05]
06. Stuck Inside Of Mobile With The Memphis Blues Again [07:11]
07. Leopard-Skin Pill-Box Hat [04:01]
08. Just Like A Woman [04:57]

Exact Audio Copy V0.99 prebeta 5 from 4. May 2009

EAC extraction logfile from 15. November 2010, 20:02

Bob Dylan / Blonde On Blonde - Disc 1

Used drive : ASUS DRW-2014L1T Adapter: 2 ID: 2

Read mode : Secure
Utilize accurate stream : Yes
Defeat audio cache : Yes
Make use of C2 pointers : No

Read offset correction : 6
Overread into Lead-In and Lead-Out : No
Fill up missing offset samples with silence : Yes
Delete leading and trailing silent blocks : No
Null samples used in CRC calculations : Yes
Used interface : Native Win32 interface for Win NT & 2000

Used output format : User Defined Encoder
Selected bitrate : 768 kBit/s
Quality : High
Add ID3 tag : No
Command line compressor : F:\Program Files\Exact Audio Copy\FLAC\FLAC.EXE
Additional command line options : -T "DATE=%y" -T "GENRE=%m" -8 -V %s


TOC of the extracted CD

Track | Start | Length | Start sector | End sector
––––––––––––––––––––––––––––-
1 | 0:00.00 | 4:30.29 | 0 | 20278
2 | 4:30.29 | 3:53.27 | 20279 | 37780
3 | 8:23.56 | 7:34.57 | 37781 | 71887
4 | 15:58.38 | 4:58.26 | 71888 | 94263
5 | 20:56.64 | 3:05.71 | 94264 | 108209
6 | 24:02.60 | 7:10.43 | 108210 | 140502
7 | 31:13.28 | 4:00.67 | 140503 | 158569
8 | 35:14.20 | 4:53.06 | 158570 | 180550


Range status and errors

Selected range

Filename W:\EAC\BD\Bob Dylan - Blonde On Blonde - Disc 1\Bob Dylan - Blonde On Blonde - Disc 1.wav

Peak level 99.1 %
Range quality 100.0 %
Test CRC F9A299D7
Copy CRC F9A299D7
Copy OK

No errors occurred


AccurateRip summary

Track 1 not present in database
Track 2 not present in database
Track 3 not present in database
Track 4 not present in database
Track 5 not present in database
Track 6 not present in database
Track 7 not present in database
Track 8 not present in database

None of the tracks are present in the AccurateRip database

End of status report

AUDIOCHECKER v2.0 beta (build 457) - by Dester - opdester@freemail.hu
~~~~~~~~~~~~~~~~~~~~~~~~~~~~~~~~~~
-=== DO NOT EDIT THIS FILE! ===-

Path: …\Bob Dylan - Blonde On Blonde - Disc 1

1 -=- Bob Dylan - Blonde On Blonde - Disc 1.flac -=- CDDA (100%)

90130228

[Verification date: 15.11.2010 21:45:53]
[Disc ID: 000c640e-0052fe62-62096708]
Disk not present in database.

Track [ CRC32 ] [W/O NULL] [ LOG ]
– [F9A299D7] [4AB2910A] CRC32
01 [9362CA0F] [150A91B7]
02 [8A43E370] [2E7A5EC1]
03 [74FCCEAC] [2A263923]
04 [C7ED7B51] [12526A48]
05 [A98BC4F0] [4B1FF593]
06 [C1FA1B4C] [071E2C2F]
07 [259C984A] [A6BA181F]
08 [A178F8F7] [61BA3462]

Bob Dylan - The Original Mono Recordings (1962-1967) [2010, Japan mini LPs, SICP-2951~9] Re-up

Tracklist CD8:

01. Most Likely You Go Your Way And I'll Go Mine [03:22]
02. Temporary Like Achilles [05:04]
03. Absolutely Sweet Marie [05:00]
04. 4th Time Around [04:40]
05. Obviously 5 Believers [03:37]
06. Sad Eyed Lady Of The Lowlands [11:26]

Exact Audio Copy V0.99 prebeta 5 from 4. May 2009

EAC extraction logfile from 15. November 2010, 20:14

Bob Dylan / Blonde On Blonde [Disc2]

Used drive : ASUS DRW-2014L1T Adapter: 2 ID: 2

Read mode : Secure
Utilize accurate stream : Yes
Defeat audio cache : Yes
Make use of C2 pointers : No

Read offset correction : 6
Overread into Lead-In and Lead-Out : No
Fill up missing offset samples with silence : Yes
Delete leading and trailing silent blocks : No
Null samples used in CRC calculations : Yes
Used interface : Native Win32 interface for Win NT & 2000

Used output format : User Defined Encoder
Selected bitrate : 768 kBit/s
Quality : High
Add ID3 tag : No
Command line compressor : F:\Program Files\Exact Audio Copy\FLAC\FLAC.EXE
Additional command line options : -T "DATE=%y" -T "GENRE=%m" -8 -V %s


TOC of the extracted CD

Track | Start | Length | Start sector | End sector
––––––––––––––––––––––––––––-
1 | 0:00.00 | 3:26.31 | 0 | 15480
2 | 3:26.31 | 5:03.67 | 15481 | 38272
3 | 8:30.23 | 5:00.48 | 38273 | 60820
4 | 13:30.71 | 4:39.59 | 60821 | 81804
5 | 18:10.55 | 3:36.64 | 81805 | 98068
6 | 21:47.44 | 11:21.74 | 98069 | 149217


Range status and errors

Selected range

Filename W:\EAC\BD\Bob Dylan - Blonde On Blonde [Disc2]\Bob Dylan - Blonde On Blonde [Disc2].wav

Peak level 97.3 %
Range quality 100.0 %
Test CRC DED01F6E
Copy CRC DED01F6E
Copy OK

No errors occurred


AccurateRip summary

Track 1 not present in database
Track 2 not present in database
Track 3 not present in database
Track 4 not present in database
Track 5 not present in database
Track 6 not present in database

None of the tracks are present in the AccurateRip database

End of status report

AUDIOCHECKER v2.0 beta (build 457) - by Dester - opdester@freemail.hu
~~~~~~~~~~~~~~~~~~~~~~~~~~~~~~~~~~
-=== DO NOT EDIT THIS FILE! ===-

Path: …\Bob Dylan - Blonde On Blonde [Disc2]

1 -=- Bob Dylan - Blonde On Blonde [Disc2].flac -=- CDDA (100%)

84260436

[Verification date: 15.11.2010 21:46:14]
[Disc ID: 0006c513-00251837-3807c506]
Disk not present in database.

Track [ CRC32 ] [W/O NULL] [ LOG ]
– [DED01F6E] [9610D02D] CRC32
01 [5108934D] [4FB41804]
02 [CE30ECFB] [D3B01337]
03 [B98BCE5A] [04718D64]
04 [72A3610D] [9C9586AD]
05 [081D330B] [BA5CD44C]
06 [C5C5CF93] [0FD09B0C]

––––––––––––––––––––––––––––––––––

Bob Dylan - The Original Mono Recordings (1962-1967) [2010, Japan mini LPs, SICP-2951~9] Re-up

CD9: Bob Dylan - John Wesley Harding (1967)
Rock/Folk Rock | EAC Rip | Flac(Image) + Cue + Log & MP3 CBR 320Kbps
Sony Music | SICP-2959 | 2010 Remastering | ~146 or 104 Mb
Scans(300dpi, jpg) Included | Scans(600dpi, png) -> 103 Mb

Bob Dylan - The Original Mono Recordings (1962-1967) [2010, Japan mini LPs, SICP-2951~9] Re-up

Tracklist:

01. John Wesley Harding [02:54]
02. As I Went Out One Morning [02:50]
03. I Dreamed I Saw St. Augustine [03:53]
04. All Along the Watchtower [02:33]
05. The Ballad of Frankie Lee and Judas Priest [05:31]
06. Drifter's Escape [02:47]
07. Dear Landlord [03:19]
08. I Am a Lonesome Hobo [03:20]
09. I Pity the Poor Immigrant [04:12]
10. The Wicked Messenger [02:04]
11. Down Along the Cove [02:22]
12. I'll Be Your Baby Tonight [02:39]

Exact Audio Copy V0.99 prebeta 5 from 4. May 2009

EAC extraction logfile from 15. November 2010, 20:28

Bob Dylan / John Wesley Harding

Used drive : ASUS DRW-2014L1T Adapter: 2 ID: 2

Read mode : Secure
Utilize accurate stream : Yes
Defeat audio cache : Yes
Make use of C2 pointers : No

Read offset correction : 6
Overread into Lead-In and Lead-Out : No
Fill up missing offset samples with silence : Yes
Delete leading and trailing silent blocks : No
Null samples used in CRC calculations : Yes
Used interface : Native Win32 interface for Win NT & 2000

Used output format : User Defined Encoder
Selected bitrate : 768 kBit/s
Quality : High
Add ID3 tag : No
Command line compressor : F:\Program Files\Exact Audio Copy\FLAC\FLAC.EXE
Additional command line options : -T "DATE=%y" -T "GENRE=%m" -8 -V %s


TOC of the extracted CD

Track | Start | Length | Start sector | End sector
––––––––––––––––––––––––––––-
1 | 0:00.00 | 2:57.62 | 0 | 13336
2 | 2:57.62 | 2:50.20 | 13337 | 26106
3 | 5:48.07 | 3:52.43 | 26107 | 43549
4 | 9:40.50 | 2:32.46 | 43550 | 54995
5 | 12:13.21 | 5:31.60 | 54996 | 79880
6 | 17:45.06 | 2:47.12 | 79881 | 92417
7 | 20:32.18 | 3:17.37 | 92418 | 107229
8 | 23:49.55 | 3:20.41 | 107230 | 122270
9 | 27:10.21 | 4:12.41 | 122271 | 141211
10 | 31:22.62 | 2:03.60 | 141212 | 150496
11 | 33:26.47 | 2:21.06 | 150497 | 161077
12 | 35:47.53 | 2:36.74 | 161078 | 172851


Range status and errors

Selected range

Filename W:\EAC\BD\Bob Dylan - John Wesley Harding\Bob Dylan - John Wesley Harding.wav

Peak level 88.6 %
Range quality 100.0 %
Test CRC F6E9BC4F
Copy CRC F6E9BC4F
Copy OK

No errors occurred


AccurateRip summary

Track 1 not present in database
Track 2 not present in database
Track 3 not present in database
Track 4 not present in database
Track 5 not present in database
Track 6 not present in database
Track 7 not present in database
Track 8 not present in database
Track 9 not present in database
Track 10 not present in database
Track 11 not present in database
Track 12 not present in database

None of the tracks are present in the AccurateRip database

End of status report

AUDIOCHECKER v2.0 beta (build 457) - by Dester - opdester@freemail.hu
~~~~~~~~~~~~~~~~~~~~~~~~~~~~~~~~~~
-=== DO NOT EDIT THIS FILE! ===-

Path: …\Bob Dylan - John Wesley Harding

1 -=- Bob Dylan - John Wesley Harding.flac -=- CDDA (100%)

145056228

[Verification date: 15.11.2010 21:48:41]
[Disc ID: 0011c875-00a61c7a-9509000c]
Disk not present in database.

Track [ CRC32 ] [W/O NULL] [ LOG ]
– [F6E9BC4F] [FDB5D29F] CRC32
01 [DB09444C] [2FB5FB31]
02 [B250874C] [2EBDE847]
03 [F609D89F] [54E39368]
04 [2836A160] [544808C2]
05 [CCCE7912] [156BED47]
06 [F30E713C] [00FF02D1]
07 [7A868AD7] [FAD521AA]
08 [1D8ADD3B] [366F1D42]
09 [484C9157] [78754A9A]
10 [D17D924A] [66EEC78A]
11 [35E561FA] [0D24CEFD]
12 [043D687A] [4C339829]

Bob Dylan - The Original Mono Recordings (1962-1967) [2010, Japan mini LPs, SICP-2951~9] Re-up

Download Bob Dylan - The Original Mono Recordings (1962-1967) [2010, Japan mini LPs, SICP-2951~9]: