Subcategories

Bob Dylan - Bob Dylan's Greatest Hits (1967) [MFSL Remastered 2015]

Posted By: Designol
Bob Dylan - Bob Dylan's Greatest Hits (1967) [MFSL Remastered 2015]

Bob Dylan - Bob Dylan's Greatest Hits (1967) MFSL Remastered 2015
EAC | FLAC | Tracks (Cue&Log) ~ 256 Mb | Mp3 (CBR320) ~ 106 Mb | Scans included | 00:40:35
Singer/Songwriter, Folk, Folk Rock | Label: Mobile Fidelity Sound Lab | # UDSACD 2120

Arriving in 1967, Greatest Hits does an excellent job of summarizing Dylan's best-known songs from his first seven albums. At just ten songs, it's a little brief, and the song selection may be a little predictable, but that's actually not a bad thing, since this provides a nice sampler for the curious and casual listener, as it boasts standards from "Blowin' in the Wind" to "Like a Rolling Stone." And, for collectors, the brilliant non-LP single "Positively Fourth Street" was added, which provided reason enough for anybody that already owned the original records to pick this up. This has since been supplanted by more exhaustive collections, but as a sampler of Dylan at his absolute peak, this is first-rate.

Review by Stephen Thomas Erlewine, Allmusic.com

Bob Dylan - Bob Dylan's Greatest Hits (1967) [MFSL Remastered 2015]



Tracklist:

01. Rainy Day Women #12 & 35 (4:38)
02. Blowin' in the Wind (2:49)
03. The Times They Are A-Changin' (3:16)
04. It Ain't Me Babe (3:37)
05. Like a Rolling Stone (6:12)
06. Mr. Tambourine Man (5:28)
07. Subterranean Homesick Blues (2:22)
08. I Want You (3:08)
09. Positively 4th Street (4:12)
10. Just Like a Woman (4:52)


Exact Audio Copy V1.3 from 2. September 2016

EAC extraction logfile from 11. July 2017, 14:32

Bob Dylan / Bob Dylan's Greatest Hits (2016 MFSL)

Used drive : PLEXTOR CD-R PREMIUM Adapter: 1 ID: 1

Read mode : Secure
Utilize accurate stream : Yes
Defeat audio cache : Yes
Make use of C2 pointers : No

Read offset correction : 30
Overread into Lead-In and Lead-Out : No
Fill up missing offset samples with silence : Yes
Delete leading and trailing silent blocks : No
Null samples used in CRC calculations : Yes
Used interface : Native Win32 interface for Win NT & 2000
Gap handling : Appended to previous track

Used output format : User Defined Encoder
Selected bitrate : 768 kBit/s
Quality : High
Add ID3 tag : No
Command line compressor : C:\Program Files (x86)\Exact Audio Copy\FLAC\FLAC.EXE
Additional command line options : -6 -e -p -V -T "ARTIST=%artist%" -T "TITLE=%title%" -T "ALBUM=%albumtitle%" -T "DATE=%year%" -T "TRACKNUMBER=%tracknr%" -T "GENRE=%genre%" -T "PERFORMER=%albuminterpret%" -T "COMPOSER=%composer%" %haslyrics%–tag-from-file=LYRICS="%lyricsfile%"%haslyrics% -T "ALBUMARTIST=%albumartist%" -T "DISCNUMBER=%cdnumber%" -T "TOTALDISCS=%totalcds%" -T "TOTALTRACKS=%numtracks%" -T "COMMENT=%comment%" %source% -o %dest%


TOC of the extracted CD

Track | Start | Length | Start sector | End sector
––––––––––––––––––––––––––––-
1 | 0:00.00 | 4:38.19 | 0 | 20868
2 | 4:38.19 | 2:49.28 | 20869 | 33571
3 | 7:27.47 | 3:15.73 | 33572 | 48269
4 | 10:43.45 | 3:36.74 | 48270 | 64543
5 | 14:20.44 | 6:11.65 | 64544 | 92433
6 | 20:32.34 | 5:28.20 | 92434 | 117053
7 | 26:00.54 | 2:21.55 | 117054 | 127683
8 | 28:22.34 | 3:07.72 | 127684 | 141780
9 | 31:30.31 | 4:12.12 | 141781 | 160692
10 | 35:42.43 | 4:52.03 | 160693 | 182595


Track 1

Filename C:\tmp\00_RIPS\01 - Rainy Day Women #12 & 35.wav

Pre-gap length 0:00:02.00

Peak level 94.2 %
Extraction speed 8.7 X
Track quality 100.0 %
Test CRC 2B5ACC42
Copy CRC 2B5ACC42
Accurately ripped (confidence 6) [C92B0FC3] (AR v2)
Copy OK

Track 2

Filename C:\tmp\00_RIPS\02 - Blowin' In The Wind.wav

Pre-gap length 0:00:04.25

Peak level 89.5 %
Extraction speed 9.4 X
Track quality 100.0 %
Test CRC 89A098C6
Copy CRC 89A098C6
Accurately ripped (confidence 6) [B2B5BC25] (AR v2)
Copy OK

Track 3

Filename C:\tmp\00_RIPS\03 - The Times They Are A-Changin'.wav

Pre-gap length 0:00:03.74

Peak level 82.0 %
Extraction speed 10.1 X
Track quality 100.0 %
Test CRC DBA93433
Copy CRC DBA93433
Accurately ripped (confidence 6) [E0F6B773] (AR v2)
Copy OK

Track 4

Filename C:\tmp\00_RIPS\04 - It Ain't Me, Babe.wav

Pre-gap length 0:00:03.74

Peak level 82.5 %
Extraction speed 10.6 X
Track quality 100.0 %
Test CRC 59993941
Copy CRC 59993941
Accurately ripped (confidence 6) [E831A0E7] (AR v2)
Copy OK

Track 5

Filename C:\tmp\00_RIPS\05 - Like A Rolling Stone.wav

Pre-gap length 0:00:03.74

Peak level 85.3 %
Extraction speed 11.8 X
Track quality 100.0 %
Test CRC 8DE52610
Copy CRC 8DE52610
Accurately ripped (confidence 6) [E67BD1F6] (AR v2)
Copy OK

Track 6

Filename C:\tmp\00_RIPS\06 - Mr. Tambourine Man.wav

Pre-gap length 0:00:03.74

Peak level 91.6 %
Extraction speed 12.6 X
Track quality 100.0 %
Test CRC E8E83847
Copy CRC E8E83847
Accurately ripped (confidence 6) [E7424F97] (AR v2)
Copy OK

Track 7

Filename C:\tmp\00_RIPS\07 - Subterranean Homesick Blues.wav

Pre-gap length 0:00:03.74

Peak level 90.5 %
Extraction speed 9.3 X
Track quality 99.9 %
Test CRC 5D7683A6
Copy CRC 5D7683A6
Accurately ripped (confidence 6) [B4263598] (AR v2)
Copy OK

Track 8

Filename C:\tmp\00_RIPS\08 - I Want You.wav

Pre-gap length 0:00:03.74

Peak level 86.2 %
Extraction speed 13.0 X
Track quality 100.0 %
Test CRC 195E93D3
Copy CRC 195E93D3
Accurately ripped (confidence 6) [AFE87E30] (AR v2)
Copy OK

Track 9

Filename C:\tmp\00_RIPS\09 - Positively 4th Street.wav

Pre-gap length 0:00:03.74

Peak level 83.5 %
Extraction speed 13.8 X
Track quality 100.0 %
Test CRC DD5CF53C
Copy CRC DD5CF53C
Accurately ripped (confidence 6) [7A0D33C0] (AR v2)
Copy OK

Track 10

Filename C:\tmp\00_RIPS\10 - Just Like A Woman.wav

Pre-gap length 0:00:03.74

Peak level 94.4 %
Extraction speed 12.8 X
Track quality 100.0 %
Test CRC 5E87A282
Copy CRC 5E87A282
Accurately ripped (confidence 6) [C3D0121E] (AR v2)
Copy OK


All tracks accurately ripped

No errors occurred

End of status report

–– CUETools DB Plugin V2.1.6

[CTDB TOCID: TDvGmEczNxPU4EfWLA3bIZTa6vk-] found
Submit result: TDvGmEczNxPU4EfWLA3bIZTa6vk- has been confirmed
Track | CTDB Status
1 | (12/12) Accurately ripped
2 | (12/12) Accurately ripped
3 | (12/12) Accurately ripped
4 | (12/12) Accurately ripped
5 | (12/12) Accurately ripped
6 | (12/12) Accurately ripped
7 | (12/12) Accurately ripped
8 | (12/12) Accurately ripped
9 | (12/12) Accurately ripped
10 | (12/12) Accurately ripped


==== Log checksum 1773A07889F88650C4B642338BA9EB3A039291EBD1762B099B86BBDA2D8F12C7 ====

foobar2000 1.2 / Dynamic Range Meter 1.1.1
log date: 2017-09-24 22:42:51

––––––––––––––––––––––––––––––––––––––––
Analyzed: Bob Dylan / Bob Dylan's Greatest Hits
––––––––––––––––––––––––––––––––––––––––

DR Peak RMS Duration Track
––––––––––––––––––––––––––––––––––––––––
DR12 -0.52 dB -14.71 dB 4:38 01-Rainy Day Women #12 & 35
DR13 -0.96 dB -16.41 dB 2:49 02-Blowin' in the Wind
DR9 -1.71 dB -14.50 dB 3:16 03-The Times They Are A-Changin'
DR11 -1.67 dB -15.38 dB 3:37 04-It Ain't Me Babe
DR9 -1.37 dB -13.03 dB 6:12 05-Like a Rolling Stone
DR13 -0.75 dB -15.32 dB 5:28 06-Mr. Tambourine Man
DR11 -0.86 dB -13.43 dB 2:22 07-Subterranean Homesick Blues
DR11 -1.28 dB -14.29 dB 3:08 08-I Want You
DR9 -1.56 dB -13.02 dB 4:12 09-Positively 4th Street
DR12 -0.50 dB -15.35 dB 4:52 10-Just Like a Woman
––––––––––––––––––––––––––––––––––––––––

Number of tracks: 10
Official DR value: DR11

Samplerate: 44100 Hz
Channels: 2
Bits per sample: 16
Bitrate: 776 kbps
Codec: FLAC
================================================================================

Bob Dylan - Bob Dylan's Greatest Hits (1967) [MFSL Remastered 2015]

Bob Dylan - Bob Dylan's Greatest Hits (1967) [MFSL Remastered 2015]