Subcategories

Bob Seger & The Silver Bullet Band - Live Hits! (2012)

Posted By: v3122
Bob Seger & The Silver Bullet Band - Live Hits! (2012)

Bob Seger & The Silver Bullet Band - Live Hits! (2012)
XLD | Flac(Image) + Cue + Log & MP3 CBR 320Kbps
Rolling Stone | ~ 332 or 107 Mb | Scans Included
Classic Rock

~ Limited collectors edition, given away with German Rolling Stone-Magazine 03/2012 ~

Bob Seger & The Silver Bullet Band - Live Hits! (2012)


Bob Seger & The Silver Bullet Band - Live Hits! (2012):

Vector Criamoda Etnic

Tracklist:

01. Nutbush City Limits
02. Turn The Page
03. Ramblin Gamblin Man
04. Lookin Back
05. Mainstreet
06. Against The Wind
07. Fire Lake
08. We've Got Tonight
09. Night Moves
10. Rock And Roll Never Forgets

X Lossless Decoder version 20120120 (139.0)

XLD extraction logfile from 2012-02-22 15:48:19 +0000

Bob Seger & The Silver Bullet Band / Live Hits!

Used drive : YAMAHA CRW-F1E (revision 1.0g)

Ripper mode : XLD Secure Ripper
Disable audio cache : OK for the drive with a cache less than 1375KiB
Make use of C2 pointers : NO
Read offset correction : 733
Max retry count : 100
Gap status : Analyzed, Appended

TOC of the extracted CD
Track | Start | Length | Start sector | End sector
––––––––––––––––––––––––––––-
1 | 00:00:00 | 04:33:28 | 0 | 20502
2 | 04:33:28 | 05:11:53 | 20503 | 43880
3 | 09:45:06 | 03:10:59 | 43881 | 58189
4 | 12:55:65 | 02:39:36 | 58190 | 70150
5 | 15:35:26 | 04:17:73 | 70151 | 89498
6 | 19:53:24 | 05:29:01 | 89499 | 114174
7 | 25:22:25 | 04:02:24 | 114175 | 132348
8 | 29:24:49 | 04:55:24 | 132349 | 154497
9 | 34:19:73 | 05:45:20 | 154498 | 180392
10 | 40:05:18 | 03:48:00 | 180393 | 197492

AccurateRip Summary
Disc not found in AccurateRip DB.

All Tracks
Album gain : -10.23 dB
Peak : 1.000000
Statistics
Read error : 0
Jitter error (maybe fixed) : 0
Retry sector count : 0
Damaged sector count : 0

Track 01
Filename : /Volumes/HD 2/Bob Seger & The Silver Bullet Band - 2012 -Live Hits (FLAC)/01 - Bob Seger & The Silver Bullet Band - 2012 - Nutbush City Limits (Live 1975).flac
Pre-gap length : 00:02:00

Track gain : -10.12 dB
Peak : 1.000000
CRC32 hash (test run) : 4504AC62
CRC32 hash : 4504AC62
CRC32 hash (skip zero) : 2AA53594
AccurateRip signature : AA54DC46
->Track not present in AccurateRip database.
Statistics
Read error : 0
Jitter error (maybe fixed) : 0
Retry sector count : 0
Damaged sector count : 0

Track 02
Filename : /Volumes/HD 2/Bob Seger & The Silver Bullet Band - 2012 -Live Hits (FLAC)/02 - Bob Seger & The Silver Bullet Band - 2012 - Turn The Page (Live 1975).flac

Track gain : -7.92 dB
Peak : 0.999420
CRC32 hash (test run) : BE7CA1A9
CRC32 hash : BE7CA1A9
CRC32 hash (skip zero) : 518E0D8A
AccurateRip signature : 686FE5DC
->Track not present in AccurateRip database.
Statistics
Read error : 0
Jitter error (maybe fixed) : 0
Retry sector count : 0
Damaged sector count : 0

Track 03
Filename : /Volumes/HD 2/Bob Seger & The Silver Bullet Band - 2012 -Live Hits (FLAC)/03 - Bob Seger & The Silver Bullet Band - 2012 - Ramblin' Gamblin' Man (Live 1975).flac

Track gain : -11.13 dB
Peak : 1.000000
CRC32 hash (test run) : 2CCAF6C9
CRC32 hash : 2CCAF6C9
CRC32 hash (skip zero) : 1C5F763F
AccurateRip signature : 7C1A3A98
->Track not present in AccurateRip database.
Statistics
Read error : 0
Jitter error (maybe fixed) : 0
Retry sector count : 0
Damaged sector count : 0

Track 04
Filename : /Volumes/HD 2/Bob Seger & The Silver Bullet Band - 2012 -Live Hits (FLAC)/04 - Bob Seger & The Silver Bullet Band - 2012 - Lookin' Back (Live 1975).flac

Track gain : -10.39 dB
Peak : 1.000000
CRC32 hash (test run) : 3A203709
CRC32 hash : 3A203709
CRC32 hash (skip zero) : 0F00DD49
AccurateRip signature : 30E56313
->Track not present in AccurateRip database.
Statistics
Read error : 0
Jitter error (maybe fixed) : 0
Retry sector count : 0
Damaged sector count : 0

Track 05
Filename : /Volumes/HD 2/Bob Seger & The Silver Bullet Band - 2012 -Live Hits (FLAC)/05 - Bob Seger & The Silver Bullet Band - 2012 - Mainstreet (Live 1980).flac

Track gain : -9.62 dB
Peak : 1.000000
CRC32 hash (test run) : EA34B266
CRC32 hash : EA34B266
CRC32 hash (skip zero) : 585A3768
AccurateRip signature : 9DD6BBAD
->Track not present in AccurateRip database.
Statistics
Read error : 0
Jitter error (maybe fixed) : 0
Retry sector count : 0
Damaged sector count : 0

Track 06
Filename : /Volumes/HD 2/Bob Seger & The Silver Bullet Band - 2012 -Live Hits (FLAC)/06 - Bob Seger & The Silver Bullet Band - 2012 - Against The Wind (Live 1980).flac

Track gain : -9.75 dB
Peak : 1.000000
CRC32 hash (test run) : E014373A
CRC32 hash : E014373A
CRC32 hash (skip zero) : 07FD3E11
AccurateRip signature : 9F3342EB
->Track not present in AccurateRip database.
Statistics
Read error : 0
Jitter error (maybe fixed) : 0
Retry sector count : 0
Damaged sector count : 0

Track 07
Filename : /Volumes/HD 2/Bob Seger & The Silver Bullet Band - 2012 -Live Hits (FLAC)/07 - Bob Seger & The Silver Bullet Band - 2012 - Fire Lake (Live 1980).flac

Track gain : -9.90 dB
Peak : 1.000000
CRC32 hash (test run) : 1E0B2B00
CRC32 hash : 1E0B2B00
CRC32 hash (skip zero) : D7FB5564
AccurateRip signature : EAE6D378
->Track not present in AccurateRip database.
Statistics
Read error : 0
Jitter error (maybe fixed) : 0
Retry sector count : 0
Damaged sector count : 0

Track 08
Filename : /Volumes/HD 2/Bob Seger & The Silver Bullet Band - 2012 -Live Hits (FLAC)/08 - Bob Seger & The Silver Bullet Band - 2012 - We've Got Tonight (Live 1980).flac

Track gain : -8.80 dB
Peak : 1.000000
CRC32 hash (test run) : C0422F32
CRC32 hash : C0422F32
CRC32 hash (skip zero) : A128F5E5
AccurateRip signature : 7B143F89
->Track not present in AccurateRip database.
Statistics
Read error : 0
Jitter error (maybe fixed) : 0
Retry sector count : 0
Damaged sector count : 0

Track 09
Filename : /Volumes/HD 2/Bob Seger & The Silver Bullet Band - 2012 -Live Hits (FLAC)/09 - Bob Seger & The Silver Bullet Band - 2012 - Night Moves (Live 1980).flac

Track gain : -10.38 dB
Peak : 1.000000
CRC32 hash (test run) : DD3909BE
CRC32 hash : DD3909BE
CRC32 hash (skip zero) : B3D331DB
AccurateRip signature : 6630C89D
->Track not present in AccurateRip database.
Statistics
Read error : 0
Jitter error (maybe fixed) : 0
Retry sector count : 0
Damaged sector count : 0

Track 10
Filename : /Volumes/HD 2/Bob Seger & The Silver Bullet Band - 2012 -Live Hits (FLAC)/10 - Bob Seger & The Silver Bullet Band - 2012 - Rock And Roll Never Forgets (Live 1980).flac

Track gain : -10.98 dB
Peak : 1.000000
CRC32 hash (test run) : 0B66FD70
CRC32 hash : 0B66FD70
CRC32 hash (skip zero) : 5ECDA5F2
AccurateRip signature : 0574FE78
->Track not present in AccurateRip database.
Statistics
Read error : 0
Jitter error (maybe fixed) : 0
Retry sector count : 0
Damaged sector count : 0

No errors occurred

End of status report

foobar2000 1.2.9 / Dynamic Range Meter 1.1.1
log date: 2015-10-09 16:36:26

––––––––––––––––––––––––––––––––––––––––
Analyzed: Bob Seger & The Silver Bullet Band / Live Hits!
––––––––––––––––––––––––––––––––––––––––

DR Peak RMS Duration Track
––––––––––––––––––––––––––––––––––––––––
DR7 0.00 dB -9.03 dB 4:33 01-Nutbush City Limits (Live 1975)
DR8 -0.01 dB -11.67 dB 5:12 02-Turn The Page (Live 1975)
DR5 0.00 dB -6.45 dB 3:11 03-Ramblin' Gamblin' Man (Live 1975)
DR6 0.00 dB -6.98 dB 2:39 04-Lookin' Back (Live 1975)
DR6 0.00 dB -7.88 dB 4:18 05-Mainstreet (Live 1980)
DR6 0.00 dB -7.01 dB 5:29 06-Against The Wind (Live 1980)
DR6 0.00 dB -7.49 dB 4:02 07-Fire Lake (Live 1980)
DR7 0.00 dB -9.51 dB 4:55 08-We've Got Tonight (Live 1980)
DR6 0.00 dB -7.66 dB 5:45 09-Night Moves (Live 1980)
DR5 0.00 dB -6.27 dB 3:48 10-Rock And Roll Never Forgets (Live 1980)
––––––––––––––––––––––––––––––––––––––––

Number of tracks: 10
Official DR value: DR6

Samplerate: 44100 Hz
Channels: 2
Bits per sample: 16
Bitrate: 1015 kbps
Codec: FLAC

[CUETools log; Date: 09.10.2015 16:36:14; Version: 2.1.4]
[CTDB TOCID: nSvsYSFTfRyg0Op2rMX1R1vTD2A-] found.
Track | CTDB Status
1 | (42/43) Accurately ripped
2 | (43/43) Accurately ripped
3 | (43/43) Accurately ripped
4 | (43/43) Accurately ripped
5 | (42/43) Accurately ripped
6 | (43/43) Accurately ripped
7 | (43/43) Accurately ripped
8 | (42/43) Accurately ripped
9 | (43/43) Accurately ripped
10 | (43/43) Accurately ripped
[AccurateRip ID: 0010310c-0081f97b-920a490a] found.
Track [ CRC | V2 ] Status
01 [aa54dc46|f13dcafe] (12+41/53) Accurately ripped
02 [686fe5dc|75f9f361] (12+41/53) Accurately ripped
03 [7c1a3a98|b3fe96ee] (12+41/53) Accurately ripped
04 [30e56313|eeec95df] (12+41/53) Accurately ripped
05 [9dd6bbad|ee56b118] (12+40/52) Accurately ripped
06 [9f3342eb|fe588c79] (12+41/53) Accurately ripped
07 [eae6d378|fb765945] (12+42/54) Accurately ripped
08 [7b143f89|6de36016] (12+40/52) Accurately ripped
09 [6630c89d|d9f01bea] (12+41/53) Accurately ripped
10 [0574fe78|762a64e1] (12+41/53) Accurately ripped

Track Peak [ CRC32 ] [W/O NULL]
– 100,0 [15E47C0A] [CA0E1C37]
01 100,0 [4504AC62] [2AA53594]
02 99,9 [BE7CA1A9] [518E0D8A]
03 100,0 [2CCAF6C9] [1C5F763F]
04 100,0 [3A203709] [0F00DD49]
05 100,0 [EA34B266] [585A3768]
06 100,0 [E014373A] [07FD3E11]
07 100,0 [1E0B2B00] [D7FB5564]
08 100,0 [C0422F32] [A128F5E5]
09 100,0 [DD3909BE] [B3D331DB]
10 100,0 [0B66FD70] [5ECDA5F2]

Vector Criamoda Etnic

All thanks go to the original releaser

Bob Seger in my Blog

Download Bob Seger & The Silver Bullet Band - Live Hits! (2012):