Subcategories

Bob Dylan - Masterpieces (1978) [3 CD Set] Repost

Posted By: Designol
Bob Dylan - Masterpieces (1978) [3 CD Set] Repost

Bob Dylan - Masterpieces (1978) [3 CD Set] Repost
EAC | FLAC | Image (Cue, Log) ~ 1 Gb (incl 5%) | Mp3 (CBR320, Stereo) ~ 386 Mb (incl 5%) | Scans ~ 20 Mb
Genre: Singer-Songwriter, Rock, Country-Rock, Folk Rock, Blues | Label: Columbia | # 462448 9 | Time: 02:44:16

Bob Dylan - Masterpieces (1978) [3 CD Set] Repost

Masterpieces is a compilation album by Bob Dylan. The 3-LP set was released in Japan and Australia in anticipation of his 1978 tour. Primarily a greatest hits collection spanning Dylan's career up that point, the album features three previously unreleased tracks, including "Rita May", "George Jackson" and a unique (1962) outtake version of "Mixed Up Confusion". It also includes a live performance of "Just Like Tom Thumb's Blues" from Dylan's 1966 World Tour, which was first released as the B-side of his "I Want You" single in 1966 and later appeared on Self Portrait. Masterpieces was reissued on CD in 1991 by Sony Music (Cat. No. 4624489), but is no longer in print.
The best-organized Dylan retrospective ever done up to this time, the Japanese Masterpieces (never released outside the Far East) spends three discs thoroughly presenting Dylan's best work from 1962 to 1976, including several rare singles never before released on an album. Remastered and reissued on CD in 1991.

Review by William Ruhlmann, Allmusic.com
Biography at Allmusic
Official Website
Wiki


Tracklist:
Disc 1:
1. "Knockin' on Heaven's Door" – 2:30
2. "Mr. Tambourine Man" – 5:29
3. "Just Like a Woman" – 4:56
4. "I Shall Be Released" – 3:05
5. "Tears of Rage" (from The Basement Tapes) (Dylan, Richard Manuel) – 4:14
6. "All Along the Watchtower" – 2:32
7. "One More Cup of Coffee (Valley Below)" (from Desire) – 3:47
8. "Like a Rolling Stone" (Self Portrait version) – 5:17
9. "Quinn the Eskimo (The Mighty Quinn)" (Self Portrait version) – 2:49
10. "Tomorrow Is a Long Time" (Live at Town Hall 1963, first released on Bob Dylan's Greatest Hits Vol. II) – 3:02
11. "Lay, Lady, Lay" (Live 1976, Hard Rain) – 5:00
12. "Idiot Wind" (Live 1976, Hard Rain) – 10:06

Disc 2:
1. "Mixed-Up Confusion" (outtake version from the 1962 Freewheelin' sessions) – 2:30
2. "Positively 4th Street" (single, 1965) – 3:56
3. "Can You Please Crawl Out Your Window?" (single 1965, also found on Biograph) – 3:35
4. "Just Like Tom Thumb's Blues" (live version recorded at Odeon Theatre, Liverpool, England, 14 May 1966 found on B-side of 1966 "I Want You" single) – 5:40
5. "Spanish Is the Loving Tongue" (B-side of 1971 "Watching the River Flow" single) (Traditional) – 3:38
6. "George Jackson" ("Big Band" version, single, 1971) – 5:38
7. "Rita May" (single, 1976) (Dylan, Jacques Levy) – 3:13
8. "Blowin' in the Wind" – 2:47
9. "A Hard Rain's a-Gonna Fall" – 6:54
10. "The Times They Are a-Changin'" – 3:16
11. "Masters of War" – 4:33
12. "Hurricane" (Dylan, Levy) – 8:36

Disc 3:
1. "Maggie's Farm" (Live 1976, Hard Rain version) – 5:30
2. "Subterranean Homesick Blues" – 2:20
3. "Ballad of a Thin Man" (from Highway 61 Revisited) – 5:57
4. "Mozambique" (from Desire) (Dylan, Levy) – 3:01
5. "This Wheel's on Fire" (Rick Danko, Dylan) – 3:52
6. "I Want You" – 3:09
7. "Rainy Day Women #12 & 35" – 4:38
9. "Don't Think Twice, It's All Right" – 3:40
10. "Song to Woody" – 2:41
11. "It Ain't Me Babe" – 3:35
12. "Love Minus Zero/No Limit" – 2:50
13. "I'll Be Your Baby Tonight" (from John Wesley Harding) – 2:39
14. "If Not for You" (from New Morning) – 2:44
15. "If You See Her, Say Hello" (from Blood on the Tracks) – 4:48
16. "Sara" (from Desire) – 5:31


Exact Audio Copy V1.0 beta 1 from 15. November 2010

EAC extraction logfile from 2. July 2011, 1:56

Bob Dylan / Masterpieces [RE 1991], Disc 1

Used drive : ASUS DRW-24B1ST Adapter: 0 ID: 0

Read mode : Secure
Utilize accurate stream : Yes
Defeat audio cache : Yes
Make use of C2 pointers : No

Read offset correction : 6
Overread into Lead-In and Lead-Out : No
Fill up missing offset samples with silence : Yes
Delete leading and trailing silent blocks : No
Null samples used in CRC calculations : Yes
Used interface : Native Win32 interface for Win NT & 2000

Used output format : User Defined Encoder
Selected bitrate : 768 kBit/s
Quality : High
Add ID3 tag : No
Command line compressor : C:\Program Files\Exact Audio Copy\FLAC\FLAC.EXE
Additional command line options : -8 -V -T "ARTIST=%a" -T "TITLE=%t" -T "ALBUM=%g" -T "DATE=%y" -T "TRACKNUMBER=%n" -T "GENRE=%m" -T "COMMENT=%e" %j–picture="%i"%j %s -o %d


TOC of the extracted CD

Track | Start | Length | Start sector | End sector
––––––––––––––––––––––––––––-
1 | 0:00.00 | 2:30.45 | 0 | 11294
2 | 2:30.45 | 5:29.10 | 11295 | 35979
3 | 7:59.55 | 4:56.52 | 35980 | 58231
4 | 12:56.32 | 3:05.70 | 58232 | 72176
5 | 16:02.27 | 4:14.38 | 72177 | 91264
6 | 20:16.65 | 2:32.42 | 91265 | 102706
7 | 22:49.32 | 3:47.08 | 102707 | 119739
8 | 26:36.40 | 5:17.22 | 119740 | 143536
9 | 31:53.62 | 2:49.05 | 143537 | 156216
10 | 34:42.67 | 3:02.65 | 156217 | 169931
11 | 37:45.57 | 5:00.58 | 169932 | 192489
12 | 42:46.40 | 10:06.10 | 192490 | 237949


Range status and errors

Selected range

Filename C:\_EAC\Bob Dylan - Masterpieces Disc 1\Bob Dylan - Masterpieces Disc 1.wav

Peak level 100.0 %
Extraction speed 0.6 X
Range quality 100.0 %
Test CRC 7773C886
Copy CRC 7773C886
Copy OK

No errors occurred


AccurateRip summary

Track 1 accurately ripped (confidence 2) [4F2AAE7D]
Track 2 accurately ripped (confidence 2) [61804C20]
Track 3 accurately ripped (confidence 2) [35805020]
Track 4 accurately ripped (confidence 2) [BE3E8EAD]
Track 5 accurately ripped (confidence 2) [77528009]
Track 6 accurately ripped (confidence 2) [8D23E1DB]
Track 7 accurately ripped (confidence 2) [60D8C172]
Track 8 accurately ripped (confidence 2) [1BD4B42D]
Track 9 accurately ripped (confidence 2) [1DA2F2FE]
Track 10 accurately ripped (confidence 2) [6991190C]
Track 11 accurately ripped (confidence 2) [D6FB271F]
Track 12 accurately ripped (confidence 2) [EDCC57A2]

All tracks accurately ripped

End of status report

==== Log checksum ED7DFC17B5940D6175E31A1BC964CCD050E2F038C6A91CE6C4E3C59B8C05F29B ====

Exact Audio Copy V1.0 beta 1 from 15. November 2010

EAC extraction logfile from 2. July 2011, 2:51

Bob Dylan / Masterpieces [RE 1991], Disc 2

Used drive : ASUS DRW-24B1ST Adapter: 0 ID: 0

Read mode : Secure
Utilize accurate stream : Yes
Defeat audio cache : Yes
Make use of C2 pointers : No

Read offset correction : 6
Overread into Lead-In and Lead-Out : No
Fill up missing offset samples with silence : Yes
Delete leading and trailing silent blocks : No
Null samples used in CRC calculations : Yes
Used interface : Native Win32 interface for Win NT & 2000

Used output format : User Defined Encoder
Selected bitrate : 768 kBit/s
Quality : High
Add ID3 tag : No
Command line compressor : C:\Program Files\Exact Audio Copy\FLAC\FLAC.EXE
Additional command line options : -8 -V -T "ARTIST=%a" -T "TITLE=%t" -T "ALBUM=%g" -T "DATE=%y" -T "TRACKNUMBER=%n" -T "GENRE=%m" -T "COMMENT=%e" %j–picture="%i"%j %s -o %d


TOC of the extracted CD

Track | Start | Length | Start sector | End sector
––––––––––––––––––––––––––––-
1 | 0:00.00 | 2:30.72 | 0 | 11321
2 | 2:30.72 | 3:56.18 | 11322 | 29039
3 | 6:27.15 | 3:35.00 | 29040 | 45164
4 | 10:02.15 | 5:40.67 | 45165 | 70731
5 | 15:43.07 | 3:38.30 | 70732 | 87111
6 | 19:21.37 | 5:38.18 | 87112 | 112479
7 | 24:59.55 | 3:13.45 | 112480 | 126999
8 | 28:13.25 | 2:47.72 | 127000 | 139596
9 | 31:01.22 | 6:54.58 | 139597 | 170704
10 | 37:56.05 | 3:16.30 | 170705 | 185434
11 | 41:12.35 | 4:33.45 | 185435 | 205954
12 | 45:46.05 | 8:36.47 | 205955 | 244701


Range status and errors

Selected range

Filename C:\_EAC\Bob Dylan - Masterpieces Disc 2\Bob Dylan - Masterpieces [RE 1991], Disc 2.wav

Peak level 100.0 %
Extraction speed 0.5 X
Range quality 100.0 %
Test CRC 89CC8E86
Copy CRC 89CC8E86
Copy OK

No errors occurred


AccurateRip summary

Track 1 accurately ripped (confidence 5) [3B5AEEE3]
Track 2 accurately ripped (confidence 5) [439B925E]
Track 3 accurately ripped (confidence 5) [920BCCF0]
Track 4 accurately ripped (confidence 5) [4794FD1E]
Track 5 accurately ripped (confidence 5) [888F550F]
Track 6 accurately ripped (confidence 5) [CCEE7F30]
Track 7 accurately ripped (confidence 5) [B46423F4]
Track 8 accurately ripped (confidence 5) [88285C8C]
Track 9 accurately ripped (confidence 5) [07E7F44E]
Track 10 accurately ripped (confidence 5) [178D30CA]
Track 11 accurately ripped (confidence 5) [1CCA04F4]
Track 12 accurately ripped (confidence 5) [79A45928]

All tracks accurately ripped

End of status report

==== Log checksum 3E37643066461D7BF16FB01589A8FCBF0FA81DCDF776D8E09F2054658DC55730 ====

Exact Audio Copy V1.0 beta 1 from 15. November 2010

EAC extraction logfile from 2. July 2011, 4:27

Bob Dylan / Masterpieces [RE 1991], Disc 3

Used drive : ASUS DRW-24B1ST Adapter: 0 ID: 0

Read mode : Secure
Utilize accurate stream : Yes
Defeat audio cache : Yes
Make use of C2 pointers : No

Read offset correction : 6
Overread into Lead-In and Lead-Out : No
Fill up missing offset samples with silence : Yes
Delete leading and trailing silent blocks : No
Null samples used in CRC calculations : Yes
Used interface : Native Win32 interface for Win NT & 2000

Used output format : User Defined Encoder
Selected bitrate : 768 kBit/s
Quality : High
Add ID3 tag : No
Command line compressor : C:\Program Files\Exact Audio Copy\FLAC\FLAC.EXE
Additional command line options : -8 -V -T "ARTIST=%a" -T "TITLE=%t" -T "ALBUM=%g" -T "DATE=%y" -T "TRACKNUMBER=%n" -T "GENRE=%m" -T "COMMENT=%e" %j–picture="%i"%j %s -o %d


TOC of the extracted CD

Track | Start | Length | Start sector | End sector
––––––––––––––––––––––––––––-
1 | 0:00.00 | 5:30.12 | 0 | 24761
2 | 5:30.12 | 2:20.10 | 24762 | 35271
3 | 7:50.22 | 5:57.50 | 35272 | 62096
4 | 13:47.72 | 3:01.60 | 62097 | 75731
5 | 16:49.57 | 3:52.08 | 75732 | 93139
6 | 20:41.65 | 3:09.47 | 93140 | 107361
7 | 23:51.37 | 4:38.10 | 107362 | 128221
8 | 28:29.47 | 3:40.10 | 128222 | 144731
9 | 32:09.57 | 2:41.73 | 144732 | 156879
10 | 34:51.55 | 3:35.40 | 156880 | 173044
11 | 38:27.20 | 2:50.02 | 173045 | 185796
12 | 41:17.22 | 2:39.28 | 185797 | 197749
13 | 43:56.50 | 2:44.37 | 197750 | 210086
14 | 46:41.12 | 4:48.23 | 210087 | 231709
15 | 51:29.35 | 5:31.45 | 231710 | 256579


Range status and errors

Selected range

Filename C:\_EAC\Bob Dylan - Masterpieces Disc 3\Bob Dylan - Masterpieces [RE 1991], Disc 3.wav

Peak level 100.0 %
Extraction speed 0.3 X
Range quality 100.0 %
Test CRC 88979916
Copy CRC 88979916
Copy OK

No errors occurred


AccurateRip summary

Track 1 accurately ripped (confidence 6) [A6DCBF18]
Track 2 accurately ripped (confidence 6) [7FCC7AAE]
Track 3 accurately ripped (confidence 6) [53F0417B]
Track 4 accurately ripped (confidence 6) [BA52254D]
Track 5 accurately ripped (confidence 6) [45E3B469]
Track 6 accurately ripped (confidence 6) [B7159D63]
Track 7 accurately ripped (confidence 6) [4A169D03]
Track 8 accurately ripped (confidence 6) [0D97D1B4]
Track 9 accurately ripped (confidence 6) [53021E31]
Track 10 accurately ripped (confidence 7) [73E79353]
Track 11 accurately ripped (confidence 7) [4B9C6D37]
Track 12 accurately ripped (confidence 6) [F541F28E]
Track 13 accurately ripped (confidence 6) [D1DA974A]
Track 14 accurately ripped (confidence 7) [95E7A6C2]
Track 15 accurately ripped (confidence 6) [F2A8E2F2]

All tracks accurately ripped

End of status report

==== Log checksum 9FA9F339DC485B24A9D14261E41574947F58FAF3B91FD73161C884D75D3CA677 ====


Bob Dylan - Masterpieces (1978) [3 CD Set] Repost