Subcategories

Bob James - Angels Of Shanghai (2006) [Repost]

Posted By: tiburon
Bob James - Angels Of Shanghai (2006) [Repost]

Bob James - Angels Of Shanghai (2006)
EAC 1.0b3 | FLAC tracks level 8 | Cue+Log+M3U | Full Scans 300dpi | 337MB + 5% Recovery
MP3 CBR 320 Kbps | 170MB + 5% Recovery
Genre: Ethnic Fusion, Smooth Jazz

Legendary jazz artist Bob James presents his newest project, featuring Nathan East, Harvey Mason, Jack Lee and Lewis Pragasam. A unique East meets West musical exploration - contemporary jazz artists interacting with young musicians from Shanghai performing on traditional Chinese instruments. Ancient sounds blend with modern technology and creativity to produce an experience with no boundaries.
Track List
01. Celebration 4:13
02. Gulangyu Island 4:47
03. Endless Time 3:36
04. Theme "Onara" From "Daejangkeum" 4:04
05. Dream With Me 4:58
06. Angels' Theme: The Invention Of Love 4:57
07. The Magic Paintbrush 6:31
08. Melodia: A Quiet Place For Two 2:26
09. Butterfly Lovers 5:48
10. Dialogues: The Universal Language 4:53
11. Angela With Purple Bamboo 4:36

musicians
Bob James - piano and synths
Nathan East - bass, lead vocal on track 3
Harvey Mason - drums, percussion
Jack Lee - guitar
Lewis Pragasam - drums, percussion

The Angels:
Er-hu: Ma Jia Jun, Liu Zhen
Pipa: Li Li
Guzheng: Xie Tao
Dizi: Zhao Qi, Lu Cong

Special guest:
Karen Han (er-hu soloist on track 9)

Produced by Bob James and Jack Lee


Exact Audio Copy V1.0 beta 3 from 29. August 2011

EAC extraction logfile from 24. January 2013, 16:10

Bob James / Angels Of Shanghai

Used drive : HL-DT-STDVDRAM GH20NS10 Adapter: 2 ID: 1

Read mode : Secure
Utilize accurate stream : Yes
Defeat audio cache : Yes
Make use of C2 pointers : No

Read offset correction : 667
Overread into Lead-In and Lead-Out : No
Fill up missing offset samples with silence : Yes
Delete leading and trailing silent blocks : No
Null samples used in CRC calculations : Yes
Used interface : Native Win32 interface for Win NT & 2000
Gap handling : Appended to previous track

Used output format : User Defined Encoder
Selected bitrate : 1024 kBit/s
Quality : High
Add ID3 tag : No
Command line compressor : C:\Program Files\Exact Audio Copy\Flac\flac.exe
Additional command line options : -8 -V -T "ARTIST=%artist%" -T "TITLE=%title%" -T "ALBUM=%albumtitle%" -T "DATE=%year%" -T "TRACKNUMBER=%tracknr%" -T "TOTALTRACKS=%numtracks%" -T "GENRE=%genre%" -T "ALBUMARTIST=%albumartist%" -T "ALBUM ARTIST=%albumartist%" -T "COMMENT=EAC Secure Mode, Test & Copy, AccurateRip, FLAC -8" %source%


TOC of the extracted CD

Track | Start | Length | Start sector | End sector
––––––––––––––––––––––––––––-
1 | 0:00.00 | 4:13.15 | 0 | 18989
2 | 4:13.15 | 4:47.65 | 18990 | 40579
3 | 9:01.05 | 3:36.07 | 40580 | 56786
4 | 12:37.12 | 4:04.68 | 56787 | 75154
5 | 16:42.05 | 4:58.60 | 75155 | 97564
6 | 21:40.65 | 4:57.65 | 97565 | 119904
7 | 26:38.55 | 6:31.23 | 119905 | 149252
8 | 33:10.03 | 2:26.71 | 149253 | 160273
9 | 35:36.74 | 5:48.24 | 160274 | 186397
10 | 41:25.23 | 4:53.49 | 186398 | 208421
11 | 46:18.72 | 4:36.10 | 208422 | 229131


Track 1

Filename D:\Bob James - Angels Of Shanghai (2006) [FLAC]\01 - Celebration.wav

Pre-gap length 0:00:02.00

Peak level 94.4 %
Extraction speed 4.7 X
Track quality 100.0 %
Test CRC DEFF5255
Copy CRC DEFF5255
Cannot be verified as accurate (confidence 6) [0086BDF3], AccurateRip returned [411CFA55] (AR v2)
Copy OK

Track 2

Filename D:\Bob James - Angels Of Shanghai (2006) [FLAC]\02 - Gulangyu Island.wav

Peak level 94.4 %
Extraction speed 5.4 X
Track quality 100.0 %
Test CRC 847696F1
Copy CRC 847696F1
Cannot be verified as accurate (confidence 6) [46A967C0], AccurateRip returned [4B325CA7] (AR v2)
Copy OK

Track 3

Filename D:\Bob James - Angels Of Shanghai (2006) [FLAC]\03 - Endless Time.wav

Peak level 94.4 %
Extraction speed 4.6 X
Track quality 99.9 %
Test CRC D12598F1
Copy CRC D12598F1
Cannot be verified as accurate (confidence 6) [5732AEB9], AccurateRip returned [0746D924] (AR v2)
Copy OK

Track 4

Filename D:\Bob James - Angels Of Shanghai (2006) [FLAC]\04 - Theme ''Onara''.wav

Pre-gap length 0:00:01.16

Peak level 94.4 %
Extraction speed 5.5 X
Track quality 100.0 %
Test CRC 7AE88F6E
Copy CRC 7AE88F6E
Cannot be verified as accurate (confidence 6) [81329705], AccurateRip returned [BF0B1B98] (AR v2)
Copy OK

Track 5

Filename D:\Bob James - Angels Of Shanghai (2006) [FLAC]\05 - Dream With Me.wav

Peak level 94.4 %
Extraction speed 5.5 X
Track quality 99.9 %
Test CRC 725E324F
Copy CRC 725E324F
Cannot be verified as accurate (confidence 6) [D80E3F17], AccurateRip returned [789E2216] (AR v2)
Copy OK

Track 6

Filename D:\Bob James - Angels Of Shanghai (2006) [FLAC]\06 - Angels' Theme- The Invention Of Love.wav

Pre-gap length 0:00:01.10

Peak level 94.4 %
Extraction speed 7.2 X
Track quality 100.0 %
Test CRC 6E3EEAF0
Copy CRC 6E3EEAF0
Cannot be verified as accurate (confidence 6) [406224D1], AccurateRip returned [D1614331] (AR v2)
Copy OK

Track 7

Filename D:\Bob James - Angels Of Shanghai (2006) [FLAC]\07 - The Magic Paintbrush.wav

Peak level 94.4 %
Extraction speed 7.7 X
Track quality 100.0 %
Test CRC F802450D
Copy CRC F802450D
Cannot be verified as accurate (confidence 6) [C0018400], AccurateRip returned [716B9AA1] (AR v2)
Copy OK

Track 8

Filename D:\Bob James - Angels Of Shanghai (2006) [FLAC]\08 - Melodia- A Quiet Place For Two.wav

Pre-gap length 0:00:01.35

Peak level 80.2 %
Extraction speed 6.8 X
Track quality 100.0 %
Test CRC B6AB872D
Copy CRC B6AB872D
Cannot be verified as accurate (confidence 6) [4D779831], AccurateRip returned [D353939D] (AR v2)
Copy OK

Track 9

Filename D:\Bob James - Angels Of Shanghai (2006) [FLAC]\09 - Butterfly Lovers.wav

Pre-gap length 0:00:03.64

Peak level 94.4 %
Extraction speed 8.3 X
Track quality 100.0 %
Test CRC BCAEDD43
Copy CRC BCAEDD43
Cannot be verified as accurate (confidence 6) [2131D429], AccurateRip returned [18155C93] (AR v2)
Copy OK

Track 10

Filename D:\Bob James - Angels Of Shanghai (2006) [FLAC]\10 - Dialogues- The Universal Language.wav

Pre-gap length 0:00:01.02

Peak level 94.4 %
Extraction speed 8.1 X
Track quality 100.0 %
Test CRC 655C9EB4
Copy CRC 655C9EB4
Cannot be verified as accurate (confidence 6) [3C659AAB], AccurateRip returned [C6230DC4] (AR v2)
Copy OK

Track 11

Filename D:\Bob James - Angels Of Shanghai (2006) [FLAC]\11 - Angela With Purple Bamboo.wav

Peak level 94.4 %
Extraction speed 5.7 X
Track quality 100.0 %
Test CRC A9BC6A04
Copy CRC A9BC6A04
Cannot be verified as accurate (confidence 6) [6EA92D37], AccurateRip returned [31ACAFEB] (AR v2)
Copy OK


No tracks could be verified as accurate
You may have a different pressing from the one(s) in the database

No errors occurred

End of status report

==== Log checksum 385F838DAEA34AD61B8D3C8D194BC058309835B714DA025A56A96105012AD914 ====


––––––––––––––––––––––––––––––––––––––––
Analyzed: Bob James / Angels Of Shanghai
––––––––––––––––––––––––––––––––––––––––

DR Peak RMS Duration Track
––––––––––––––––––––––––––––––––––––––––
DR9 -0.50 dB -11.88 dB 4:13 01-Celebration
DR13 -0.50 dB -15.34 dB 4:48 02-Gulangyu Island
DR11 -0.50 dB -14.77 dB 3:36 03-Endless Time
DR10 -0.50 dB -13.58 dB 4:05 04-Theme 'Onara'
DR12 -0.50 dB -14.56 dB 4:59 05-Dream With Me
DR13 -0.50 dB -17.44 dB 4:58 06-Angels' Theme: The Invention Of Love
DR12 -0.50 dB -15.44 dB 6:31 07-The Magic Paintbrush
DR12 -1.91 dB -18.83 dB 2:27 08-Melodia: A Quiet Place For Two
DR10 -0.50 dB -13.09 dB 5:48 09-Butterfly Lovers
DR12 -0.50 dB -15.41 dB 4:54 10-Dialogues: The Universal Language
DR14 -0.50 dB -17.83 dB 4:36 11-Angela With Purple Bamboo
––––––––––––––––––––––––––––––––––––––––

Number of tracks: 11
Official DR value: DR12

Samplerate: 44100 Hz
Channels: 2
Bits per sample: 16
Bitrate: 702 kbps
Codec: FLAC
================================================================================

Bob James - Angels Of Shanghai (2006) [Repost]
Bob James - Angels Of Shanghai (2006) [Repost]
Bob James - Angels Of Shanghai (2006) [Repost]