Subcategories

Bob Marley and The Wailers - Fy-Ah, Fy-Ah (3CD Box Set) (2004)

Posted By: Pisulik
Bob Marley and The Wailers - Fy-Ah, Fy-Ah (3CD Box Set) (2004)

Bob Marley and The Wailers - Fy-Ah, Fy-Ah (3CD Box Set) (2004)
EAC Rip | FLAC (Tracks) +cue, log - 1.07 GB | MP3 CBR 320 kbps - 476 MB | 03:23:06
Reggae, Ska, Roots Reggae, Rocksteady | Label: Universal | Release Year: 2004

FY-AH FY-AH (The JAD Masters 1967-1970) is the second of three box sets that will feature the recordings made by Bob Marley & The Wailers for the JAD organization. The box set chronicles the two years of musical output of Bob Marley & The Wailers from 1967 to 1970 when the band produced recordings for their own label Wail'n'Soul'm, as well as for JAD and Leslie Kong's Beverley's Records.

TRACKLIST

CD1

01. Fire Fire
02. Bend Down Low
03. Freedom Time
04. Dem A Fi Get A Beatin'
05. Play Play
06. This Train (Wail'n'Soul'm Version)
07. Funeral
08. Hypocrites
09. Mellow Mood (Wail'n'Soul'm Version)
10. Pound Get A Blow
11. Stir It Up
12. Thank You Lord
13. Nice Time (Wail'n'Soul'm Version)
14. Bus Dem Shut
15. Steppin' Razor
16. Don't Rock My Boat
17. The Lord Will Make Away Somehow
18. I'm Hurting Inside
19. Chances Are (Wail'n'Soul'm Version)
20. Lyrical Satirical I
21. Hypocrites - Version
22. Mellow Mood - Version
23. Thank You Lord - Version
24. Nice Time - Version

EAC extraction logfile from 18. July 2006, 11:37 for CD
Bob Marley & The Wailers / Fy-ah, Fy-ah (Disc 1)

Used drive : SAMSUNG CD-R/RW SW-252B Adapter: 1 ID: 0
Read mode : Secure with NO C2, accurate stream, disable cache
Read offset correction : 97
Overread into Lead-In and Lead-Out : No

Used output format : C:\Program Files\EAC\Encoders\flac.exe (User Defined Encoder)
128 kBit/s
Additional command line options : -5 -V -T "artist=%a" -T "title=%t" -T "album=%g" -T "date=%y" -T "tracknumber=%n" -T "genre=%m" %s

Other options :
Fill up missing offset samples with silence : Yes
Delete leading and trailing silent blocks : No
Installed external ASPI interface


Track 1
Filename C:\EAC Wavs\Bob Marley & The Wailers - Fy-Ah, Fy-Ah (2004) [FLAC] (Remastered 2004)\Disc 1 of 3\01 - fire fire 1-53.wav

Pre-gap length 0:00:02.00

Peak level 96.5 %
Track quality 100.0 %
Test CRC 030246B7
Copy CRC 030246B7
Copy OK

Track 2
Filename C:\EAC Wavs\Bob Marley & The Wailers - Fy-Ah, Fy-Ah (2004) [FLAC] (Remastered 2004)\Disc 1 of 3\02 - bend down low (wail'n' soul version) 2-31.wav

Peak level 98.8 %
Track quality 100.0 %
Test CRC 0E7B9250
Copy CRC 0E7B9250
Copy OK

Track 3
Filename C:\EAC Wavs\Bob Marley & The Wailers - Fy-Ah, Fy-Ah (2004) [FLAC] (Remastered 2004)\Disc 1 of 3\03 - freedom time 2-47.wav

Peak level 98.8 %
Track quality 100.0 %
Test CRC D81F5326
Copy CRC D81F5326
Copy OK

Track 4
Filename C:\EAC Wavs\Bob Marley & The Wailers - Fy-Ah, Fy-Ah (2004) [FLAC] (Remastered 2004)\Disc 1 of 3\04 - dem a fi get a beatin 1-50.wav

Peak level 98.8 %
Track quality 100.0 %
Test CRC 268087E4
Copy CRC 268087E4
Copy OK

Track 5
Filename C:\EAC Wavs\Bob Marley & The Wailers - Fy-Ah, Fy-Ah (2004) [FLAC] (Remastered 2004)\Disc 1 of 3\05 - play play 2-35.wav

Peak level 98.8 %
Track quality 100.0 %
Test CRC C1D92AA5
Copy CRC C1D92AA5
Copy OK

Track 6
Filename C:\EAC Wavs\Bob Marley & The Wailers - Fy-Ah, Fy-Ah (2004) [FLAC] (Remastered 2004)\Disc 1 of 3\06 - this train (wail'n' soul version) 3-37.wav

Peak level 92.7 %
Track quality 100.0 %
Test CRC E418BA45
Copy CRC E418BA45
Copy OK

Track 7
Filename C:\EAC Wavs\Bob Marley & The Wailers - Fy-Ah, Fy-Ah (2004) [FLAC] (Remastered 2004)\Disc 1 of 3\07 - funeral 3-21.wav

Peak level 98.8 %
Track quality 99.9 %
Test CRC 0EDFC260
Copy CRC 0EDFC260
Copy OK

Track 8
Filename C:\EAC Wavs\Bob Marley & The Wailers - Fy-Ah, Fy-Ah (2004) [FLAC] (Remastered 2004)\Disc 1 of 3\08 - hypocrites 2-43.wav

Peak level 98.8 %
Track quality 100.0 %
Test CRC BF335556
Copy CRC BF335556
Copy OK

Track 9
Filename C:\EAC Wavs\Bob Marley & The Wailers - Fy-Ah, Fy-Ah (2004) [FLAC] (Remastered 2004)\Disc 1 of 3\09 - mellow mood (wail'n' soul version) 3-29.wav

Peak level 96.0 %
Track quality 100.0 %
Test CRC CD06E3F8
Copy CRC CD06E3F8
Copy OK

Track 10
Filename C:\EAC Wavs\Bob Marley & The Wailers - Fy-Ah, Fy-Ah (2004) [FLAC] (Remastered 2004)\Disc 1 of 3\10 - pound get a blow 2-44.wav

Peak level 94.7 %
Track quality 100.0 %
Test CRC B70EB5E0
Copy CRC B70EB5E0
Copy OK

Track 11
Filename C:\EAC Wavs\Bob Marley & The Wailers - Fy-Ah, Fy-Ah (2004) [FLAC] (Remastered 2004)\Disc 1 of 3\11 - stir it up 3-08.wav

Peak level 98.8 %
Track quality 100.0 %
Test CRC 343377A6
Copy CRC 343377A6
Copy OK

Track 12
Filename C:\EAC Wavs\Bob Marley & The Wailers - Fy-Ah, Fy-Ah (2004) [FLAC] (Remastered 2004)\Disc 1 of 3\12 - thank you lord (wail'n' soul version) 3-35.wav

Peak level 98.8 %
Track quality 100.0 %
Test CRC 7E9D443D
Copy CRC 7E9D443D
Copy OK

Track 13
Filename C:\EAC Wavs\Bob Marley & The Wailers - Fy-Ah, Fy-Ah (2004) [FLAC] (Remastered 2004)\Disc 1 of 3\13 - nice time (wail'n' soul version) 2-43.wav

Peak level 98.8 %
Track quality 99.9 %
Test CRC 7F91835D
Copy CRC 7F91835D
Copy OK

Track 14
Filename C:\EAC Wavs\Bob Marley & The Wailers - Fy-Ah, Fy-Ah (2004) [FLAC] (Remastered 2004)\Disc 1 of 3\14 - bus dem shut 2-42.wav

Peak level 98.8 %
Track quality 100.0 %
Test CRC 44028BAD
Copy CRC 44028BAD
Copy OK

Track 15
Filename C:\EAC Wavs\Bob Marley & The Wailers - Fy-Ah, Fy-Ah (2004) [FLAC] (Remastered 2004)\Disc 1 of 3\15 - steppin' razor 2-27.wav

Peak level 98.8 %
Track quality 100.0 %
Test CRC 31666BBC
Copy CRC 31666BBC
Copy OK

Track 16
Filename C:\EAC Wavs\Bob Marley & The Wailers - Fy-Ah, Fy-Ah (2004) [FLAC] (Remastered 2004)\Disc 1 of 3\16 - dont rock my boat 2-33.wav

Peak level 98.8 %
Track quality 100.0 %
Test CRC 4477F185
Copy CRC 4477F185
Copy OK

Track 17
Filename C:\EAC Wavs\Bob Marley & The Wailers - Fy-Ah, Fy-Ah (2004) [FLAC] (Remastered 2004)\Disc 1 of 3\17 - the lord will make away somehow 2-14.wav

Peak level 96.6 %
Track quality 100.0 %
Test CRC 9BFFAA76
Copy CRC 9BFFAA76
Copy OK

Track 18
Filename C:\EAC Wavs\Bob Marley & The Wailers - Fy-Ah, Fy-Ah (2004) [FLAC] (Remastered 2004)\Disc 1 of 3\18 - im hurting inside 3-15.wav

Peak level 98.8 %
Track quality 100.0 %
Test CRC 8EAE249E
Copy CRC 8EAE249E
Copy OK

Track 19
Filename C:\EAC Wavs\Bob Marley & The Wailers - Fy-Ah, Fy-Ah (2004) [FLAC] (Remastered 2004)\Disc 1 of 3\19 - chances are (wail'n' soul version) 3-20.wav

Pre-gap length 0:00:00.26

Peak level 96.6 %
Track quality 100.0 %
Test CRC E9610B81
Copy CRC E9610B81
Copy OK

Track 20
Filename C:\EAC Wavs\Bob Marley & The Wailers - Fy-Ah, Fy-Ah (2004) [FLAC] (Remastered 2004)\Disc 1 of 3\20 - lyrical satirical 1 2-43.wav

Peak level 98.8 %
Track quality 100.0 %
Test CRC 5836145B
Copy CRC 5836145B
Copy OK

Track 21
Filename C:\EAC Wavs\Bob Marley & The Wailers - Fy-Ah, Fy-Ah (2004) [FLAC] (Remastered 2004)\Disc 1 of 3\21 - hypocrites version 2-41.wav

Peak level 98.8 %
Track quality 100.0 %
Test CRC FED34084
Copy CRC FED34084
Copy OK

Track 22
Filename C:\EAC Wavs\Bob Marley & The Wailers - Fy-Ah, Fy-Ah (2004) [FLAC] (Remastered 2004)\Disc 1 of 3\22 - mellow mood version 3-28.wav

Peak level 89.3 %
Track quality 100.0 %
Test CRC 5C5817EF
Copy CRC 5C5817EF
Copy OK

Track 23
Filename C:\EAC Wavs\Bob Marley & The Wailers - Fy-Ah, Fy-Ah (2004) [FLAC] (Remastered 2004)\Disc 1 of 3\23 - thank you lord version 3-41.wav

Peak level 98.8 %
Track quality 100.0 %
Test CRC 309A9CFD
Copy CRC 309A9CFD
Copy OK

Track 24
Filename C:\EAC Wavs\Bob Marley & The Wailers - Fy-Ah, Fy-Ah (2004) [FLAC] (Remastered 2004)\Disc 1 of 3\24 - nice time version 2-37.wav

Peak level 98.8 %
Track quality 100.0 %
Test CRC 97AB5B04
Copy CRC 97AB5B04
Copy OK

No errors occured


End of status report


CD2

01. Sugar Sugar
02. Soul Shakedown Party
03. Cheer Up
04. Stop The Train
05. Soul Captives
06. Caution
07. Can't You See
08. Do It Twice
09. Soon Come
10. Go Tell It To The Mountain *1
11. Back Out
12. Mr Chatterbox
13. Adam & Eve
14. Thank You Lord
15. Wisdom
16. This Train (Pounder Version)
17. Selassie Is The Chapel
18. A Little Prayer
19. Soul Shake Down Party (Version)
20. Soon Come (Version)
21. Mr Chatterbox - Version

EAC extraction logfile from 18. July 2006, 12:25 for CD
Bob Marley & The Wailers / Fy-ah, Fy-ah (Disc 2)

Used drive : SAMSUNG CD-R/RW SW-252B Adapter: 1 ID: 0
Read mode : Secure with NO C2, accurate stream, disable cache
Read offset correction : 97
Overread into Lead-In and Lead-Out : No

Used output format : C:\Program Files\EAC\Encoders\flac.exe (User Defined Encoder)
128 kBit/s
Additional command line options : -5 -V -T "artist=%a" -T "title=%t" -T "album=%g" -T "date=%y" -T "tracknumber=%n" -T "genre=%m" %s

Other options :
Fill up missing offset samples with silence : Yes
Delete leading and trailing silent blocks : No
Installed external ASPI interface


Track 1
Filename C:\EAC Wavs\Bob Marley & The Wailers - Fy-Ah, Fy-Ah (2004) [FLAC] (Remastered 2004)\Disc 2 of 3\01 - sugar sugar 2-48.wav

Pre-gap length 0:00:02.00

Peak level 97.3 %
Track quality 100.0 %
Test CRC 2374DECF
Copy CRC 2374DECF
Copy OK

Track 2
Filename C:\EAC Wavs\Bob Marley & The Wailers - Fy-Ah, Fy-Ah (2004) [FLAC] (Remastered 2004)\Disc 2 of 3\02 - soul shakedown party 3-09.wav

Peak level 98.8 %
Track quality 99.9 %
Test CRC 0F17296A
Copy CRC 0F17296A
Copy OK

Track 3
Filename C:\EAC Wavs\Bob Marley & The Wailers - Fy-Ah, Fy-Ah (2004) [FLAC] (Remastered 2004)\Disc 2 of 3\03 - cheer up 2-02.wav

Peak level 95.4 %
Track quality 100.0 %
Test CRC 996B5E06
Copy CRC 996B5E06
Copy OK

Track 4
Filename C:\EAC Wavs\Bob Marley & The Wailers - Fy-Ah, Fy-Ah (2004) [FLAC] (Remastered 2004)\Disc 2 of 3\04 - stop that train 2-19.wav

Peak level 98.8 %
Track quality 100.0 %
Test CRC 3CA8E03F
Copy CRC 3CA8E03F
Copy OK

Track 5
Filename C:\EAC Wavs\Bob Marley & The Wailers - Fy-Ah, Fy-Ah (2004) [FLAC] (Remastered 2004)\Disc 2 of 3\05 - soul captives 2-03.wav

Peak level 98.8 %
Track quality 100.0 %
Test CRC E3ED7D7C
Copy CRC E3ED7D7C
Copy OK

Track 6
Filename C:\EAC Wavs\Bob Marley & The Wailers - Fy-Ah, Fy-Ah (2004) [FLAC] (Remastered 2004)\Disc 2 of 3\06 - caution 2-43.wav

Peak level 98.8 %
Track quality 99.9 %
Test CRC B8037A95
Copy CRC B8037A95
Copy OK

Track 7
Filename C:\EAC Wavs\Bob Marley & The Wailers - Fy-Ah, Fy-Ah (2004) [FLAC] (Remastered 2004)\Disc 2 of 3\07 - cant you see 2-42.wav

Peak level 98.8 %
Track quality 100.0 %
Test CRC 8F2F934E
Copy CRC 8F2F934E
Copy OK

Track 8
Filename C:\EAC Wavs\Bob Marley & The Wailers - Fy-Ah, Fy-Ah (2004) [FLAC] (Remastered 2004)\Disc 2 of 3\08 - do it twice 2-47.wav

Peak level 98.8 %
Track quality 100.0 %
Test CRC E30DD5C2
Copy CRC E30DD5C2
Copy OK

Track 9
Filename C:\EAC Wavs\Bob Marley & The Wailers - Fy-Ah, Fy-Ah (2004) [FLAC] (Remastered 2004)\Disc 2 of 3\09 - soon come 2-23.wav

Peak level 98.8 %
Track quality 100.0 %
Test CRC 8228EBA9
Copy CRC 8228EBA9
Copy OK

Track 10
Filename C:\EAC Wavs\Bob Marley & The Wailers - Fy-Ah, Fy-Ah (2004) [FLAC] (Remastered 2004)\Disc 2 of 3\10 - go tell it to the mountain 3-14.wav

Peak level 98.8 %
Track quality 100.0 %
Test CRC 69050F7B
Copy CRC 69050F7B
Copy OK

Track 11
Filename C:\EAC Wavs\Bob Marley & The Wailers - Fy-Ah, Fy-Ah (2004) [FLAC] (Remastered 2004)\Disc 2 of 3\11 - back out 2-17.wav

Peak level 98.8 %
Track quality 100.0 %
Test CRC E34459B8
Copy CRC E34459B8
Copy OK

Track 12
Filename C:\EAC Wavs\Bob Marley & The Wailers - Fy-Ah, Fy-Ah (2004) [FLAC] (Remastered 2004)\Disc 2 of 3\12 - mr chatterbox 2-38.wav

Peak level 98.8 %
Track quality 100.0 %
Test CRC 9CD16216
Copy CRC 9CD16216
Copy OK

Track 13
Filename C:\EAC Wavs\Bob Marley & The Wailers - Fy-Ah, Fy-Ah (2004) [FLAC] (Remastered 2004)\Disc 2 of 3\13 - adam & eve 3-07.wav

Peak level 98.8 %
Track quality 100.0 %
Test CRC FFB032AE
Copy CRC FFB032AE
Copy OK

Track 14
Filename C:\EAC Wavs\Bob Marley & The Wailers - Fy-Ah, Fy-Ah (2004) [FLAC] (Remastered 2004)\Disc 2 of 3\14 - thank you lord (pounder version) 3-20.wav

Peak level 98.8 %
Track quality 100.0 %
Test CRC 34399354
Copy CRC 34399354
Copy OK

Track 15
Filename C:\EAC Wavs\Bob Marley & The Wailers - Fy-Ah, Fy-Ah (2004) [FLAC] (Remastered 2004)\Disc 2 of 3\15 - wisdom 3-13.wav

Peak level 98.8 %
Track quality 100.0 %
Test CRC E5C9D0AF
Copy CRC E5C9D0AF
Copy OK

Track 16
Filename C:\EAC Wavs\Bob Marley & The Wailers - Fy-Ah, Fy-Ah (2004) [FLAC] (Remastered 2004)\Disc 2 of 3\16 - this train (pounder version) 3-37.wav

Peak level 92.7 %
Track quality 100.0 %
Test CRC CDD0BC90
Copy CRC CDD0BC90
Copy OK

Track 17
Filename C:\EAC Wavs\Bob Marley & The Wailers - Fy-Ah, Fy-Ah (2004) [FLAC] (Remastered 2004)\Disc 2 of 3\17 - selassie is the chapel 3-52.wav

Peak level 98.8 %
Track quality 100.0 %
Test CRC E26E25C1
Copy CRC E26E25C1
Copy OK

Track 18
Filename C:\EAC Wavs\Bob Marley & The Wailers - Fy-Ah, Fy-Ah (2004) [FLAC] (Remastered 2004)\Disc 2 of 3\18 - mortimer planno - a little prayer 3-28.wav

Peak level 98.8 %
Track quality 99.9 %
Test CRC C2EAA507
Copy CRC C2EAA507
Copy OK

Track 19
Filename C:\EAC Wavs\Bob Marley & The Wailers - Fy-Ah, Fy-Ah (2004) [FLAC] (Remastered 2004)\Disc 2 of 3\19 - soul shakedown party version 3-07.wav

Peak level 98.8 %
Track quality 100.0 %
Test CRC 4CD718C6
Copy CRC 4CD718C6
Copy OK

Track 20
Filename C:\EAC Wavs\Bob Marley & The Wailers - Fy-Ah, Fy-Ah (2004) [FLAC] (Remastered 2004)\Disc 2 of 3\20 - soon come version 2-24.wav

Peak level 97.8 %
Track quality 100.0 %
Test CRC 7AAF43E1
Copy CRC 7AAF43E1
Copy OK

Track 21
Filename C:\EAC Wavs\Bob Marley & The Wailers - Fy-Ah, Fy-Ah (2004) [FLAC] (Remastered 2004)\Disc 2 of 3\21 - mr chatterbox version 3-03.wav

Peak level 98.8 %
Track quality 99.9 %
Test CRC 4ACEDBAC
Copy CRC 4ACEDBAC
Copy OK

No errors occured


End of status report


CD3

01. How Many Times
02. Touch Me
03. Bend Down Low
04. Rocking Steady
05. Soul Rebel
06. Nice Time (JAD Version)
07. Gonna Get You
08. There She Goes
09. Hammer
10. Stay With Me
11. Chances Are
12. Treat You Right
13. Stranger On The Shore
14. Fallin In & Out Of Love
15. Mellow Mood
16. Milk Shake & Potato Chips
17. Put It On
18. Splish For My Splash
19. The World Is Changing
20. What Goes Around Comes Around
21. It Hurts To Be Alone
22. What Goes Around Comes Around - Version
23. One Love, True Love (Demo)
24. How Many Times - Dub Plate Special

EAC extraction logfile from 18. July 2006, 13:54 for CD
Bob Marley & The Wailers / Fy-ah, Fy-ah (Disc 3)

Used drive : SAMSUNG CD-R/RW SW-252B Adapter: 1 ID: 0
Read mode : Secure with NO C2, accurate stream, disable cache
Read offset correction : 97
Overread into Lead-In and Lead-Out : No

Used output format : C:\Program Files\EAC\Encoders\flac.exe (User Defined Encoder)
128 kBit/s
Additional command line options : -5 -V -T "artist=%a" -T "title=%t" -T "album=%g" -T "date=%y" -T "tracknumber=%n" -T "genre=%m" %s

Other options :
Fill up missing offset samples with silence : Yes
Delete leading and trailing silent blocks : No
Installed external ASPI interface


Track 1
Filename C:\EAC Wavs\Bob Marley & The Wailers - Fy-Ah, Fy-Ah (2004) [FLAC] (Remastered 2004)\Disc 3 of 3\01 - How Many Times.wav

Pre-gap length 0:00:02.00

Peak level 98.8 %
Track quality 100.0 %
Test CRC 05BACADF
Copy CRC 05BACADF
Copy OK

Track 2
Filename C:\EAC Wavs\Bob Marley & The Wailers - Fy-Ah, Fy-Ah (2004) [FLAC] (Remastered 2004)\Disc 3 of 3\02 - Touch Me.wav

Peak level 98.8 %
Track quality 100.0 %
Test CRC 47D2DC06
Copy CRC 47D2DC06
Copy OK

Track 3
Filename C:\EAC Wavs\Bob Marley & The Wailers - Fy-Ah, Fy-Ah (2004) [FLAC] (Remastered 2004)\Disc 3 of 3\03 - Bend Down Low (Jad Version).wav

Peak level 98.8 %
Track quality 100.0 %
Test CRC F7A3A71D
Copy CRC F7A3A71D
Copy OK

Track 4
Filename C:\EAC Wavs\Bob Marley & The Wailers - Fy-Ah, Fy-Ah (2004) [FLAC] (Remastered 2004)\Disc 3 of 3\04 - Rocking Steady.wav

Peak level 88.9 %
Track quality 100.0 %
Test CRC FA6917BA
Copy CRC FA6917BA
Copy OK

Track 5
Filename C:\EAC Wavs\Bob Marley & The Wailers - Fy-Ah, Fy-Ah (2004) [FLAC] (Remastered 2004)\Disc 3 of 3\05 - Soul Rebel.wav

Peak level 98.8 %
Track quality 100.0 %
Test CRC C4A90C8E
Copy CRC C4A90C8E
Copy OK

Track 6
Filename C:\EAC Wavs\Bob Marley & The Wailers - Fy-Ah, Fy-Ah (2004) [FLAC] (Remastered 2004)\Disc 3 of 3\06 - Nice Time (Jad Version).wav

Peak level 98.8 %
Track quality 100.0 %
Test CRC 85101AE9
Copy CRC 85101AE9
Copy OK

Track 7
Filename C:\EAC Wavs\Bob Marley & The Wailers - Fy-Ah, Fy-Ah (2004) [FLAC] (Remastered 2004)\Disc 3 of 3\07 - Gonna Get You.wav

Peak level 98.8 %
Track quality 100.0 %
Test CRC 86EF597F
Copy CRC 86EF597F
Copy OK

Track 8
Filename C:\EAC Wavs\Bob Marley & The Wailers - Fy-Ah, Fy-Ah (2004) [FLAC] (Remastered 2004)\Disc 3 of 3\08 - There She Goes.wav

Peak level 98.8 %
Track quality 100.0 %
Test CRC 0B418284
Copy CRC 0B418284
Copy OK

Track 9
Filename C:\EAC Wavs\Bob Marley & The Wailers - Fy-Ah, Fy-Ah (2004) [FLAC] (Remastered 2004)\Disc 3 of 3\09 - Hammer.wav

Peak level 98.8 %
Track quality 100.0 %
Test CRC C49989A5
Copy CRC C49989A5
Copy OK

Track 10
Filename C:\EAC Wavs\Bob Marley & The Wailers - Fy-Ah, Fy-Ah (2004) [FLAC] (Remastered 2004)\Disc 3 of 3\10 - Stay With Me.wav

Peak level 98.8 %
Track quality 100.0 %
Test CRC E1918C42
Copy CRC E1918C42
Copy OK

Track 11
Filename C:\EAC Wavs\Bob Marley & The Wailers - Fy-Ah, Fy-Ah (2004) [FLAC] (Remastered 2004)\Disc 3 of 3\11 - Chances Are (Jad Version).wav

Peak level 98.8 %
Track quality 99.9 %
Test CRC C7061F67
Copy CRC C7061F67
Copy OK

Track 12
Filename C:\EAC Wavs\Bob Marley & The Wailers - Fy-Ah, Fy-Ah (2004) [FLAC] (Remastered 2004)\Disc 3 of 3\12 - Treat You Right.wav

Peak level 98.8 %
Track quality 100.0 %
Test CRC 57F082F1
Copy CRC 57F082F1
Copy OK

Track 13
Filename C:\EAC Wavs\Bob Marley & The Wailers - Fy-Ah, Fy-Ah (2004) [FLAC] (Remastered 2004)\Disc 3 of 3\13 - Stranger On The Shore.wav

Peak level 98.8 %
Track quality 100.0 %
Test CRC D9650BBB
Copy CRC D9650BBB
Copy OK

Track 14
Filename C:\EAC Wavs\Bob Marley & The Wailers - Fy-Ah, Fy-Ah (2004) [FLAC] (Remastered 2004)\Disc 3 of 3\14 - Fallin' In & Out Of Love.wav

Peak level 98.8 %
Track quality 100.0 %
Test CRC 02FC0071
Copy CRC 02FC0071
Copy OK

Track 15
Filename C:\EAC Wavs\Bob Marley & The Wailers - Fy-Ah, Fy-Ah (2004) [FLAC] (Remastered 2004)\Disc 3 of 3\15 - Mellow Mood (Jad Version).wav

Peak level 96.5 %
Track quality 100.0 %
Test CRC 89303E9B
Copy CRC 89303E9B
Copy OK

Track 16
Filename C:\EAC Wavs\Bob Marley & The Wailers - Fy-Ah, Fy-Ah (2004) [FLAC] (Remastered 2004)\Disc 3 of 3\16 - Milk Shake & Potato Ships.wav

Peak level 98.8 %
Track quality 100.0 %
Test CRC B1271D8D
Copy CRC B1271D8D
Copy OK

Track 17
Filename C:\EAC Wavs\Bob Marley & The Wailers - Fy-Ah, Fy-Ah (2004) [FLAC] (Remastered 2004)\Disc 3 of 3\17 - Put It On.wav

Peak level 98.8 %
Track quality 100.0 %
Test CRC 9D1A5B12
Copy CRC 9D1A5B12
Copy OK

Track 18
Filename C:\EAC Wavs\Bob Marley & The Wailers - Fy-Ah, Fy-Ah (2004) [FLAC] (Remastered 2004)\Disc 3 of 3\18 - Splish For My Splash.wav

Peak level 98.8 %
Track quality 100.0 %
Test CRC DFB1F1DB
Copy CRC DFB1F1DB
Copy OK

Track 19
Filename C:\EAC Wavs\Bob Marley & The Wailers - Fy-Ah, Fy-Ah (2004) [FLAC] (Remastered 2004)\Disc 3 of 3\19 - The World Is Changing.wav

Peak level 98.8 %
Track quality 100.0 %
Test CRC AAB974CE
Copy CRC AAB974CE
Copy OK

Track 20
Filename C:\EAC Wavs\Bob Marley & The Wailers - Fy-Ah, Fy-Ah (2004) [FLAC] (Remastered 2004)\Disc 3 of 3\20 - What Goes Around Comes Around.wav

Peak level 98.8 %
Track quality 99.9 %
Test CRC DA1D7C7E
Copy CRC DA1D7C7E
Copy OK

Track 21
Filename C:\EAC Wavs\Bob Marley & The Wailers - Fy-Ah, Fy-Ah (2004) [FLAC] (Remastered 2004)\Disc 3 of 3\21 - It Hurts To Be Alone.wav

Pre-gap length 0:00:00.26

Peak level 98.8 %
Track quality 100.0 %
Test CRC E6BEFC1F
Copy CRC E6BEFC1F
Copy OK

Track 22
Filename C:\EAC Wavs\Bob Marley & The Wailers - Fy-Ah, Fy-Ah (2004) [FLAC] (Remastered 2004)\Disc 3 of 3\22 - What Goes Around Comes Around - Version.wav

Peak level 98.8 %
Track quality 100.0 %
Test CRC FC609007
Copy CRC FC609007
Copy OK

Track 23
Filename C:\EAC Wavs\Bob Marley & The Wailers - Fy-Ah, Fy-Ah (2004) [FLAC] (Remastered 2004)\Disc 3 of 3\23 - One Love True Love (Demo).wav

Peak level 98.8 %
Track quality 100.0 %
Test CRC 11C46531
Copy CRC 11C46531
Copy OK

Track 24
Filename C:\EAC Wavs\Bob Marley & The Wailers - Fy-Ah, Fy-Ah (2004) [FLAC] (Remastered 2004)\Disc 3 of 3\24 - How Many Times - Dubplate Special.wav

Peak level 98.8 %
Track quality 100.0 %
Test CRC DBD6E57B
Copy CRC DBD6E57B
Copy OK

No errors occured


End of status report


All thanks go to the original releaser