Subcategories

Bobby Kimball - We're Not In Kansas Anymore (2016)

Posted By: Andi_Deris
Bobby Kimball - We're Not In Kansas Anymore (2016)

Bobby Kimball - We're Not In Kansas Anymore (2016)
EAC Rip | FLAC: Image+Cue+Log | 287 Mb | MP3 CBR 320 kbps | 95 Mb | Scans | Time: 39:24
inakustik | INAK 9148 CD
Classic Rock, Melodic Rock, Funk

Bobby Kimball is an iconic pop/rock vocalist best known as the original lead singer of the band Toto. It was Kimball’s soaring tenor lead vocals on those legendary hits including Rosanna, Hold the line, Africa, and I'll Supply the Love that made him so recognizable. He won six Grammy awards from the album Toto IV.

In 2016, for We're Not in Kansas Anymore Kimball and Zaika team up again, this time with some of the players from All I Ever Needed, plus a new breed of multi-talented musicians and vocalists, including David Barnett who co-wrote all the songs, and co-produced on the project. The album also features drummer Joel Taylor, keyboardist Mitchel Forman, Bassist Brian Bromberg (who shares co-production credit), keyboardist Derek Sherinian, vocalist Tony Wilcox, guitarist Adam Schwem, guitarist & vocalist Arnie Vilches, vocalist Jonny Zywiciel, bassists Dwayne Heggar, David Deshazo, Nate Robinson, background vocalists Claire Wilcox, Dexter Espinoza, Addison Kelly, Micah Blalock, pianist Steve Fawcett, horn section, Jim Foster, David Butler, Willie Roy, Thomas Ebby, Carl Lundgren, Cellist Sarah O'Brien, and acoustic guitarist Tom McCauley (who mixed the record).

Kimball/Zaika/Barnett formed the production company, Future Memories Music, to launch the release. We're Not in Kansas Anymore was written by Zaika, Barnett, Kimball, and produced by Zaika, Barnett, and Bromberg.

Bobby Kimball still remains unmistakable – melodious rock, polyphonic arrangements, a great sound. His creative spirit and distinctive voice are inimitable.

Bobby Kimball - We're Not In Kansas Anymore (2016)




Track Listing

01. Too Far Behind (03:39)
02. On My Feet (03:49)
03. Hey It's Me (02:53)
04. One Day (03:59)
05. Flatline (03:28)
06. Met Her For (02:55)
07. Hold On (02:47)
08. Scam (04:44)
09. You'll Be With Me (04:20)
10. Some They Do (03:32)
11. You're Not Alone (03:19)

Produced by John Zaika, Dave Barnett & Brian Bromberg

Musicians

• Bobby Kimball - Lead Vocals
• Dave Barnett - Guitars & Background Vocals
• Adam Schwem - Lead Guitar
• John Zaika - Keyboards
• Brian Bromberg - Bass
• Joel Taylor - Drums

Exact Audio Copy V1.1 from 23. June 2015

EAC extraction logfile from 20. November 2016, 15:39

Bobby Kimball / We're Not In Kansas Anymore

Used drive : Pioneer BDR-209DBK Adapter: 0 ID: 0

Read mode : Secure
Utilize accurate stream : Yes
Defeat audio cache : Yes
Make use of C2 pointers : No

Read offset correction : 6
Overread into Lead-In and Lead-Out : No
Fill up missing offset samples with silence : Yes
Delete leading and trailing silent blocks : No
Null samples used in CRC calculations : Yes
Used interface : Installed external ASPI interface

Used output format : Internal WAV Routines
Sample format : 44.100 Hz; 16 Bit; Stereo


TOC of the extracted CD

Track | Start | Length | Start sector | End sector
––––––––––––––––––––––––––––-
1 | 0:00.00 | 3:38.63 | 0 | 16412
2 | 3:38.63 | 3:48.33 | 16413 | 33545
3 | 7:27.21 | 2:52.33 | 33546 | 46478
4 | 10:19.54 | 3:59.00 | 46479 | 64403
5 | 14:18.54 | 3:28.00 | 64404 | 80003
6 | 17:46.54 | 2:54.47 | 80004 | 93100
7 | 20:41.26 | 2:46.51 | 93101 | 105601
8 | 23:28.02 | 4:44.15 | 105602 | 126916
9 | 28:12.17 | 4:20.14 | 126917 | 146430
10 | 32:32.31 | 3:31.61 | 146431 | 162316
11 | 36:04.17 | 3:19.00 | 162317 | 177241


Range status and errors

Selected range

Filename H:\Spotnet\Bobby Kimball - We're Not In Kansas (EAC)\Bobby Kimball - We're Not In Kansas Anymore.wav

Peak level 97.7 %
Extraction speed 6.8 X
Range quality 100.0 %
Test CRC 269067D2
Copy CRC 269067D2
Copy OK

No errors occurred


AccurateRip summary

Track 1 not present in database
Track 2 not present in database
Track 3 not present in database
Track 4 not present in database
Track 5 not present in database
Track 6 not present in database
Track 7 not present in database
Track 8 not present in database
Track 9 not present in database
Track 10 not present in database
Track 11 not present in database

None of the tracks are present in the AccurateRip database

End of status report


Many thanks to the original uploader

–––––––––
Nitroflare