Subcategories

Bobby Lyle Trio - Night Breeze (1992) {Evidence}

Posted By: tiburon
Bobby Lyle Trio - Night Breeze (1992) {Evidence}

Bobby Lyle Trio - Night Breeze (1992) {Evidence}
EAC 0.99pb4 | FLAC Image level 8 | Cue+Log | Full Scans 300dpi | 248MB + 5% Recovery
MP3 CBR 320 Kbps | 112MB + 5% Recovery
Genre: Jazz, Post-Bop

Although he is better known for fusion and pop sessions, pianist Bobby Lyle is a competent instrumentalist on mainstream and bebop fare. He handles the melodies well and improvises effectively throughout this '85 set. While he will never be McCoy Tyner or Herbie Hancock, Lyle demonstrates a more varied approach and harmonic creativity than on any of his more commercial dates. But this date's instrumental star is bassist Stanley Clarke; whether it is his rippling accompaniment or his full, huge solos, Clarke justifies his reputation.
Track List
01. Spain 8:15
02. A Child Is Born 7:18
03. The Shadow of Your Smile 5:18
04. Night Breeze 6:44
05. Naima 5:14
06. Night Rider 8:45
07. Poinciana 5:29

musicians
Bobby Lyle - piano
Stanley Clarke - acoustic and electric bass
Alex Acuna - drums

special guest:
Lenny Castro - percussion on 1, 6, 7

Produced by Bobby Lyle and Masato Morita


Exact Audio Copy V0.99 prebeta 4 from 23. January 2008

EAC extraction logfile from 1. June 2009, 18:42

Bobby Lyle Trio / Night Breeze

Used drive : HL-DT-STRW/DVD GCC-4242N Adapter: 1 ID: 0

Read mode : Secure
Utilize accurate stream : Yes
Defeat audio cache : Yes
Make use of C2 pointers : No

Read offset correction : 102
Overread into Lead-In and Lead-Out : No
Fill up missing offset samples with silence : Yes
Delete leading and trailing silent blocks : No
Null samples used in CRC calculations : Yes
Used interface : Native Win32 interface for Win NT & 2000

Used output format : Internal WAV Routines
Sample format : 44.100 Hz; 16 Bit; Stereo


TOC of the extracted CD

Track | Start | Length | Start sector | End sector
––––––––––––––––––––––––––––-
1 | 0:00.00 | 8:18.60 | 0 | 37409
2 | 8:18.60 | 7:21.15 | 37410 | 70499
3 | 15:40.00 | 5:21.45 | 70500 | 94619
4 | 21:01.45 | 6:44.50 | 94620 | 124969
5 | 27:46.20 | 5:16.25 | 124970 | 148694
6 | 33:02.45 | 8:48.70 | 148695 | 188364
7 | 41:51.40 | 5:29.22 | 188365 | 213061


Range status and errors

Selected range

Filename C:\_\EAC_Out\Out\Bobby Lyle Trio - Night Breeze\Bobby Lyle Trio - Night Breeze.wav

Peak level 95.8 %
Range quality 99.9 %
Copy CRC 5681BB4A
Copy OK

No errors occurred


AccurateRip summary

Track 1 not present in database
Track 2 not present in database
Track 3 not present in database
Track 4 not present in database
Track 5 not present in database
Track 6 not present in database
Track 7 not present in database

None of the tracks are present in the AccurateRip database

End of status report


foobar2000 1.3.13 / Dynamic Range Meter 1.1.1
log date: 2018-06-18 19:35:07

––––––––––––––––––––––––––––––––––––––––
Analyzed: Bobby Lyle Trio / Night Breeze
––––––––––––––––––––––––––––––––––––––––

DR Peak RMS Duration Track
––––––––––––––––––––––––––––––––––––––––
DR19 -0.37 dB -22.25 dB 8:19 01-Spain
DR16 -6.29 dB -28.66 dB 7:21 02-A Child is Born
DR16 -4.70 dB -24.15 dB 5:22 03-The Shadow of Your Smile
DR16 -2.35 dB -22.94 dB 6:45 04-Night Breeze
DR14 -5.21 dB -26.46 dB 5:16 05-Naima
DR18 -0.62 dB -23.73 dB 8:49 06-Night Rider
DR19 -0.52 dB -25.17 dB 5:29 07-Poinciana
––––––––––––––––––––––––––––––––––––––––

Number of tracks: 7
Official DR value: DR17

Samplerate: 44100 Hz
Channels: 2
Bits per sample: 16
Bitrate: 719 kbps
Codec: FLAC
================================================================================

Bobby Lyle Trio - Night Breeze (1992) {Evidence}
Bobby Lyle Trio - Night Breeze (1992) {Evidence}
Bobby Lyle Trio - Night Breeze (1992) {Evidence}


Thanks to the original ripper