Subcategories

Bobby McFerrin - Jazz Masters (1997)

Posted By: popsakov
Bobby McFerrin - Jazz Masters (1997)

Bobby McFerrin - Jazz Masters (1997)
EAC Rip | FLAC (Img) + Cue + Log ~ 213 Mb | MP3 CBR320 ~ 104 Mb
Scans (PNG, 400 dpi) ~ 49 Mb | RAR 5% Recovery
Jazz, Vocal, Soul-Jazz | EMI Jazz / GALA Records #7243 477732 2 8

This album was originally released in 1988 as "Bobby McFerrin - Don't Worry, Be Happy".

Vocal virtuoso Bobby McFerrin ranks among the most distinctive and original singers in contemporary music – equally adept in jazz, pop, and classical settings, his octave-jumping trademark style, with its rhythmic inhalations and stop-on-a-dime shifts from falsetto to deep bass notes often sounds like the work of at least two or three singers at once, while at the same time sounding quite unlike anyone else.

For the casual pop music fan, Bobby McFerrin is the one-hit wonder who snapped, popped, and sang himself to 15 minutes of fame with 1986's "Don't Worry, Be Happy." For jazz aficionados, he is a gifted composer and vocal virtuoso, capable of precocious vocal transitions and gorgeous intonations. Don't Worry, Be Happy, a 1988 EMI release, is an attempt to consolidate the breadth of McFerrin's talent onto one album. Predictably, it starts off with the title track, a song that will probably remain prevalent in pop culture as long as humans speak English and play music. For the most part, though, the pop stops there. On a couple of cuts, he teams up with jazz pianist Chick Corea. The duo works well together, producing an ambient, mostly piano version of "Even for Me" and a romanticized rendition of "‘Round Midnight." Jon Hendricks and Manhattan Transfer help out with Dizzy Gillespie's "Another Night in Tunisia," for which McFerrin won a Grammy in 1985. Thankfully, the album does well to give testament to the greatest example of McFerrin's genius: his five-octave range and glowing appreciation for his craft. On "Manana Iguana," he jumps all over the score, making it sound as if it were easy to move from treble to bass clef in a single note. On "I Love Music," he toys with a live concert audience, egging them on to play along with him in his step-by-step vocal maneuvering. The sequencing of songs is questionable, though, making for a jarring listen at times. It starts off with pop, moves into jazz, goes back to energetic simplicity, and then retreats to slow jazz. Nonetheless, the songs themselves are still fantastic. A better Bobby McFerrin Greatest Hits could be made, but Don't Worry, Be Happy still serves as rewarding introduction to an absolute musical treasure.
~ All Music

***************

Bobby McFerrin - Jazz Masters (1997)

Track List:

01. Don't Worry, Be Happy [4:52]
02. Turtle Shoes [3:34]
03. Another Night In Tunisia [4:14]
04. Even For Me [6:37]
05. Manana Iguana [2:23]
06. Drive [3:57]
07. I Hear Music [3:55]
08. Walkin' [5:39]
09. 'Round Midnight [7:57]

Personnel:

Chick Corea – performer on "Even for Me" and "'Round Midnight"
Jon Hendricks – performer on "Another Night in Tunisia"
The Manhattan Transfer – performer on "Another Night in Tunisia"
Bobby McFerrin – percussion, vocals

Exact Audio Copy V1.3 from 2. September 2016

Отчёт EAC об извлечении, выполненном 10. октября 2016, 22:51

Bobby McFerrin / Jazz Masters

Дисковод: HL-DT-STDVDRAM GT70N Adapter: 1 ID: 0

Режим чтения : Достоверность
Использование точного потока : Да
Отключение кэша аудио : Да
Использование указателей C2 : Нет

Коррекция смещения при чтении : 103
Способность читать области Lead-in и Lead-out : Нет
Заполнение пропущенных сэмплов тишиной : Да
Удаление блоков с тишиной в начале и конце : Нет
При вычислениях CRC использовались нулевые сэмплы : Да
Интерфейс : Встроенный Win32-интерфейс для Win NT/2000

Выходной формат : Пользовательский кодировщик
Выбранный битрейт : 1024 kBit/s
Качество : Высокий
Добавление ID3-тега : Нет
Утилита сжатия : C:\Program Files (x86)\Exact Audio Copy\FLAC\FLAC.EXE
Дополнительные параметры : -6 -V -T "ARTIST=%artist%" -T "TITLE=%title%" -T "ALBUM=%albumtitle%" -T "DATE=%year%" -T "TRACKNUMBER=%tracknr%" -T "GENRE=%genre%" -T "COMMENT=%comment%" -T "BAND=%albuminterpret%" -T "ALBUMARTIST=%albuminterpret%" -T "COMPOSER=%composer%" %haslyrics%–tag-from-file=LYRICS="%lyricsfile%"%haslyrics% -T "DISCNUMBER=%cdnumber%" -T "TOTALDISCS=%totalcds%" -T "TOTALTRACKS=%numtracks%" %hascover%–picture="%coverfile%"%hascover% %source% -o %dest%


TOC извлечённого CD

Трек | Старт | Длительность | Начальный сектор | Конечный сектор
––––––––––––––––––––––––––––––––––-
1 | 0:00.00 | 4:52.30 | 0 | 21929
2 | 4:52.30 | 3:34.35 | 21930 | 38014
3 | 8:26.65 | 4:14.00 | 38015 | 57064
4 | 12:40.65 | 6:37.15 | 57065 | 86854
5 | 19:18.05 | 2:23.07 | 86855 | 97586
6 | 21:41.12 | 3:57.10 | 97587 | 115371
7 | 25:38.22 | 3:54.70 | 115372 | 132991
8 | 29:33.17 | 5:38.70 | 132992 | 158411
9 | 35:12.12 | 7:57.08 | 158412 | 194194


Характеристики диапазона извлечения и сообщения об ошибках

Выбранный диапазон

Имя файла C:\Users\ОЛЕГ\Desktop\Bobby McFerrin-Jazz Masters\Bobby McFerrin - Jazz Masters.wav

Пиковый уровень 91.8 %
Скорость извлечения 4.4 X
Качество диапазона 99.9 %
CRC копии B7396DEB
Копирование… OK

Ошибок не произошло


AccurateRip: сводка

Трек 1 точность не определена (достоверность 22) [CDDE3ACD], AccurateRip вернул [B2E1B116] (AR v2)
Трек 2 точность не определена (достоверность 22) [BF9194F7], AccurateRip вернул [C6A5168F] (AR v2)
Трек 3 точность не определена (достоверность 22) [C4BF5CE2], AccurateRip вернул [232F3F84] (AR v2)
Трек 4 точность не определена (достоверность 22) [37D09FCE], AccurateRip вернул [E5600033] (AR v2)
Трек 5 точность не определена (достоверность 22) [6990DE09], AccurateRip вернул [F1E9A2C4] (AR v2)
Трек 6 точность не определена (достоверность 22) [149A71BC], AccurateRip вернул [A2709AA9] (AR v2)
Трек 7 точность не определена (достоверность 22) [6DEA127A], AccurateRip вернул [12362009] (AR v2)
Трек 8 точность не определена (достоверность 22) [57C64786], AccurateRip вернул [64DA60DF] (AR v2)
Трек 9 точность не определена (достоверность 21) [5BE618FE], AccurateRip вернул [EC7E648F] (AR v2)

Ни один трек не прошёл проверки на точность
В вашей базе может быть иной вариант штамповки диска

Конец отчёта

–– CUETools DB Plugin V2.1.6

[CTDB TOCID: hgRmASM3g4I7BT10c44A8tuzavs-] found
Submit result: hgRmASM3g4I7BT10c44A8tuzavs- has been confirmed
Track | CTDB Status
1 | (39/40) Accurately ripped
2 | (40/40) Accurately ripped
3 | (40/40) Accurately ripped
4 | (40/40) Accurately ripped
5 | (40/40) Accurately ripped
6 | (40/40) Accurately ripped
7 | (40/40) Accurately ripped
8 | (40/40) Accurately ripped
9 | (40/40) Accurately ripped


==== Контрольная сумма отчёта A87D96FE57E31850FE7E22B06E476061D54424E7A10D8DF036DCDA204BC46423 ====

foobar2000 1.2.6 / Dynamic Range Meter 1.1.1
log date: 2016-10-13 20:17:48

––––––––––––––––––––––––––––––––––––––––
Analyzed: Bobby McFerrin , / Jazz Masters
––––––––––––––––––––––––––––––––––––––––

DR Peak RMS Duration Track
––––––––––––––––––––––––––––––––––––––––
DR17 -0.75 dB -22.22 dB 4:52 01-Don't Worry, Be Happy
DR13 -3.39 dB -19.06 dB 3:34 02-Turtle Shoes
DR15 -1.15 dB -21.01 dB 2:23 05-Manana Iguana
DR17 -0.74 dB -20.48 dB 3:57 06-Drive
DR13 -2.15 dB -18.79 dB 3:55 07-I Hear Music
DR15 -2.15 dB -20.18 dB 5:39 08-Walkin'
––––––––––––––––––––––––––––––––––––––––

Number of tracks: 6
Official DR value: DR15

Samplerate: 44100 Hz
Channels: 2
Bits per sample: 16
Bitrate: 652 kbps
Codec: FLAC
================================================================================

––––––––––––––––––––––––––––––––––––––––
Analyzed: Bobby McFerrin With Chick Corea , / Jazz Masters
––––––––––––––––––––––––––––––––––––––––

DR Peak RMS Duration Track
––––––––––––––––––––––––––––––––––––––––
DR14 -1.57 dB -22.02 dB 6:37 04-Even For Me
DR17 -1.32 dB -24.22 dB 7:57 09-'Round Midnight
––––––––––––––––––––––––––––––––––––––––

Number of tracks: 2
Official DR value: DR15

Samplerate: 44100 Hz
Channels: 2
Bits per sample: 16
Bitrate: 652 kbps
Codec: FLAC
================================================================================

––––––––––––––––––––––––––––––––––––––––
Statistics for: 03-Another Night In Tunisia
Number of samples: 11201400
Duration: 4:14
––––––––––––––––––––––––––––––––––––––––

Left Right

Peak Value: -1.98 dB –- -3.99 dB
Avg RMS: -19.00 dB –- -20.28 dB
DR channel: 12.92 dB –- 13.41 dB
––––––––––––––––––––––––––––––––––––––––

Official DR Value: DR13

Samplerate: 44100 Hz
Channels: 2
Bits per sample: 16
Bitrate: 652 kbps
Codec: FLAC
================================================================================

[CUETools log; Date: 13.10.2016 20:17:47; Version: 2.1.5]
[CTDB TOCID: hgRmASM3g4I7BT10c44A8tuzavs-] found.
Track | CTDB Status
1 | (40/41) Accurately ripped
2 | (41/41) Accurately ripped
3 | (41/41) Accurately ripped
4 | (41/41) Accurately ripped
5 | (41/41) Accurately ripped
6 | (41/41) Accurately ripped
7 | (41/41) Accurately ripped
8 | (41/41) Accurately ripped
9 | (41/41) Accurately ripped
[AccurateRip ID: 000dc517-006565a9-620a1d09] found.
Track [ CRC | V2 ] Status
01 [04b3d087|cdde3acd] (00+00/43) No match
02 [de582287|bf9194f7] (00+00/43) No match
03 [f3a8ccbb|c4bf5ce2] (00+00/43) No match
04 [772b54d9|37d09fce] (00+00/43) No match
05 [e36f0e29|6990de09] (00+00/43) No match
06 [f9cd6b33|149a71bc] (00+00/43) No match
07 [ebdb2961|6dea127a] (00+00/43) No match
08 [fd54d3a5|57c64786] (00+00/43) No match
09 [a2566866|5be618fe] (00+00/42) No match
Offsetted by 664:
01 [f1cfabf7] (16/43) Accurately ripped
02 [9e6dad7f] (16/43) Accurately ripped
03 [314db533] (16/43) Accurately ripped
04 [7fdc49d9] (16/43) Accurately ripped
05 [e85d14b1] (16/43) Accurately ripped
06 [4e6953eb] (16/43) Accurately ripped
07 [634a39f9] (16/43) Accurately ripped
08 [33c5cf65] (16/43) Accurately ripped
09 [d16e54ce] (16/42) Accurately ripped
Offsetted by 658:
01 [ea45655b] (00/43) No match (V2 was not tested)
02 [6da815e1] (00/43) No match (V2 was not tested)
03 [13720035] (00/43) No match (V2 was not tested)
04 [2bbbd899] (00/43) No match (V2 was not tested)
05 [428931ef] (00/43) No match (V2 was not tested)
06 [e02725dd] (00/43) No match (V2 was not tested)
07 [12c9fe73] (00/43) No match (V2 was not tested)
08 [bafdd975] (00/43) No match (V2 was not tested)
09 [b2297d14] (00/42) No match (V2 was not tested)

Track Peak [ CRC32 ] [W/O NULL] [ LOG ]
– 91,8 [B7396DEB] [6B083962] CRC32
01 91,7 [E033A6EE] [37D2C83A]
02 67,6 [9DEF873D] [B78935D7]
03 79,6 [7C50524A] [7C26AB67]
04 83,4 [36A286FE] [0F098C68]
05 87,5 [1EDDFC98] [7391C7CA]
06 91,8 [1496E69D] [202A3353]
07 78,0 [5C3EB612] [1366C39C]
08 78,0 [EDA1BDA9] [8827A615]
09 85,9 [5E40D9A5] [970971E7]

Bobby McFerrin - Jazz Masters (1997)

Bobby McFerrin - Jazz Masters (1997)

All thanks go to Olegator

> Visit my blog <

Download: