Subcategories

Bobby McFerrin - Spontaneous Inventions (1986) {Blue Note}

Posted By: tiburon
Bobby McFerrin - Spontaneous Inventions (1986) {Blue Note}

Bobby McFerrin - Spontaneous Inventions (1986) {Blue Note}
EAC 0.95b4 | FLAC tracks level 8 | Cue+Log+M3U | Full Scans 300dpi | 245MB + 5% Recovery
Genre: Vocal Jazz

Bobby McFerrin is heard in prime form throughout this date, which was the follow-up to his classic The Voice. A few of the numbers are taken unaccompanied, and these include memorable renditions of "Thinkin' About Your Body," "I Hear Music," and "Mañana Iguana." Pianist Herbie Hancock duets with McFerrin on "Turtle Shoes"; "Another Night in Tunisia" (taken from the Manhattan Transfer's Vocalese album) features McFerrin with the vocal quartet and Jon Hendricks; soprano saxophonist Wayne Shorter interacts with the vocalist on "Walkin'"; and an eccentric "Beverly Hills Blues" has "assistance" from comedian Robin Williams. A continually intriguing release with plenty of wit from the innovative singer.
Track List
01. Thinkin' About Your Body [For Debs] (McFerrin ) 3:32
02. Turtle Shoes (Hancock, McFerrin ) 3:35
03. From Me to You (Lennon, McCartney ) 2:19
04. There Ya Go (McFerrin ) 5:38
05. Cara Mia (McFerrin ) 2:30
06. Another Night in Tunisia (Gillespie, Hendricks … ) 4:12
07. Opportunity (Armatrading ) 3:53
08. Walkin' (Carpenter ) 5:39
09. I Hear Music (Lane, Loesser ) 3:54
10. Beverly Hills Blues (McFerrin, Williams ) 3:52
11. Manana Iguana (McFerrin ) 2:20

musicians
Bobby McFerrin - lead vocals, bass, percussion
Herbie Hancock - piano
Wayne Shorter - soprano sax
The Manhattan Transfer - vocals
Robin Williams - vocals
Jon Hendricks - vocals

Produced by Bobby McFerrin and Linda Goldstein


EAC extraction logfile from 16. March 2007, 12:20 for CD
Bobby McFerrin / Spontaneous Inventions

Used drive : _NEC DVD_RW ND-3550A Adapter: 0 ID: 1
Read mode : Secure with NO C2, accurate stream, disable cache
Read offset correction : 48
Overread into Lead-In and Lead-Out : No

Used output format : C:\Program Files\FLAC\flac.exe (User Defined Encoder)
128 kBit/s
Additional command line options : -V -8 -T "artist=%a" -T "title=%t" -T "album=%g" -T "date=%y" -T "tracknumber=%n" -T "genre=%m" %s

Other options :
Fill up missing offset samples with silence : Yes
Delete leading and trailing silent blocks : No
Installed external ASPI interface


Track 1
Filename D:\music\rip\Bobby McFerrin - Spontaneous Inventions (1986) [FLAC]\01 - Thinkin' About Your Body.wav

Pre-gap length 0:00:02.00

Peak level 100.0 %
Track quality 100.0 %
Test CRC 1892F521
Copy CRC 1892F521
Copy OK

Track 2
Filename D:\music\rip\Bobby McFerrin - Spontaneous Inventions (1986) [FLAC]\02 - Turtle Shoes.wav

Peak level 100.0 %
Track quality 100.0 %
Test CRC 556A656A
Copy CRC 556A656A
Copy OK

Track 3
Filename D:\music\rip\Bobby McFerrin - Spontaneous Inventions (1986) [FLAC]\03 - From Me to You.wav

Pre-gap length 0:00:01.00

Peak level 74.4 %
Track quality 100.0 %
Test CRC 6CDD231B
Copy CRC 6CDD231B
Copy OK

Track 4
Filename D:\music\rip\Bobby McFerrin - Spontaneous Inventions (1986) [FLAC]\04 - There Ya Go.wav

Peak level 100.0 %
Track quality 100.0 %
Test CRC 3AFC073B
Copy CRC 3AFC073B
Copy OK

Track 5
Filename D:\music\rip\Bobby McFerrin - Spontaneous Inventions (1986) [FLAC]\05 - Cara Mia.wav

Pre-gap length 0:00:01.00

Peak level 99.9 %
Track quality 100.0 %
Test CRC ABBDEAE4
Copy CRC ABBDEAE4
Copy OK

Track 6
Filename D:\music\rip\Bobby McFerrin - Spontaneous Inventions (1986) [FLAC]\06 - Another Night in Tunisia.wav

Pre-gap length 0:00:01.29

Peak level 90.8 %
Track quality 100.0 %
Test CRC 2817E7FF
Copy CRC 2817E7FF
Copy OK

Track 7
Filename D:\music\rip\Bobby McFerrin - Spontaneous Inventions (1986) [FLAC]\07 - Opportunity.wav

Pre-gap length 0:00:02.93

Peak level 55.2 %
Track quality 100.0 %
Test CRC EB5401A4
Copy CRC EB5401A4
Copy OK

Track 8
Filename D:\music\rip\Bobby McFerrin - Spontaneous Inventions (1986) [FLAC]\08 - Walkin'.wav

Peak level 100.0 %
Track quality 100.0 %
Test CRC BA125ED7
Copy CRC BA125ED7
Copy OK

Track 9
Filename D:\music\rip\Bobby McFerrin - Spontaneous Inventions (1986) [FLAC]\09 - I Hear Music.wav

Peak level 100.0 %
Track quality 100.0 %
Test CRC 21A9B286
Copy CRC 21A9B286
Copy OK

Track 10
Filename D:\music\rip\Bobby McFerrin - Spontaneous Inventions (1986) [FLAC]\10 - Beverly Hills Blues.wav

Peak level 95.6 %
Track quality 100.0 %
Test CRC FF19E453
Copy CRC FF19E453
Copy OK

Track 11
Filename D:\music\rip\Bobby McFerrin - Spontaneous Inventions (1986) [FLAC]\11 - Manyana Iguana.wav

Peak level 100.0 %
Track quality 100.0 %
Test CRC 73CA49BE
Copy CRC 73CA49BE
Copy OK

No errors occured


End of status report


––––––––––––––––––––––––––––––––––––––––
Analyzed: Bobby McFerrin / Spontaneous Inventions
––––––––––––––––––––––––––––––––––––––––

DR Peak RMS Duration Track
––––––––––––––––––––––––––––––––––––––––
DR13 0.00 dB -17.04 dB 3:15 01-Thinkin' About Your Body
DR13 0.00 dB -15.78 dB 3:34 02-Turtle Shoes
DR10 -2.56 dB -16.97 dB 2:19 03-From Me to You
DR14 0.00 dB -17.74 dB 3:41 04-There Ya Go
DR16 -0.01 dB -18.87 dB 2:33 05-Cara Mia
DR13 -0.83 dB -18.39 dB 4:16 06-Another Night in Tunisia
DR11 -5.16 dB -18.30 dB 3:53 07-Opportunity
DR15 0.00 dB -17.95 dB 5:40 08-Walkin'
DR13 0.00 dB -16.44 dB 3:55 09-I Hear Music
DR13 -0.39 dB -16.67 dB 3:52 10-Beverly Hills Blues
DR15 0.00 dB -19.72 dB 2:23 11-Maсana Iguana
––––––––––––––––––––––––––––––––––––––––

Number of tracks: 11
Official DR value: DR13

Samplerate: 44100 Hz
Channels: 2
Bits per sample: 16
Bitrate: 720 kbps
Codec: FLAC
================================================================================

Bobby McFerrin - Spontaneous Inventions (1986) {Blue Note}
Bobby McFerrin - Spontaneous Inventions (1986) {Blue Note}
Bobby McFerrin - Spontaneous Inventions (1986) {Blue Note}


Rip by Musicgate