Subcategories

Bobby Mcferrin - Bang! Zoom (1996)

Posted By: JET 1
Bobby Mcferrin - Bang! Zoom (1996)

Bobby Mcferrin - Bang! Zoom (1996)
EAC Rip | FLAC (Tracks) +CUE, LOG | 273 MB | Covers Included
Genre: Vocal Jazz | Label: Blue Note | Catalog Number: CDP 7243 8 31677 2

Bang! Zoom is a 1995 studio album by American vocalist Bobby McFerrin, released by Blue Note Records. The album reached number 10 on Billboard's Top Contemporary Jazz Albums chart.

Exact Audio Copy V0.99 prebeta 4 from 23. January 2008

EAC extraction logfile from 28. December 2008, 22:42

Bobby McFerrin / Bang ! Zoom

Used drive : HL-DT-STDVDRAM GSA-4163B Adapter: 0 ID: 1

Read mode : Secure
Utilize accurate stream : Yes
Defeat audio cache : Yes
Make use of C2 pointers : No

Read offset correction : 667
Overread into Lead-In and Lead-Out : No
Fill up missing offset samples with silence : Yes
Delete leading and trailing silent blocks : No
Null samples used in CRC calculations : Yes
Used interface : Native Win32 interface for Win NT & 2000
Gap handling : Appended to previous track

Used output format : User Defined Encoder
Selected bitrate : 768 kBit/s
Quality : High
Add ID3 tag : No
Command line compressor : C:\Program Files\Exact Audio Copy\FLAC\FLAC.EXE
Additional command line options : -V -8 -T "artist=%a" -T "title=%t" -T "album=%g" -T "date=%y" -T "tracknumber=%n" -T "genre=%m" %s


TOC of the extracted CD

Track | Start | Length | Start sector | End sector
––––––––––––––––––––––––––––-
1 | 0:00.00 | 5:33.52 | 0 | 25026
2 | 5:33.52 | 5:17.43 | 25027 | 48844
3 | 10:51.20 | 4:28.15 | 48845 | 68959
4 | 15:19.35 | 5:19.42 | 68960 | 92926
5 | 20:39.02 | 4:54.00 | 92927 | 114976
6 | 25:33.02 | 5:57.35 | 114977 | 141786
7 | 31:30.37 | 4:43.63 | 141787 | 163074
8 | 36:14.25 | 5:17.10 | 163075 | 186859
9 | 41:31.35 | 4:25.37 | 186860 | 206771


Track 1

Filename C:\Documents and Settings\Owner\My Documents\Downloads\Bang ! Zoom\01 Bobby McFerrin - Bang ! Zoom - Bang ! Zoom.wav

Pre-gap length 0:00:02.00

Peak level 100.0 %
Track quality 100.0 %
Test CRC 3639564A
Copy CRC 3639564A
Accurately ripped (confidence 14) [A208E617]
Copy OK

Track 2

Filename C:\Documents and Settings\Owner\My Documents\Downloads\Bang ! Zoom\02 Bobby McFerrin - Bang ! Zoom - Remembrance.wav

Pre-gap length 0:00:00.55

Peak level 100.0 %
Track quality 100.0 %
Test CRC A4D8E6AE
Copy CRC A4D8E6AE
Accurately ripped (confidence 14) [DB4339A6]
Copy OK

Track 3

Filename C:\Documents and Settings\Owner\My Documents\Downloads\Bang ! Zoom\03 Bobby McFerrin - Bang ! Zoom - Friends.wav

Pre-gap length 0:00:00.63

Peak level 100.0 %
Track quality 100.0 %
Test CRC 5A483854
Copy CRC 5A483854
Accurately ripped (confidence 14) [FFF5C16F]
Copy OK

Track 4

Filename C:\Documents and Settings\Owner\My Documents\Downloads\Bang ! Zoom\04 Bobby McFerrin - Bang ! Zoom - Selim.wav

Pre-gap length 0:00:01.28

Peak level 96.3 %
Track quality 100.0 %
Test CRC 7DFD103B
Copy CRC 7DFD103B
Accurately ripped (confidence 14) [CFEFB9FF]
Copy OK

Track 5

Filename C:\Documents and Settings\Owner\My Documents\Downloads\Bang ! Zoom\05 Bobby McFerrin - Bang ! Zoom - Freedom Is A Voice.wav

Pre-gap length 0:00:01.60

Peak level 100.0 %
Track quality 100.0 %
Test CRC DADC1E96
Copy CRC DADC1E96
Accurately ripped (confidence 14) [0D3B0452]
Copy OK

Track 6

Filename C:\Documents and Settings\Owner\My Documents\Downloads\Bang ! Zoom\06 Bobby McFerrin - Bang ! Zoom - Heaven's Design.wav

Pre-gap length 0:00:01.35

Peak level 100.0 %
Track quality 100.0 %
Test CRC F9E5F8A5
Copy CRC F9E5F8A5
Accurately ripped (confidence 14) [1200A31A]
Copy OK

Track 7

Filename C:\Documents and Settings\Owner\My Documents\Downloads\Bang ! Zoom\07 Bobby McFerrin - Bang ! Zoom - My Better Half.wav

Pre-gap length 0:00:01.47

Peak level 100.0 %
Track quality 100.0 %
Test CRC C217EF46
Copy CRC C217EF46
Accurately ripped (confidence 14) [60B0FD93]
Copy OK

Track 8

Filename C:\Documents and Settings\Owner\My Documents\Downloads\Bang ! Zoom\08 Bobby McFerrin - Bang ! Zoom - Kids' Toys.wav

Pre-gap length 0:00:01.73

Peak level 92.4 %
Track quality 99.9 %
Test CRC BF4E2564
Copy CRC BF4E2564
Accurately ripped (confidence 14) [8E2D44FA]
Copy OK

Track 9

Filename C:\Documents and Settings\Owner\My Documents\Downloads\Bang ! Zoom\09 Bobby McFerrin - Bang ! Zoom - Mere Words.wav

Pre-gap length 0:00:02.25

Peak level 89.6 %
Track quality 100.0 %
Test CRC ED9452CB
Copy CRC ED9452CB
Accurately ripped (confidence 14) [529FCB39]
Copy OK


All tracks accurately ripped

No errors occurred

End of status report


Tracklist:
1. Bang!Zoom
2. Remembrance
3. Friends
4. Selim
5. Freedom is a voice
6. Heaven's design
7. My better half
8. Kids' toys
9. Mere words

Personnel:
Bobby McFerrin - vocals
Bob Mintzer - saxophone, bass clarinet, EWI
Scott Wendholt - trumpet
Russell Ferrante - piano, synthesizer
Paul Nagel - Fender Rhodes electric piano
Paul Jackson, Jr. - guitar
Jimmy Haslip - bass
William Kennedy - drums
Paulinho Da Costa - percussion
Judd Miller - programming
Tower Of Power Horn Section: Greg Adams, David Mann, Stephen "Doc" Kupka, Emilio Castillo, Lee Thornburg (horns)