Subcategories

Bobo Stenson - Underwear (1971) {ECM 1012/UCCE 3006} [Repost]

Posted By: tiburon
Bobo Stenson - Underwear (1971) {ECM 1012/UCCE 3006} [Repost]

Bobo Stenson - Underwear (1971) {ECM 1012/UCCE 3006}
X Lossless Decoder | FLAC tracks | Cue+Log+M3U | Full Scans 600dpi | 248MB + 5% Recovery
Genre: Jazz, Post-Bop

This LP from ECM's early days finds Swedish pianist Bobo Stenson leading bassist Arild Andersen and drummer Jon Christensen in a program of uncompromising, collectively improvised post-bop. Andersen is prominent in the mix and plays just tons, all of it totally relevant to the music. Christensen provides structure, drawing on his breathtaking talent to contribute a dazzling range of color, a deft, flawless pulse, and fresh rhythmic ideas for the pianist and bassist. Stenson stakes out a middle ground, communicating closely with his partners and underpinning the group with subtle cues and harmonic shifts. Stenson's title track, a great post-bop, piano-bass-drum performance, goes for broke, but with discipline and a shared sense of purpose. From delicate beginnings, the pianist's two ballads, "Luberon" and "Tant W.," build steadily in power and intensity.
Track List
01. Underwear 7:38
02. Luberon 9:16
03. Test 3:35
04. Tant W 8:52
05. Untitled 3:53
06. Rudolf 6:12

musicians
Bobo Stenson: Piano
Arild Andersen: Bass, Cello, Guitar
Jon Christensen: Percussion

Produced by Manfred Eicher


X Lossless Decoder version 20100409 (117.2)

XLD extraction logfile from 2010-04-09 20:05:49 +0200

Bobo Stenson / Underwear

Used drive : MATSHITA DVD-R UJ-857D (revision KCV9)

Use cdparanoia mode : YES (CDParanoia III 10.2 engine)
Disable audio cache : OK for the drive with cache less than 2750KB
Make use of C2 pointers : NO
Read offset correction : 102
Max retry count : 100

TOC of the extracted CD
Track | Start | Length | Start sector | End sector
––––––––––––––––––––––––––––-
1 | 00:00:00 | 07:41:55 | 0 | 34629
2 | 07:41:55 | 09:19:65 | 34630 | 76619
3 | 17:01:45 | 03:38:55 | 76620 | 93024
4 | 20:40:25 | 08:55:60 | 93025 | 133209
5 | 29:36:10 | 03:57:40 | 133210 | 151024
6 | 33:33:50 | 06:12:40 | 151025 | 178964

All Tracks
Album gain : 0.27 dB
Peak : 0.999939

Track 01
Filename : /XLD/01 - Underwear.flac

Pre-gap length : 00:02:00

Track gain : -0.81 dB
Peak : 0.999939
CRC32 hash (test run) : F99CDD7E
CRC32 hash : F99CDD7E
CRC32 hash (skip zero) : 2582C42B
AccurateRip signature : FAD010A2
->Track not present in AccurateRip database.
Statistics
Read error : 0
Skipped (treated as error) : 0
Edge jitter error (maybe fixed) : 0
Atom jitter error (maybe fixed) : 0
Drift error (maybe fixed) : 0
Dropped bytes error (maybe fixed) : 0
Duplicated bytes error (maybe fixed) : 0
Inconsistency in error sectors : 0

Track 02
Filename : /XLD/02 - Luberon.flac

Pre-gap length : 00:03:44

Track gain : 1.30 dB
Peak : 0.746155
CRC32 hash (test run) : BB5EE13E
CRC32 hash : BB5EE13E
CRC32 hash (skip zero) : 73B4B040
AccurateRip signature : 8E35323C
->Track not present in AccurateRip database.
Statistics
Read error : 0
Skipped (treated as error) : 0
Edge jitter error (maybe fixed) : 0
Atom jitter error (maybe fixed) : 0
Drift error (maybe fixed) : 0
Dropped bytes error (maybe fixed) : 0
Duplicated bytes error (maybe fixed) : 0
Inconsistency in error sectors : 0

Track 03
Filename : /XLD/03 - Test.flac

Pre-gap length : 00:03:44

Track gain : 0.72 dB
Peak : 0.830261
CRC32 hash (test run) : 7D6809CE
CRC32 hash : 7D6809CE
CRC32 hash (skip zero) : AF66FBBA
AccurateRip signature : 69014458
->Track not present in AccurateRip database.
Statistics
Read error : 0
Skipped (treated as error) : 0
Edge jitter error (maybe fixed) : 0
Atom jitter error (maybe fixed) : 0
Drift error (maybe fixed) : 0
Dropped bytes error (maybe fixed) : 0
Duplicated bytes error (maybe fixed) : 0
Inconsistency in error sectors : 0

Track 04
Filename : /XLD/04 - Tant W.flac

Pre-gap length : 00:03:44

Track gain : 1.38 dB
Peak : 0.756226
CRC32 hash (test run) : 402506E8
CRC32 hash : 402506E8
CRC32 hash (skip zero) : C2B6222E
AccurateRip signature : EF3AF16E
->Track not present in AccurateRip database.
Statistics
Read error : 0
Skipped (treated as error) : 0
Edge jitter error (maybe fixed) : 0
Atom jitter error (maybe fixed) : 0
Drift error (maybe fixed) : 0
Dropped bytes error (maybe fixed) : 0
Duplicated bytes error (maybe fixed) : 0
Inconsistency in error sectors : 0

Track 05
Filename : /XLD/05 - Untitled.flac

Pre-gap length : 00:03:44

Track gain : -0.47 dB
Peak : 0.999939
CRC32 hash (test run) : 95A40E12
CRC32 hash : 95A40E12
CRC32 hash (skip zero) : C7F75923
AccurateRip signature : 48915EC2
->Track not present in AccurateRip database.
Statistics
Read error : 0
Skipped (treated as error) : 0
Edge jitter error (maybe fixed) : 0
Atom jitter error (maybe fixed) : 0
Drift error (maybe fixed) : 0
Dropped bytes error (maybe fixed) : 0
Duplicated bytes error (maybe fixed) : 0
Inconsistency in error sectors : 0

Track 06
Filename : /XLD/06 - Rudolf.flac

Pre-gap length : 00:03:44

Track gain : 0.24 dB
Peak : 0.938263
CRC32 hash (test run) : ABDC1A81
CRC32 hash : ABDC1A81
CRC32 hash (skip zero) : 7EDCAA2F
AccurateRip signature : 56E70298
->Track not present in AccurateRip database.
Statistics
Read error : 0
Skipped (treated as error) : 0
Edge jitter error (maybe fixed) : 0
Atom jitter error (maybe fixed) : 0
Drift error (maybe fixed) : 0
Dropped bytes error (maybe fixed) : 0
Duplicated bytes error (maybe fixed) : 0
Inconsistency in error sectors : 0

No errors occurred

End of status report


––––––––––––––––––––––––––––––––––––––––
Analyzed: Bobo Stenson / Underwear
––––––––––––––––––––––––––––––––––––––––

DR Peak RMS Duration Track
––––––––––––––––––––––––––––––––––––––––
DR13 0.00 dB -17.76 dB 7:42 01-Underwear
DR14 -2.54 dB -21.55 dB 9:20 02-Luberon
DR12 -1.62 dB -19.81 dB 3:39 03-Test
DR14 -2.43 dB -21.01 dB 8:56 04-Tant W
DR14 0.00 dB -16.37 dB 3:58 05-Untitled
DR13 -0.55 dB -20.54 dB 6:13 06-Rudolf
––––––––––––––––––––––––––––––––––––––––

Number of tracks: 6
Official DR value: DR13

Samplerate: 44100 Hz
Channels: 2
Bits per sample: 16
Bitrate: 642 kbps
Codec: FLAC
================================================================================

Bobo Stenson - Underwear (1971) {ECM 1012/UCCE 3006} [Repost]
Bobo Stenson - Underwear (1971) {ECM 1012/UCCE 3006} [Repost]
Bobo Stenson - Underwear (1971) {ECM 1012/UCCE 3006} [Repost]


Thanks for the rip to arh.gavriil