Subcategories

Bohemian Vendetta - Enough! (1997)

Posted By: v3122
Bohemian Vendetta - Enough! (1997)

Bohemian Vendetta - Enough! (1997)
EAC | Flac(Image) + Cue + Log & M4A(Tracks) & MP3 CBR 320Kbps
Distortions Records, DR 1038 | ~ 387 or 392 or 167 Mb | Scans Included
Garage Rock / Psychedelic Rock

~ A collection of demos, acetates and single tracks. Recorded between 1966 and 1968 ~

Quintet (Nick Manzi, Brian Cooke, Chuck Monica, Victor Muglia, Randy Pollock) from New York's Long Island, who backed Faine Jade on his Introspection album in 1968. That same year, they recorded and released a self-titled album for the Mainstream label. The trippy "All Kinds of Highs" has been reissued on CD.

by Bruce Eder, AMG
Bohemian Vendetta - Enough! (1997):

Bohemian Vendetta - Enough! (1997)

Tracklist:

01. Like Stoned 02:47
02. Irresistible 02:52
03. All Kinds Of Lows & All Kinds Of Highs 02:21
04. I Don't Go That Way 02:21
05. How Does It Feel 02:54
06. Enough 02:44
07. Half The Time 02:43
08. I Wanna Touch Your Heart 02:26
09. Images 01:55
10. Charity Killjoy 02:32
11. House Of The Rising Sun 05:44
12. Riddles & Fairytales 02:57
13. (She Always Gives Me) Pleasure 04:15
14. All Kinds Of Highs 03:42
15. Satisfaction 05:25
16. Paradox City 02:16
17. Love Can Make Your Mind Go Wild 02:47
18. House Of The Rising Sun 05:26
19. Images (Shadow In The Night) 01:55
20. Deaf Dumb & Blind 03:32
21. I Wanna Touch Your Heart 02:32
22. Riddles & Fairytales (45 Version) 02:42

Exact Audio Copy V0.99 prebeta 5 from 4. May 2009

EAC extraction logfile from 11. February 2012, 15:11

Bohemian Vendetta / Enough!

Used drive : TSSTcorpDVD+-RW TS-H653A Adapter: 1 ID: 0

Read mode : Secure
Utilize accurate stream : Yes
Defeat audio cache : Yes
Make use of C2 pointers : No

Combined read/write offset correction : 6
Overread into Lead-In and Lead-Out : No
Fill up missing offset samples with silence : Yes
Delete leading and trailing silent blocks : No
Null samples used in CRC calculations : No
Used interface : Native Win32 interface for Win NT & 2000
Gap handling : Appended to previous track

Used output format : User Defined Encoder
Selected bitrate : 768 kBit/s
Quality : High
Add ID3 tag : Yes
Command line compressor : C:\Program Files\Exact Audio Copy\FLAC\FLAC.EXE
Additional command line options : -8 -V -T "ARTIST=%a" -T "TITLE=%t" -T "ALBUM=%g" -T "DATE=%y" -T "TRACKNUMBER=%n" -T "GENRE=%m" -T "COMMENT=%e" %s -o %d


TOC of the extracted CD

Track | Start | Length | Start sector | End sector
––––––––––––––––––––––––––––-
1 | 0:00.00 | 2:47.15 | 0 | 12539
2 | 2:47.15 | 2:52.63 | 12540 | 25502
3 | 5:40.03 | 2:21.55 | 25503 | 36132
4 | 8:01.58 | 2:21.06 | 36133 | 46713
5 | 10:22.64 | 2:54.67 | 46714 | 59830
6 | 13:17.56 | 2:44.65 | 59831 | 72195
7 | 16:02.46 | 2:43.12 | 72196 | 84432
8 | 18:45.58 | 2:26.49 | 84433 | 95431
9 | 21:12.32 | 1:55.09 | 95432 | 104065
10 | 23:07.41 | 2:32.72 | 104066 | 115537
11 | 25:40.38 | 5:44.37 | 115538 | 141374
12 | 31:25.00 | 2:57.28 | 141375 | 154677
13 | 34:22.28 | 4:15.31 | 154678 | 173833
14 | 38:37.59 | 3:42.40 | 173834 | 190523
15 | 42:20.24 | 5:25.33 | 190524 | 214931
16 | 47:45.57 | 2:16.53 | 214932 | 225184
17 | 50:02.35 | 2:47.22 | 225185 | 237731
18 | 52:49.57 | 5:26.49 | 237732 | 262230
19 | 58:16.31 | 1:55.09 | 262231 | 270864
20 | 60:11.40 | 3:32.72 | 270865 | 286836
21 | 63:44.37 | 2:32.54 | 286837 | 298290
22 | 66:17.16 | 2:42.04 | 298291 | 310444


Track 1

Filename C:\eac\OldrockerBR\Bohemian Vendetta\Enough!\01.Like Stoned.wav

Pre-gap length 0:00:02.00

Peak level 99.9 %
Track quality 100.0 %
Test CRC 6F2B4C44
Copy CRC 6F2B4C44
Copy OK

Track 2

Filename C:\eac\OldrockerBR\Bohemian Vendetta\Enough!\02.Irresistible.wav

Peak level 99.9 %
Track quality 100.0 %
Test CRC 4F27B22F
Copy CRC 4F27B22F
Copy OK

Track 3

Filename C:\eac\OldrockerBR\Bohemian Vendetta\Enough!\03.All Kinds Of Lows & All Kinds Of Highs.wav

Peak level 99.9 %
Track quality 100.0 %
Test CRC B2A13D94
Copy CRC B2A13D94
Copy OK

Track 4

Filename C:\eac\OldrockerBR\Bohemian Vendetta\Enough!\04.I Donґt Go That Way.wav

Peak level 99.9 %
Track quality 100.0 %
Test CRC 5F642519
Copy CRC 5F642519
Copy OK

Track 5

Filename C:\eac\OldrockerBR\Bohemian Vendetta\Enough!\05.How Does It Feel.wav

Peak level 99.9 %
Track quality 100.0 %
Test CRC EC2AA1A5
Copy CRC EC2AA1A5
Copy OK

Track 6

Filename C:\eac\OldrockerBR\Bohemian Vendetta\Enough!\06.Enough.wav

Peak level 100.0 %
Track quality 100.0 %
Test CRC 635D8406
Copy CRC 635D8406
Copy OK

Track 7

Filename C:\eac\OldrockerBR\Bohemian Vendetta\Enough!\07.Half The Time.wav

Peak level 100.0 %
Track quality 100.0 %
Test CRC F63716BD
Copy CRC F63716BD
Copy OK

Track 8

Filename C:\eac\OldrockerBR\Bohemian Vendetta\Enough!\08.I Wanna Touch Your Heart.wav

Peak level 99.9 %
Track quality 100.0 %
Test CRC 34A3F935
Copy CRC 34A3F935
Copy OK

Track 9

Filename C:\eac\OldrockerBR\Bohemian Vendetta\Enough!\09.Images.wav

Peak level 99.9 %
Track quality 100.0 %
Test CRC 8A56BA37
Copy CRC 8A56BA37
Copy OK

Track 10

Filename C:\eac\OldrockerBR\Bohemian Vendetta\Enough!\10.Charity Killjoy.wav

Peak level 99.9 %
Track quality 100.0 %
Test CRC 6CE03FAD
Copy CRC 6CE03FAD
Copy OK

Track 11

Filename C:\eac\OldrockerBR\Bohemian Vendetta\Enough!\11.House Of The Rising Sun.wav

Peak level 99.9 %
Track quality 100.0 %
Test CRC 6A11390F
Copy CRC 6A11390F
Copy OK

Track 12

Filename C:\eac\OldrockerBR\Bohemian Vendetta\Enough!\12.Riddles & Fairytales.wav

Peak level 99.9 %
Track quality 100.0 %
Test CRC 143CCB53
Copy CRC 143CCB53
Copy OK

Track 13

Filename C:\eac\OldrockerBR\Bohemian Vendetta\Enough!\13.(She Always Gives Me) Pleasure.wav

Peak level 99.9 %
Track quality 100.0 %
Test CRC 2E07E96D
Copy CRC 2E07E96D
Copy OK

Track 14

Filename C:\eac\OldrockerBR\Bohemian Vendetta\Enough!\14.All Kinds Of Highs.wav

Peak level 100.0 %
Track quality 100.0 %
Test CRC E5C81CEB
Copy CRC E5C81CEB
Copy OK

Track 15

Filename C:\eac\OldrockerBR\Bohemian Vendetta\Enough!\15.Satisfaction.wav

Peak level 93.8 %
Track quality 99.9 %
Test CRC 8DCB39FB
Copy CRC 8DCB39FB
Copy OK

Track 16

Filename C:\eac\OldrockerBR\Bohemian Vendetta\Enough!\16.Paradox City.wav

Peak level 80.9 %
Track quality 100.0 %
Test CRC B18571B3
Copy CRC B18571B3
Copy OK

Track 17

Filename C:\eac\OldrockerBR\Bohemian Vendetta\Enough!\17.Love Can Make Your Mind Go Wild.wav

Peak level 100.0 %
Track quality 100.0 %
Test CRC C8459175
Copy CRC C8459175
Copy OK

Track 18

Filename C:\eac\OldrockerBR\Bohemian Vendetta\Enough!\18.House Of The Rising Sun.wav

Peak level 99.8 %
Track quality 100.0 %
Test CRC 82C100A3
Copy CRC 82C100A3
Copy OK

Track 19

Filename C:\eac\OldrockerBR\Bohemian Vendetta\Enough!\19.Images (Shadow In The Night).wav

Peak level 99.9 %
Track quality 100.0 %
Test CRC 426880AA
Copy CRC 426880AA
Copy OK

Track 20

Filename C:\eac\OldrockerBR\Bohemian Vendetta\Enough!\20.Deaf Dumb & Blind.wav

Peak level 99.9 %
Track quality 100.0 %
Test CRC 6717C6B5
Copy CRC 6717C6B5
Copy OK

Track 21

Filename C:\eac\OldrockerBR\Bohemian Vendetta\Enough!\21.I Wanna Touch Your Heart.wav

Peak level 99.8 %
Track quality 100.0 %
Test CRC 6AB57161
Copy CRC 6AB57161
Copy OK

Track 22

Filename C:\eac\OldrockerBR\Bohemian Vendetta\Enough!\22.Riddles & Fairytales (45 Version).wav

Peak level 100.0 %
Track quality 99.9 %
Test CRC BFD4D803
Copy CRC BFD4D803
Copy OK

No errors occurred

End of status report

Bohemian Vendetta - Enough! (1997)

Musicians:

Victor Muglia - bass
Randy Pollock - guitar
Nick Manzi - guitar
Chuck Monica - drums
Brian Cooke [aka Arthur Muglia] - keyboards, vocals
Richard Martinez - lead guitar
Richie Sorrentino - drums


Bohemian Vendetta - Enough! (1997)

All thanks go to OldrockerBR