Subcategories

Bon Jovi - Bon Jovi (1984)

Posted By: v3122
Bon Jovi - Bon Jovi (1984)

Bon Jovi - Bon Jovi (1984)
EAC | Flac(Image) + Cue + Log & MP3 CBR 320Kbps
PolyGram, 814 982-2 | ~ 256 or 90 Mb | Scans(png) -> 96 Mb
Hard Rock, AOR

From the opening track, "Runaway," which rode to glory on E Street Band-mate Roy Bittan's distinctive keyboard riff, to the sweaty arena rock of "Get Ready," which closed the album, Bon Jovi's debut is an often-overlooked minor gem from the early days of hair metal. The songs may be simple and the writing prone to all clichés of the form, but the album boasts a pretty consistent hard rock attack, passionate playing, and a keen sense of melody. The prominence that keyboardist David Bryan (credited as David Rashbaum in the liner notes) gets on this record is an indicator, perhaps, that Bon Jovi had more than a passing interest in the pop market, which was then dominated by new wave and synth pop. Mixing Journey-like '70s rock ("She Don't Know Me") with shout-along stadium anthems ("Love Lies"), the self-titled Bon Jovi lay the foundation for the band's career, which reached its apex several years later with that very same combination of pop melody and arena-sized amibiton.

by Leslie Mathew, allmusic
Bon Jovi - Bon Jovi (1984):

Bon Jovi - Bon Jovi (1984)

Tracklist:

01. Runaway [03:50]
02. Roulette [04:40]
03. She Don't Know Me [03:58]
04. Shot Through The Heart [04:18]
05. Love Lies [04:08]
06. Breakout [05:22]
07. Burning For Love [03:53]
08. Come Back [03:57]
09. Get Ready [04:07]

Exact Audio Copy V0.99 prebeta 5 from 4. May 2009

EAC extraction logfile from 2. May 2013, 21:31

BON JOVI / Bon Jovi

Used drive : ASUS DRW-24B3ST Adapter: 4 ID: 0

Read mode : Secure
Utilize accurate stream : Yes
Defeat audio cache : Yes
Make use of C2 pointers : No

Read offset correction : 6
Overread into Lead-In and Lead-Out : No
Fill up missing offset samples with silence : Yes
Delete leading and trailing silent blocks : No
Null samples used in CRC calculations : Yes
Used interface : Native Win32 interface for Win NT & 2000

Used output format : User Defined Encoder
Selected bitrate : 1024 kBit/s
Quality : High
Add ID3 tag : No
Command line compressor : C:\Program Files (x86)\EAC\WV\wavpack.exe
Additional command line options : -h -hh -m %s %d


TOC of the extracted CD

Track | Start | Length | Start sector | End sector
––––––––––––––––––––––––––––-
1 | 0:00.32 | 3:50.20 | 32 | 17301
2 | 3:50.52 | 4:40.43 | 17302 | 38344
3 | 8:31.20 | 3:58.35 | 38345 | 56229
4 | 12:29.55 | 4:18.40 | 56230 | 75619
5 | 16:48.20 | 4:08.00 | 75620 | 94219
6 | 20:56.20 | 5:22.00 | 94220 | 118369
7 | 26:18.20 | 3:53.00 | 118370 | 135844
8 | 30:11.20 | 3:57.50 | 135845 | 153669
9 | 34:08.70 | 4:07.60 | 153670 | 172254


Range status and errors

Selected range

Filename S:\BON JOVI\1984- Bon Jovi (DE 1984 PolyGram • 814 982-2)\BON JOVI - Bon Jovi.wav

Peak level 96.4 %
Range quality 100.0 %
Test CRC F9415971
Copy CRC F9415971
Copy OK

No errors occurred


AccurateRip summary

Track 1 accurately ripped (confidence 36) [F0FB4B30]
Track 2 accurately ripped (confidence 36) [411D6C5E]
Track 3 accurately ripped (confidence 36) [84E274BC]
Track 4 accurately ripped (confidence 36) [83D2753D]
Track 5 accurately ripped (confidence 35) [68715759]
Track 6 accurately ripped (confidence 36) [6C9012D8]
Track 7 accurately ripped (confidence 36) [333E6F45]
Track 8 accurately ripped (confidence 35) [A82E04EB]
Track 9 accurately ripped (confidence 35) [2678F21B]

All tracks accurately ripped

End of status report

foobar2000 1.2.9 / Dynamic Range Meter 1.1.1
log date: 2017-02-17 10:50:27

––––––––––––––––––––––––––––––––––––––––
Analyzed: BON JOVI / Bon Jovi
––––––––––––––––––––––––––––––––––––––––

DR Peak RMS Duration Track
––––––––––––––––––––––––––––––––––––––––
DR12 -0.49 dB -14.28 dB 3:50 01-Runaway
DR12 -0.54 dB -14.43 dB 4:41 02-Roulette
DR13 -0.56 dB -14.88 dB 3:58 03-She Don't Know Me
DR13 -1.35 dB -16.76 dB 4:19 04-Shot Through The Heart
DR12 -0.61 dB -15.29 dB 4:08 05-Love Lies
DR13 -0.32 dB -15.28 dB 5:22 06-Breakout
DR12 -0.84 dB -14.57 dB 3:53 07-Burning For Love
DR13 -0.76 dB -15.11 dB 3:58 08-Come Back
DR12 -0.57 dB -14.25 dB 4:08 09-Get Ready
––––––––––––––––––––––––––––––––––––––––

Number of tracks: 9
Official DR value: DR12

Samplerate: 44100 Hz
Channels: 2
Bits per sample: 16
Bitrate: 909 kbps
Codec: FLAC

[CUETools log; Date: 17.02.2017 10:50:09; Version: 2.1.4]
Pregap length 00:00:32.
[CTDB TOCID: hZJMAfHFoIluAC2T4kDak9h1pVc-] found.
Track | CTDB Status
1 | (66/68) Accurately ripped
2 | (66/68) Accurately ripped
3 | (67/68) Accurately ripped
4 | (67/68) Accurately ripped
5 | (67/68) Accurately ripped
6 | (66/68) Accurately ripped
7 | (67/68) Accurately ripped
8 | (67/68) Accurately ripped
9 | (67/68) Accurately ripped
[AccurateRip ID: 000d26c1-0060b97d-5308f809] found.
Track [ CRC | V2 ] Status
01 [f0fb4b30|df8cc84e] (037+029/105) Accurately ripped
02 [411d6c5e|fd2109c4] (037+028/104) Accurately ripped
03 [84e274bc|9af6233c] (037+029/105) Accurately ripped
04 [83d2753d|9695b443] (037+028/104) Accurately ripped
05 [68715759|9c2522bb] (036+028/103) Accurately ripped
06 [6c9012d8|828da974] (037+028/103) Accurately ripped
07 [333e6f45|932ba908] (037+029/105) Accurately ripped
08 [a82e04eb|d686d455] (036+028/103) Accurately ripped
09 [2678f21b|5394420b] (036+028/103) Accurately ripped
Offsetted by -473:
01 [81f373eb] (002/105) Accurately ripped
02 [9e722cbe] (003/104) Accurately ripped
03 [c426cda4] (003/105) Accurately ripped
04 [7f2ad03f] (003/104) Accurately ripped
05 [9c471b24] (003/103) Accurately ripped
06 [22bef9cd] (003/103) Accurately ripped
07 [759c1c40] (003/105) Accurately ripped
08 [20c52f2d] (003/103) Accurately ripped
09 [c9181557] (003/103) Accurately ripped
Offsetted by -222:
01 [1a3730fd] (003/105) Accurately ripped
02 [af614a83] (003/104) Accurately ripped
03 [83f72bd0] (003/105) Accurately ripped
04 [0c6a26a9] (003/104) Accurately ripped
05 [d6d38173] (003/103) Accurately ripped
06 [b5147f3e] (003/103) Accurately ripped
07 [1d5a29ff] (003/105) Accurately ripped
08 [df279287] (003/103) Accurately ripped
09 [945aa363] (003/103) Accurately ripped
Offsetted by 703:
01 [28a25ac0] (009/105) Accurately ripped
02 [949cd349] (008/104) Accurately ripped
03 [79e6ee60] (008/105) Accurately ripped
04 [b27f2207] (008/104) Accurately ripped
05 [8ae5275c] (008/103) Accurately ripped
06 [86ecbb95] (007/103) Accurately ripped
07 [cde69ff8] (008/105) Accurately ripped
08 [7a17c47d] (008/103) Accurately ripped
09 [752e40b7] (008/103) Accurately ripped
Offsetted by -12:
01 [70dbdfa8] (000/105) No match (V2 was not tested)
02 [9a1ab722] (000/104) No match (V2 was not tested)
03 [8ee5f846] (000/105) No match (V2 was not tested)
04 [740d667b] (000/104) No match (V2 was not tested)
05 [c16fba7d] (000/103) No match (V2 was not tested)
06 [46f818b4] (000/103) No match (V2 was not tested)
07 [088c0aa9] (000/105) No match (V2 was not tested)
08 [65f651c3] (000/103) No match (V2 was not tested)
09 [17a7bd6b] (000/103) No match (V2 was not tested)

Track Peak [ CRC32 ] [W/O NULL] [ LOG ]
– 96,4 [F9415971] [40EA2C03] CRC32
01 94,5 [8CCE4F1D] [2EBE5A0D]
02 93,9 [A01691CB] [04FE2883]
03 93,7 [B995F966] [008709D0]
04 85,5 [94C41863] [0510D1C2]
05 93,2 [CD44319A] [7E0761B2]
06 96,4 [793B4DA0] [0F9D2CFE]
07 90,7 [3D44B3BA] [62C1272D]
08 91,6 [45F2A1D5] [489E27D8]
09 93,6 [0EB85E2A] [A1A41FEA]

Bon Jovi - Bon Jovi (1984)

All thanks go to the original releaser

Bon Jovi in my Blog

Download Bon Jovi - Bon Jovi (1984):