Subcategories

Bon Jovi - Cross Road: The Best of Bon Jovi (1994)

Posted By: v3122
Bon Jovi - Cross Road: The Best of Bon Jovi (1994)

Bon Jovi - Cross Road: The Best of Bon Jovi (1994)
EAC | Flac(Image) + Cue + Log & MP3 CBR 320Kbps
Mercury, P2-26013 | ~ 519 or 170 Mb | Scans(png) -> 60 Mb
Hard Rock, AOR

While Bon Jovi managed to stick a couple of killer album tracks onto all of their records, their main strength had always been writing singles. Released in 1994, Cross Road collects all of their biggest hits, adding a couple of new songs (including the international smash "Always," which helped the album go platinum in multiple countries) and Jon Bon Jovi's solo hit, "Blaze of Glory," for good measure. Even the band's detractors may not be able to resist the constant flow of big guitars, bigger hooks, and sweet melodies that pour out on Cross Road. After all, this is what state-of-the-art mainstream hard rock was all about in the late '80s.

by Stephen Thomas Erlewine, allmusic
Bon Jovi - Cross Road: The Best of Bon Jovi (1994):

Bon Jovi - Cross Road: The Best of Bon Jovi (1994)

Tracklist:

01. Livin' On A Prayer [04:11]
02. Keep The Faith [05:44]
03. Someday I'll Be Saturday Night [04:39]
04. Always [05:53]
05. Wanted Dead Or Alive [05:07]
06. Lay Your Hands On Me [05:58]
07. You Give Love A Bad Name [03:44]
08. Bed Of Roses [06:34]
09. Blaze Of Glory [05:40]
10. Prayer '94 [05:17]
11. Bad Medicine [05:16]
12. I'll Be There For You [05:41]
13. In And Out Of Love [04:27]
14. Runaway [03:52]

Exact Audio Copy V0.99 prebeta 5 from 4. May 2009

EAC extraction logfile from 3. May 2013, 8:22

BON JOVI / Cross Road

Used drive : ASUS DRW-24B3ST Adapter: 4 ID: 0

Read mode : Secure
Utilize accurate stream : Yes
Defeat audio cache : Yes
Make use of C2 pointers : No

Read offset correction : 6
Overread into Lead-In and Lead-Out : No
Fill up missing offset samples with silence : Yes
Delete leading and trailing silent blocks : No
Null samples used in CRC calculations : Yes
Used interface : Native Win32 interface for Win NT & 2000

Used output format : User Defined Encoder
Selected bitrate : 1024 kBit/s
Quality : High
Add ID3 tag : No
Command line compressor : C:\Program Files (x86)\EAC\WV\wavpack.exe
Additional command line options : -h -hh -m %s %d


TOC of the extracted CD

Track | Start | Length | Start sector | End sector
––––––––––––––––––––––––––––-
1 | 0:00.00 | 4:11.25 | 0 | 18849
2 | 4:11.25 | 5:44.52 | 18850 | 44701
3 | 9:56.02 | 4:39.58 | 44702 | 65684
4 | 14:35.60 | 5:53.50 | 65685 | 92209
5 | 20:29.35 | 5:07.00 | 92210 | 115234
6 | 25:36.35 | 5:58.67 | 115235 | 142151
7 | 31:35.27 | 3:44.25 | 142152 | 158976
8 | 35:19.52 | 6:34.73 | 158977 | 188599
9 | 41:54.50 | 5:40.00 | 188600 | 214099
10 | 47:34.50 | 5:17.52 | 214100 | 237926
11 | 52:52.27 | 5:16.60 | 237927 | 261686
12 | 58:09.12 | 5:41.43 | 261687 | 287304
13 | 63:50.55 | 4:27.25 | 287305 | 307354
14 | 68:18.05 | 3:52.70 | 307355 | 324824


Range status and errors

Selected range

Filename S:\BON JOVI\1994- Cross Road (US 1994 Mercury • P2-26013)\BON JOVI - Cross Road.wav

Peak level 100.0 %
Range quality 100.0 %
Test CRC 9C542787
Copy CRC 9C542787
Copy OK

No errors occurred


AccurateRip summary

Track 1 accurately ripped (confidence 22) [281DB61E]
Track 2 accurately ripped (confidence 23) [53F0500D]
Track 3 accurately ripped (confidence 22) [E5922237]
Track 4 accurately ripped (confidence 22) [24468818]
Track 5 accurately ripped (confidence 22) [74264F76]
Track 6 accurately ripped (confidence 20) [755C4293]
Track 7 accurately ripped (confidence 20) [34C5D090]
Track 8 accurately ripped (confidence 20) [216DC73C]
Track 9 accurately ripped (confidence 20) [7F473480]
Track 10 accurately ripped (confidence 19) [47DCEFDE]
Track 11 accurately ripped (confidence 20) [8991C324]
Track 12 accurately ripped (confidence 20) [83AB7D50]
Track 13 accurately ripped (confidence 21) [29383F38]
Track 14 accurately ripped (confidence 17) [F2B49150]

All tracks accurately ripped

End of status report

foobar2000 1.2.9 / Dynamic Range Meter 1.1.1
log date: 2017-03-01 19:11:08

––––––––––––––––––––––––––––––––––––––––
Analyzed: BON JOVI / Cross Road
––––––––––––––––––––––––––––––––––––––––

DR Peak RMS Duration Track
––––––––––––––––––––––––––––––––––––––––
DR9 0.00 dB -10.36 dB 4:11 01-Livin' On A Prayer
DR8 0.00 dB -9.62 dB 5:45 02-Keep The Faith
DR7 0.00 dB -9.65 dB 4:40 03-Someday I'll Be Saturday Night
DR7 -0.01 dB -9.57 dB 5:54 04-Always
DR8 0.00 dB -11.26 dB 5:07 05-Wanted Dead Or Alive
DR8 0.00 dB -10.35 dB 5:59 06-Lay Your Hands On Me
DR8 0.00 dB -9.44 dB 3:44 07-You Give Love A Bad Name
DR8 0.00 dB -10.90 dB 6:35 08-Bed Of Roses
DR9 0.00 dB -11.54 dB 5:40 09-Blaze Of Glory
DR8 0.00 dB -9.51 dB 5:18 10-Prayer '94
DR9 0.00 dB -9.96 dB 5:17 11-Bad Medicine
DR9 0.00 dB -10.64 dB 5:42 12-I'll Be There For You
DR9 0.00 dB -10.28 dB 4:27 13-In And Out Of Love
DR8 0.00 dB -9.01 dB 3:53 14-Runaway
––––––––––––––––––––––––––––––––––––––––

Number of tracks: 14
Official DR value: DR8

Samplerate: 44100 Hz
Channels: 2
Bits per sample: 16
Bitrate: 976 kbps
Codec: FLAC

CUETools log; Date: 01.03.2017 19:11:45; Version: 2.1.4]
[CTDB TOCID: PoPBsX9a1q_R9rXARiqIY4y7RMA-] found.
Track | CTDB Status
1 | ( 58/590) Accurately ripped, or (306/590) differs in 60 samples @02:15:41-02:15:42, or (113/590) differs in 60 samples @02:15:41-02:15:42
2 | (582/590) Accurately ripped
3 | (582/590) Accurately ripped
4 | (581/590) Accurately ripped
5 | (581/590) Accurately ripped
6 | (455/590) Accurately ripped, or (113/590) differs in 70 samples @05:58:46-05:58:47
7 | (579/590) Accurately ripped
8 | (575/590) Accurately ripped
9 | (570/590) Accurately ripped
10 | (576/590) Accurately ripped
11 | (576/590) Accurately ripped
12 | (571/590) Accurately ripped
13 | (516/590) Accurately ripped
14 | (564/590) Accurately ripped
[AccurateRip ID: 002587da-019238e6-c710eb0e] found.
Track [ CRC | V2 ] Status
01 [281db61e|4473df86] (024+025/775) Accurately ripped
02 [53f0500d|f7b3a292] (025+024/760) Accurately ripped
03 [e5922237|365e1c02] (024+024/759) Accurately ripped
04 [24468818|2012d68f] (024+023/763) Accurately ripped
05 [74264f76|c5f70bb4] (024+024/768) Accurately ripped
06 [755c4293|f9ba626f] (022+024/755) Accurately ripped
07 [34c5d090|73143d34] (022+025/774) Accurately ripped
08 [216dc73c|2908ff07] (022+024/747) Accurately ripped
09 [7f473480|4859457f] (022+024/742) Accurately ripped
10 [47dcefde|7d74d4d9] (021+025/740) Accurately ripped
11 [8991c324|0e5d3756] (022+024/736) Accurately ripped
12 [83ab7d50|3de4d628] (022+025/736) Accurately ripped
13 [29383f38|510317ef] (023+025/728) Accurately ripped
14 [f2b49150|21417d81] (018+024/699) Accurately ripped
Offsetted by 480:
01 [1de4e2df] (021/775) Accurately ripped
02 [3b2c8c38] (020/760) Accurately ripped
03 [966c3e7e] (020/759) Accurately ripped
04 [bc829318] (020/763) Accurately ripped
05 [f5711c2b] (020/768) Accurately ripped
06 [66000532] (020/755) Accurately ripped
07 [f54a0744] (021/774) Accurately ripped
08 [3d4eda04] (018/747) Accurately ripped
09 [a31217a4] (019/742) Accurately ripped
10 [3d30c2fa] (019/740) Accurately ripped
11 [dba24d7c] (018/736) Accurately ripped
12 [c4be5bb3] (018/736) Accurately ripped
13 [532a0773] (016/728) Accurately ripped
14 [eea0868a] (017/699) Accurately ripped
Offsetted by -1224:
01 [3bd56862] (000/775) No match (V2 was not tested)
02 [89c72402] (000/760) No match (V2 was not tested)
03 [bcdf635b] (000/759) No match (V2 was not tested)
04 [067a38d8] (000/763) No match (V2 was not tested)
05 [1f3d6d03] (000/768) No match (V2 was not tested)
06 [1429d266] (000/755) No match (V2 was not tested)
07 [8f5a38bb] (000/774) No match (V2 was not tested)
08 [5873c691] (000/747) No match (V2 was not tested)
09 [0852501c] (000/742) No match (V2 was not tested)
10 [6bc0e6fa] (000/740) No match (V2 was not tested)
11 [87cc2208] (000/736) No match (V2 was not tested)
12 [4a71c43b] (000/736) No match (V2 was not tested)
13 [75b8750b] (000/728) No match (V2 was not tested)
14 [bd5cc501] (000/699) No match (V2 was not tested)
Offsetted by -1211:
01 [9f04b851] (000/775) No match (V2 was not tested)
02 [5b222c96] (004/760) Accurately ripped
03 [b268f707] (004/759) Accurately ripped
04 [887794e0] (004/763) Accurately ripped
05 [1cf7be64] (004/768) Accurately ripped
06 [160a52b9] (000/755) No match (V2 was not tested)
07 [bda5fc32] (004/774) Accurately ripped
08 [5528f5a5] (004/747) Accurately ripped
09 [ef1728fc] (004/742) Accurately ripped
10 [e5853cd3] (004/740) Accurately ripped
11 [ccb2bf79] (004/736) Accurately ripped
12 [f0fd6628] (004/736) Accurately ripped
13 [d97ea6f4] (004/728) Accurately ripped
14 [4bb0d6f2] (004/699) Accurately ripped
Offsetted by -1055:
01 [91ec3ed9] (000/775) No match (V2 was not tested)
02 [a16d2fe5] (050/760) Accurately ripped
03 [4a45ebbc] (050/759) Accurately ripped
04 [a057e540] (050/763) Accurately ripped
05 [76fa1fc1] (050/768) Accurately ripped
06 [d8321d64] (051/755) Accurately ripped
07 [a5225d6a] (050/774) Accurately ripped
08 [2c4d2a55] (051/747) Accurately ripped
09 [fcb41895] (047/742) Accurately ripped
10 [ada02b66] (051/740) Accurately ripped
11 [0c9eaa16] (049/736) Accurately ripped
12 [4418d51c] (050/736) Accurately ripped
13 [177a4b94] (000/728) No match (V2 was not tested)
14 [461dc999] (044/699) Accurately ripped
Offsetted by -862:
01 [ee1731e6] (000/775) No match (V2 was not tested)
02 [7ad4427c] (022/760) Accurately ripped
03 [2474a954] (022/759) Accurately ripped
04 [db6bc568] (020/763) Accurately ripped
05 [f84b213c] (021/768) Accurately ripped
06 [73fc1949] (021/755) Accurately ripped
07 [14d3c0e6] (022/774) Accurately ripped
08 [3e23b398] (022/747) Accurately ripped
09 [6d3f41b4] (021/742) Accurately ripped
10 [fed13c14] (020/740) Accurately ripped
11 [88e7fd8f] (019/736) Accurately ripped
12 [52a25b41] (020/736) Accurately ripped
13 [2c831567] (020/728) Accurately ripped
14 [0e256c12] (018/699) Accurately ripped
Offsetted by -712:
01 [edde818a] (000/775) No match (V2 was not tested)
02 [7f468615] (005/760) Accurately ripped
03 [ef866a47] (004/759) Accurately ripped
04 [cafe88d8] (004/763) Accurately ripped
05 [606ab355] (004/768) Accurately ripped
06 [ec169560] (004/755) Accurately ripped
07 [fe0b59c7] (004/774) Accurately ripped
08 [f9836e11] (004/747) Accurately ripped
09 [ff0215a1] (004/742) Accurately ripped
10 [deae5845] (004/740) Accurately ripped
11 [f8127a50] (004/736) Accurately ripped
12 [f8f0c8cc] (004/736) Accurately ripped
13 [5fe83392] (004/728) Accurately ripped
14 [b4f524a0] (004/699) Accurately ripped
Offsetted by -636:
01 [967beaab] (000/775) No match (V2 was not tested)
02 [1b68b950] (069/760) Accurately ripped
03 [2c15c848] (068/759) Accurately ripped
04 [742a2cb8] (072/763) Accurately ripped
05 [e326b937] (071/768) Accurately ripped
06 [d2ee3486] (069/755) Accurately ripped
07 [819a7c9a] (072/774) Accurately ripped
08 [20ef5e7e] (068/747) Accurately ripped
09 [861c2d3e] (068/742) Accurately ripped
10 [e72d5f64] (068/740) Accurately ripped
11 [45317373] (066/736) Accurately ripped
12 [f0e8f7c6] (070/736) Accurately ripped
13 [85e37469] (061/728) Accurately ripped
14 [d43b4e42] (066/699) Accurately ripped
Offsetted by -594:
01 [27276f48] (000/775) No match (V2 was not tested)
02 [f7dce583] (007/760) Accurately ripped
03 [6016a564] (006/759) Accurately ripped
04 [8e490748] (006/763) Accurately ripped
05 [74529c17] (007/768) Accurately ripped
06 [f5e64a62] (007/755) Accurately ripped
07 [537bebad] (007/774) Accurately ripped
08 [d4939671] (005/747) Accurately ripped
09 [91062711] (006/742) Accurately ripped
10 [f862cfe3] (006/740) Accurately ripped
11 [ca0881bb] (006/736) Accurately ripped
12 [9373cca4] (007/736) Accurately ripped
13 [8cad6e45] (006/728) Accurately ripped
14 [71fee64c] (005/699) Accurately ripped
Offsetted by -340:
01 [37b41099] (000/775) No match (V2 was not tested)
02 [c888dd65] (053/760) Accurately ripped
03 [76ddf32a] (054/759) Accurately ripped
04 [8dc6aaf8] (056/763) Accurately ripped
05 [0f59b49c] (056/768) Accurately ripped
06 [8a6445e1] (000/755) No match (V2 was not tested)
07 [1191cbe1] (055/774) Accurately ripped
08 [45a84a1f] (054/747) Accurately ripped
09 [dd002565] (054/742) Accurately ripped
10 [e6674c65] (054/740) Accurately ripped
11 [4a40d624] (055/736) Accurately ripped
12 [28d1759f] (054/736) Accurately ripped
13 [4ad65656] (053/728) Accurately ripped
14 [03b7a657] (053/699) Accurately ripped
Offsetted by 300:
01 [7e1268c0] (000/775) No match (V2 was not tested)
02 [a656e404] (010/760) Accurately ripped
03 [590c3162] (010/759) Accurately ripped
04 [036c0ef8] (010/763) Accurately ripped
05 [20fb69dc] (010/768) Accurately ripped
06 [bbd3c345] (000/755) No match (V2 was not tested)
07 [cd364287] (010/774) Accurately ripped
08 [f0d71f9d] (010/747) Accurately ripped
09 [94fb6bfb] (010/742) Accurately ripped
10 [f09914ff] (010/740) Accurately ripped
11 [638b41df] (010/736) Accurately ripped
12 [903f13e7] (010/736) Accurately ripped
13 [3c4f88f8] (010/728) Accurately ripped
14 [9c1e799a] (008/699) Accurately ripped
Offsetted by 312:
01 [4fcf406c] (000/775) No match (V2 was not tested)
02 [9a70e0b7] (019/760) Accurately ripped
03 [9fd3b7c6] (019/759) Accurately ripped
04 [540728d8] (019/763) Accurately ripped
05 [e552baa0] (019/768) Accurately ripped
06 [ed322019] (000/755) No match (V2 was not tested)
07 [b4e8b9ef] (019/774) Accurately ripped
08 [e499c601] (019/747) Accurately ripped
09 [05e041ad] (018/742) Accurately ripped
10 [0507ecf9] (019/740) Accurately ripped
11 [d3eb366d] (019/736) Accurately ripped
12 [eb195791] (019/736) Accurately ripped
13 [f860baf2] (019/728) Accurately ripped
14 [c32bad44] (017/699) Accurately ripped
Offsetted by 843:
01 [3b318b52] (000/775) No match (V2 was not tested)
02 [bff83c53] (027/760) Accurately ripped
03 [3bf8bfde] (028/759) Accurately ripped
04 [c2d661d0] (027/763) Accurately ripped
05 [9b358ffb] (027/768) Accurately ripped
06 [d6555dea] (026/755) Accurately ripped
07 [07538733] (028/774) Accurately ripped
08 [e36863f6] (027/747) Accurately ripped
09 [92a2979a] (027/742) Accurately ripped
10 [9650a883] (026/740) Accurately ripped
11 [3242c0bc] (026/736) Accurately ripped
12 [425dd8ac] (027/736) Accurately ripped
13 [10722a66] (028/728) Accurately ripped
14 [8469523f] (024/699) Accurately ripped
Offsetted by 1497:
01 [b037c65e] (000/775) No match (V2 was not tested)
02 [f52324ca] (043/760) Accurately ripped
03 [2f5206a8] (041/759) Accurately ripped
04 [ebdb6400] (042/763) Accurately ripped
05 [e1ab0be6] (043/768) Accurately ripped
06 [1cdce16f] (040/755) Accurately ripped
07 [a4e3b8aa] (044/774) Accurately ripped
08 [f959afa5] (042/747) Accurately ripped
09 [dc2d6b5d] (040/742) Accurately ripped
10 [ed5158f3] (039/740) Accurately ripped
11 [d59648f2] (040/736) Accurately ripped
12 [b69e0f1e] (040/736) Accurately ripped
13 [16696b84] (040/728) Accurately ripped
14 [70b564ca] (037/699) Accurately ripped
Offsetted by 1607:
01 [f6e0dad2] (000/775) No match (V2 was not tested)
02 [c6393cbd] (028/760) Accurately ripped
03 [e460d07e] (028/759) Accurately ripped
04 [2413d130] (028/763) Accurately ripped
05 [2b5f5c8f] (027/768) Accurately ripped
06 [762c97ce] (028/755) Accurately ripped
07 [210a2bca] (027/774) Accurately ripped
08 [11caad4f] (027/747) Accurately ripped
09 [38d5b7fa] (025/742) Accurately ripped
10 [95263e22] (025/740) Accurately ripped
11 [ff990d74] (026/736) Accurately ripped
12 [d7e01180] (024/736) Accurately ripped
13 [26fed451] (025/728) Accurately ripped
14 [828c1b59] (025/699) Accurately ripped
Offsetted by 1736:
01 [93075d6f] (000/775) No match (V2 was not tested)
02 [652b5775] (034/760) Accurately ripped
03 [929c7394] (037/759) Accurately ripped
04 [06972758] (036/763) Accurately ripped
05 [c3524113] (034/768) Accurately ripped
06 [9087a9a2] (035/755) Accurately ripped
07 [c320d118] (035/774) Accurately ripped
08 [b34a306c] (035/747) Accurately ripped
09 [b0ecb5d0] (035/742) Accurately ripped
10 [bcd729f9] (034/740) Accurately ripped
11 [402dd102] (034/736) Accurately ripped
12 [6b4c4242] (032/736) Accurately ripped
13 [88be91d5] (034/728) Accurately ripped
14 [0396353c] (031/699) Accurately ripped

Track Peak [ CRC32 ] [W/O NULL] [ LOG ]
– 100,0 [9C542787] [8514B779] CRC32
01 99,9 [55012DA0] [D1274FB7]
02 99,9 [617B401E] [26DF7676]
03 99,9 [4F959EE3] [712505E4]
04 99,8 [E2814D71] [C564ED83]
05 99,9 [0D75803F] [CC344280]
06 99,9 [5AA730FA] [3572B6DC]
07 99,9 [FDB1B056] [AFCD7FC5]
08 99,9 [17D1CFCA] [2932EB98]
09 99,9 [D26D8A7F] [40F42659]
10 100,0 [789EB674] [4A0348E2]
11 99,9 [CBB5470A] [23BA6632]
12 99,9 [7F789BA0] [28DFE5A2]
13 99,9 [006055BF] [957DF43F]
14 99,9 [41D94932] [B0133440]

Bon Jovi - Cross Road: The Best of Bon Jovi (1994)

All thanks go to the original releaser

Bon Jovi in my Blog

Download Bon Jovi - Cross Road: The Best of Bon Jovi (1994):