Subcategories

Jon Bon Jovi - Destination Anywhere (1997)

Posted By: v3122
Jon Bon Jovi - Destination Anywhere (1997)

Jon Bon Jovi - Destination Anywhere (1997)
EAC | Flac(Image) + Cue + Log & MP3 CBR 320Kbps
Mercury, 536 011-2 | ~ 452 or 149 Mb | Scans(png) -> 34 Mb
Hard Rock, AOR

Jon Bon Jovi's first official solo album, Destination Anywhere (apparently Blaze of Glory doesn't count because it was a soundtrack) finds the hard rocker attempting to simultaneously make his signature sound more mature and more contemporary. Producer Stephen Lironi tones down the sample-driven rhythms that characterized his work with Black Grape, giving Bon Jovi a laid-back and modern musical bed. Of course, the singer chooses to write melodies and lyrics very similar to those of his full-time band, only less bombastic. And that's the key to Destination Anywhere – it really couldn't have been made by the band, because there are too many subtle sonics and melodies for the group. So, in a sense, it's a breakthrough for Bon Jovi, because it is the first time he sounds like he's come to terms with adulthood. That doesn't mean Destination Anywhere is a complete success – it, like his other records, is hampered by filler – but none of his contemporaries were able to age this well, and the record is a fine example of late-'90s mainstream pop.

by Stephen Thomas Erlewine, allmusic
Jon Bon Jovi - Destination Anywhere (1997):

Jon Bon Jovi - Destination Anywhere (1997)

Tracklist:

01. Queen Of New Orleans [04:30]
02. Janie, Don't Take Your Love To Town [05:18]
03. Midnight In Chelsea [04:58]
04. Ugly [03:24]
05. Staring At Your Window With A Suitcase In My Hand [04:26]
06. Every Word Was A Piece Of My Heart [05:15]
07. It's Just Me [06:44]
08. Destination Anywhere [04:56]
09. Learning How To Fall [04:03]
10. Naked [04:42]
11. Little City [04:57]
12. August 7, 4:15 [04:59]
13. Cold Hard Heart [04:42]

Exact Audio Copy V0.99 prebeta 5 from 4. May 2009

EAC extraction logfile from 3. May 2013, 14:17

BON JOVI / Destination Anywhere

Used drive : ASUS DRW-24B3ST Adapter: 4 ID: 0

Read mode : Secure
Utilize accurate stream : Yes
Defeat audio cache : Yes
Make use of C2 pointers : No

Read offset correction : 6
Overread into Lead-In and Lead-Out : No
Fill up missing offset samples with silence : Yes
Delete leading and trailing silent blocks : No
Null samples used in CRC calculations : Yes
Used interface : Native Win32 interface for Win NT & 2000

Used output format : User Defined Encoder
Selected bitrate : 1024 kBit/s
Quality : High
Add ID3 tag : No
Command line compressor : C:\Program Files (x86)\EAC\WV\wavpack.exe
Additional command line options : -h -hh -m %s %d


TOC of the extracted CD

Track | Start | Length | Start sector | End sector
––––––––––––––––––––––––––––-
1 | 0:00.00 | 4:30.37 | 0 | 20286
2 | 4:30.37 | 5:18.38 | 20287 | 44174
3 | 9:49.00 | 4:58.00 | 44175 | 66524
4 | 14:47.00 | 3:24.00 | 66525 | 81824
5 | 18:11.00 | 4:26.00 | 81825 | 101774
6 | 22:37.00 | 5:15.17 | 101775 | 125416
7 | 27:52.17 | 6:44.33 | 125417 | 155749
8 | 34:36.50 | 4:56.37 | 155750 | 177986
9 | 39:33.12 | 4:03.55 | 177987 | 196266
10 | 43:36.67 | 4:42.18 | 196267 | 217434
11 | 48:19.10 | 4:57.00 | 217435 | 239709
12 | 53:16.10 | 4:59.52 | 239710 | 262186
13 | 58:15.62 | 4:42.13 | 262187 | 283349


Range status and errors

Selected range

Filename S:\BON JOVI\1997- Destination Anywhere (DE 1997 Mercury • 536 011-2)\BON JOVI - Destination Anywhere.wav

Peak level 93.3 %
Range quality 100.0 %
Test CRC E087C642
Copy CRC E087C642
Copy OK

No errors occurred


AccurateRip summary

Track 1 accurately ripped (confidence 9) [5332EA5A]
Track 2 accurately ripped (confidence 9) [5A59B658]
Track 3 accurately ripped (confidence 9) [C7AAC438]
Track 4 accurately ripped (confidence 9) [1677CF42]
Track 5 accurately ripped (confidence 9) [4F113BF6]
Track 6 accurately ripped (confidence 8) [F773DC0E]
Track 7 accurately ripped (confidence 8) [4A7237EE]
Track 8 accurately ripped (confidence 9) [A16BBE03]
Track 9 accurately ripped (confidence 9) [B6FE72A7]
Track 10 accurately ripped (confidence 9) [D7341101]
Track 11 accurately ripped (confidence 9) [43E19D00]
Track 12 accurately ripped (confidence 6) [C0605EDF]
Track 13 accurately ripped (confidence 9) [CA8566D6]

All tracks accurately ripped

End of status report

foobar2000 1.2.9 / Dynamic Range Meter 1.1.1
log date: 2017-03-07 02:31:12

––––––––––––––––––––––––––––––––––––––––
Analyzed: BON JOVI / Destination Anywhere
––––––––––––––––––––––––––––––––––––––––

DR Peak RMS Duration Track
––––––––––––––––––––––––––––––––––––––––
DR8 -0.60 dB -9.76 dB 4:30 01-Queen Of New Orleans
DR7 -0.60 dB -9.32 dB 5:19 02-Janie, Don't Take Your Love To Town
DR7 -0.60 dB -9.39 dB 4:58 03-Midnight In Chelsea
DR7 -0.60 dB -9.16 dB 3:24 04-Ugly
DR8 -0.60 dB -9.86 dB 4:26 05-Staring At Your Window With A Suitcase In My Hand
DR7 -0.60 dB -9.32 dB 5:15 06-Every Word Was A Piece Of My Heart
DR8 -0.60 dB -10.08 dB 6:44 07-It's Just Me
DR7 -0.60 dB -9.07 dB 4:56 08-Destination Anywhere
DR9 -1.31 dB -11.18 dB 4:04 09-Learning How To Fall
DR7 -0.60 dB -9.05 dB 4:42 10-Naked
DR9 -0.60 dB -10.73 dB 4:57 11-Little City
DR7 -0.60 dB -8.45 dB 5:00 12-August 7, 4:15
DR7 -0.60 dB -10.48 dB 4:42 13-Cold Hard Heart
––––––––––––––––––––––––––––––––––––––––

Number of tracks: 13
Official DR value: DR8

Samplerate: 44100 Hz
Channels: 2
Bits per sample: 16
Bitrate: 976 kbps
Codec: FLAC

[CUETools log; Date: 07.03.2017 2:31:00; Version: 2.1.4]
[CTDB TOCID: Oy.Lv64YqDSS8beqJ6ibEidlIjU-] found.
Track | CTDB Status
1 | (17/18) Accurately ripped
2 | (17/18) Accurately ripped
3 | (17/18) Accurately ripped
4 | (17/18) Accurately ripped
5 | (17/18) Accurately ripped
6 | (17/18) Accurately ripped
7 | (17/18) Accurately ripped
8 | (17/18) Accurately ripped
9 | (17/18) Accurately ripped
10 | (17/18) Accurately ripped
11 | (17/18) Accurately ripped
12 | (13/18) Accurately ripped
13 | (17/18) Accurately ripped
[AccurateRip ID: 001e19d2-012dfceb-d10ec20d] found.
Track [ CRC | V2 ] Status
01 [5332ea5a|49c9e12a] (10+05/15) Accurately ripped
02 [5a59b658|0f302993] (10+05/15) Accurately ripped
03 [c7aac438|96d37e2e] (10+05/15) Accurately ripped
04 [1677cf42|419ee9b4] (10+05/15) Accurately ripped
05 [4f113bf6|4ca063df] (10+05/15) Accurately ripped
06 [f773dc0e|1f16d44a] (09+05/14) Accurately ripped
07 [4a7237ee|85a6c82a] (08+05/13) Accurately ripped
08 [a16bbe03|94ca7584] (10+05/15) Accurately ripped
09 [b6fe72a7|8b9749ad] (10+05/15) Accurately ripped
10 [d7341101|598c778f] (10+05/15) Accurately ripped
11 [43e19d00|1faf2341] (10+05/15) Accurately ripped
12 [c0605edf|6f1d6bf3] (07+04/11) Accurately ripped
13 [ca8566d6|6cfdf778] (10+05/15) Accurately ripped

Track Peak [ CRC32 ] [W/O NULL] [ LOG ]
– 93,3 [E087C642] [F613C227] CRC32
01 93,3 [E9AA5975] [488AAF9C]
02 93,3 [28FD55E2] [A3492342]
03 93,3 [1EBCCE3E] [D6C376FF]
04 93,3 [C0A09278] [C8CB8016]
05 93,3 [EF416A30] [A4A33753]
06 93,3 [E240DA6D] [054160A4]
07 93,3 [EDD0D616] [A1441300]
08 93,3 [ADF2C133] [14BC1964]
09 86,0 [DD73B51F] [56928FA8]
10 93,3 [3181A196] [59D3AE83]
11 93,3 [5FA243A6] [3BD585AB]
12 93,3 [63FDCDB1] [4379E61A]
13 93,3 [E9626390] [3E7C02A2]

Jon Bon Jovi - Destination Anywhere (1997)

All thanks go to the original releaser

Bon Jovi in my Blog

Download Jon Bon Jovi - Destination Anywhere (1997):