Subcategories

Bon Jovi - Golden Ballads (2001)

Posted By: v3122
Bon Jovi - Golden Ballads (2001)

Bon Jovi - Golden Ballads (2001)
EAC | Flac(Image) + Cue + Log & MP3 CBR 320Kbps
Halahup Records, HAL026 | RU | ~ 555 or 191 Mb | Covers Included
Hard Rock / AOR

Bon Jovi is an American rock band from Sayreville, New Jersey. Formed in 1983, Bon Jovi consists of lead singer and namesake Jon Bon Jovi, pianist and keyboardist David Bryan, drummer Tico Torres, lead guitarist Phil X, and bassist Hugh McDonald. The band's lineup has remained mostly static during its history, with the only exceptions being the 1994 dismissal of bass player Alec John Such, who was unofficially replaced by Hugh McDonald, and the departure of longtime guitarist and co-songwriter Richie Sambora in 2013. Phil X and McDonald both became official members in 2016.

In 1986, Bon Jovi achieved widespread global recognition with their third album, Slippery When Wet. The band's fourth album, New Jersey was equally successful in 1988. After touring and recording non-stop during the late 1980s, the band went on hiatus following the New Jersey Tour in 1990, during which time Jon Bon Jovi and Richie Sambora both released successful solo albums. In 1992, the band returned with the album Keep the Faith. Their 2000 single "It's My Life", which followed a second hiatus, successfully introduced the band to a younger audience. Bon Jovi have been known to use different styles in their music, which has included country for their 2007 album Lost Highway.

Thus far, Bon Jovi has released 13 studio albums, plus six compilations and three live albums. The band has sold more than 130 million records worldwide and performed more than 2,700 concerts in over 50 countries for more than 34 million fans. Bon Jovi was inducted into the UK Music Hall of Fame in 2006. The band was also honored with the Award of Merit at the American Music Awards in 2004, and as songwriters and collaborators, Jon Bon Jovi and Richie Sambora were inducted into Songwriters Hall of Fame in 2009..

~ wiki
Bon Jovi - Golden Ballads (2001):

Bon Jovi - Golden Ballads (2001)

Tracklist:

01. Always [5:48]
02. Thanks You For Loving Me [5:06]
03. Blaze Of Glory [5:37]
04. Learning How To Fall [4:02]
05. Save The World [5:26]
06. Little City [3:42]
07. Wanted Dead Or Alive [5:07]
08. She's A Mysterty [5:11]
09. Midnight In Chelsea [4:58]
10. Mystery Train [5:10]
11. Bed Of Roses [6:32]
12. I'll Be There For You [5:38]
13. Cold Hard Heart [4:39]
14. Never Say Goodbye [4:48]
15. It's Just Me [4:38]
16. It's My Life [3:44]

Exact Audio Copy V1.1 from 23. June 2015

EAC extraction logfile from 21. January 2016, 20:38

BON JOVI / Golden Ballads (Russia, HAL026)

Used drive : ASUS DRW-24B3ST Adapter: 1 ID: 2

Read mode : Secure
Utilize accurate stream : Yes
Defeat audio cache : Yes
Make use of C2 pointers : No

Read offset correction : 6
Overread into Lead-In and Lead-Out : No
Fill up missing offset samples with silence : Yes
Delete leading and trailing silent blocks : No
Null samples used in CRC calculations : Yes
Used interface : Native Win32 interface for Win NT & 2000

Used output format : User Defined Encoder
Selected bitrate : 1024 kBit/s
Quality : High
Add ID3 tag : No
Command line compressor : C:\Program Files\EAC(v.1.1)\WV\wavpack.exe
Additional command line options : -h -hh -m %source%


TOC of the extracted CD

Track | Start | Length | Start sector | End sector
––––––––––––––––––––––––––––-
1 | 0:00.00 | 5:47.43 | 0 | 26067
2 | 5:47.43 | 5:05.72 | 26068 | 49014
3 | 10:53.40 | 5:37.12 | 49015 | 74301
4 | 16:30.52 | 4:02.31 | 74302 | 92482
5 | 20:33.08 | 5:25.52 | 92483 | 116909
6 | 25:58.60 | 3:41.39 | 116910 | 133523
7 | 29:40.24 | 5:06.40 | 133524 | 156513
8 | 34:46.64 | 5:11.11 | 156514 | 179849
9 | 39:58.00 | 4:57.40 | 179850 | 202164
10 | 44:55.40 | 5:09.70 | 202165 | 225409
11 | 50:05.35 | 6:31.67 | 225410 | 254801
12 | 56:37.27 | 5:38.04 | 254802 | 280155
13 | 62:15.31 | 4:38.48 | 280156 | 301053
14 | 66:54.04 | 4:48.27 | 301054 | 322680
15 | 71:42.31 | 4:37.46 | 322681 | 343501
16 | 76:20.02 | 3:44.37 | 343502 | 360338


Range status and errors

Selected range

Filename F:\BON JOVI - Golden Ballads (RU 2001 Halahup Records • HAL026)\BON JOVI - Golden Ballads (Russia, HAL026).wav

Peak level 100.0 %
Extraction speed 8.7 X
Range quality 100.0 %
Test CRC CDA8EB18
Copy CRC CDA8EB18
Copy OK

No errors occurred


AccurateRip summary

Track 1 accurately ripped (confidence 1) [EDB56441] (AR v2)
Track 2 accurately ripped (confidence 1) [DA83533A] (AR v2)
Track 3 accurately ripped (confidence 1) [7F1D87AC] (AR v2)
Track 4 accurately ripped (confidence 1) [2E7079FE] (AR v2)
Track 5 accurately ripped (confidence 1) [22B49156] (AR v2)
Track 6 accurately ripped (confidence 1) [1F2EE22B] (AR v2)
Track 7 accurately ripped (confidence 1) [4FB5F00C] (AR v2)
Track 8 accurately ripped (confidence 1) [05314C88] (AR v2)
Track 9 accurately ripped (confidence 1) [A007ADAC] (AR v2)
Track 10 accurately ripped (confidence 1) [4E977D8A] (AR v2)
Track 11 accurately ripped (confidence 1) [4E1CD370] (AR v2)
Track 12 accurately ripped (confidence 1) [CCC71A4F] (AR v2)
Track 13 accurately ripped (confidence 1) [7783FCB9] (AR v2)
Track 14 accurately ripped (confidence 1) [22B1F0E2] (AR v2)
Track 15 accurately ripped (confidence 1) [358FC81A] (AR v2)
Track 16 accurately ripped (confidence 1) [E7CA50A2] (AR v2)

All tracks accurately ripped

End of status report

==== Log checksum C64498E27D3F1A4ECCE658E65C8A1083C7CE82637600463E7FD81208CCE24713 ====

foobar2000 1.2.9 / Dynamic Range Meter 1.1.1
log date: 2017-05-06 13:38:03

––––––––––––––––––––––––––––––––––––––––
Analyzed: BON JOVI / Golden Ballads (Russia, HAL026)
––––––––––––––––––––––––––––––––––––––––

DR Peak RMS Duration Track
––––––––––––––––––––––––––––––––––––––––
DR7 -0.01 dB -9.49 dB 5:48 01-Always
DR7 0.00 dB -10.65 dB 5:06 02-Thanks You For Loving Me
DR9 0.00 dB -11.51 dB 5:37 03-Blaze Of Glory
DR9 -0.71 dB -10.53 dB 4:02 04-Learning How To Fall
DR7 -0.01 dB -8.94 dB 5:26 05-Save The World
DR8 -0.01 dB -10.53 dB 3:42 06-Little City
DR8 0.00 dB -11.26 dB 5:07 07-Wanted Dead Or Alive
DR9 -0.50 dB -10.78 dB 5:11 08-She's A Mysterty
DR7 0.00 dB -8.79 dB 4:58 09-Midnight In Chelsea
DR7 0.00 dB -8.69 dB 5:10 10-Mystery Train
DR8 0.00 dB -10.87 dB 6:32 11-Bed Of Roses
DR9 0.00 dB -10.60 dB 5:38 12-I'll Be There For You
DR7 0.00 dB -9.83 dB 4:39 13-Cold Hard Heart
DR9 0.00 dB -10.46 dB 4:48 14-Never Say Goodbye
DR8 0.00 dB -9.47 dB 4:38 15-It's Just Me
DR6 -0.50 dB -7.76 dB 3:44 16-It's My Life
––––––––––––––––––––––––––––––––––––––––

Number of tracks: 16
Official DR value: DR8

Samplerate: 44100 Hz
Channels: 2
Bits per sample: 16
Bitrate: 936 kbps
Codec: FLAC

[CUETools log; Date: 06.05.2017 13:37:52; Version: 2.1.4]
[CTDB TOCID: 5WnY19vHSkbK8bQ01KJaFEv7yEI-] found.
Track | CTDB Status
1 | (1/1) Accurately ripped
2 | (1/1) Accurately ripped
3 | (1/1) Accurately ripped
4 | (1/1) Accurately ripped
5 | (1/1) Accurately ripped
6 | (1/1) Accurately ripped
7 | (1/1) Accurately ripped
8 | (1/1) Accurately ripped
9 | (1/1) Accurately ripped
10 | (1/1) Accurately ripped
11 | (1/1) Accurately ripped
12 | (1/1) Accurately ripped
13 | (1/1) Accurately ripped
14 | (1/1) Accurately ripped
15 | (1/1) Accurately ripped
16 | (1/1) Accurately ripped
[AccurateRip ID: 002f96b7-0239d029-ee12c410] found.
Track [ CRC | V2 ] Status
01 [f83072ae|edb56441] (0+2/2) Accurately ripped
02 [9d494872|da83533a] (0+2/2) Accurately ripped
03 [697061f9|7f1d87ac] (0+2/2) Accurately ripped
04 [0459676d|2e7079fe] (0+2/2) Accurately ripped
05 [a21c368f|22b49156] (0+2/2) Accurately ripped
06 [8ff93190|1f2ee22b] (0+2/2) Accurately ripped
07 [1d172111|4fb5f00c] (0+2/2) Accurately ripped
08 [1403be1b|05314c88] (0+2/2) Accurately ripped
09 [696f8ca1|a007adac] (0+2/2) Accurately ripped
10 [d93d72d5|4e977d8a] (0+2/2) Accurately ripped
11 [7f0bc4e9|4e1cd370] (0+2/2) Accurately ripped
12 [d697dc2f|ccc71a4f] (0+2/2) Accurately ripped
13 [f2b2f3ea|7783fcb9] (0+2/2) Accurately ripped
14 [ba2b07c0|22b1f0e2] (0+2/2) Accurately ripped
15 [d0a473fb|358fc81a] (0+2/2) Accurately ripped
16 [109570a5|e7ca50a2] (0+2/2) Accurately ripped

Track Peak [ CRC32 ] [W/O NULL] [ LOG ]
– 99,9 [CDA8EB18] [833820ED] CRC32
01 99,8 [28293136] [90143710]
02 99,9 [68A296A6] [BE99AC81]
03 99,9 [6954C493] [2A54746D]
04 92,1 [A21C450D] [D1647B7B]
05 99,8 [C87FA69A] [CA99AD2D]
06 99,9 [EE2E6E6E] [E3E23F58]
07 99,9 [4C05B4F5] [D47D1295]
08 94,4 [CD12AC4D] [A953AB0B]
09 99,9 [01097B5E] [1600ECCD]
10 99,9 [77437DA0] [C1180367]
11 99,9 [CF49E950] [A827F6C9]
12 99,9 [B1A62CDC] [D126C6C2]
13 99,9 [A618C97A] [B0F4C814]
14 99,9 [F009A519] [C1F68E4F]
15 99,9 [0F2B58D5] [4BF98C87]
16 94,4 [A47EC480] [846F7273]

Bon Jovi - Golden Ballads (2001)

All thanks go to the original releaser

Bon Jovi in my Blog

Download Bon Jovi - Golden Ballads (2001):