Bon Jovi - One Wild Night: Live 1985-2001 (2001)

Posted By: v3122
Bon Jovi - One Wild Night: Live 1985-2001 (2001)

Bon Jovi - One Wild Night: Live 1985-2001 (2001)
EAC | Flac(Image) + Cue + Log & MP3 CBR 320Kbps
Island Def Jam, 548 865-2 | ~ 551 or 184 Mb | Scans(png) -> 135 Mb
Hard Rock, AOR

Die-hard Bon Jovi fans will swear on their sacred Slippery When Wet albums that Bon Jovi is by far one of the best rock bands to sing (or scream) along to, no matter where you are – in the car, on the road, or in your room, crooning into your hairbrush or anything you can get your hands on. One Wild Night: Live 1985-2001 is the perfect album for fans and newcomers alike, as it features a plentiful bounty of the band's biggest hits and most-screamable tunes. Set against the backdrop of the roars and accolades of their adoring fans at concerts across the world, the songs on this live album become even bigger hits that blast right out of your speakers, making you feel like you're part of the action. The opening track, "It's My Life," starts the Wild Night album off right, with Jon Bon Jovi singing what could be considered the band's credo: "It's my life/it's now or never/I ain't gonna live forever," as the band rocks on around him. The classic Bon Jovi tune, "Livin' on a Prayer" may be addictive enough for you to hurt your vocal chords, but Jovi pulls off the 1986 tune (from the Slippery When Wet album) seemingly without effort, working the crowd into a frenzy. Guitarist Richie Sambora struts his stuff on the live recording of "You Give Love a Bad Name" from the band's 2000 show in Zurich, Switzerland. The New York City recording of "Keep the Faith" will kick your speakers in the ass the way the band did as they nearly wore out the wild crowd at their 2000 show. The album also features a live recording of the band's popular ballad "Something to Believe In" and one of the band's coolest bad songs ever, "Wanted Dead or Alive." The crowd went nuts at the live recording of "Bad Medicine," as the band played one of the tightest sets on the album, where everyone in the band sounded like he was on fire.

by Kerry L. Smith, allmusic
Bon Jovi - One Wild Night: Live 1985-2001 (2001):

Bon Jovi - One Wild Night: Live 1985-2001 (2001)

Tracklist:

01. It's My Life [03:51]
02. Livin' On A Prayer [05:13]
03. You Give Love A Bad Name [03:53]
04. Keep The Faith [06:19]
05. Someday I'll Be Saturday Night [06:30]
06. Rockin' In The Free World [05:40]
07. Something To Believe In [06:00]
08. Wanted Dead Or Alive [06:00]
09. Runaway [04:47]
10. In And Out Of Love [06:12]
11. I Don't Like Mondays [05:37]
12. Just Older [05:13]
13. Something For The Pain [04:22]
14. Bad Medicine [04:19]
15. One Wild Night 2001 [03:44]

Exact Audio Copy V0.99 prebeta 5 from 4. May 2009

EAC extraction logfile from 3. May 2013, 9:19

BON JOVI / One Wild Night

Used drive : ASUS DRW-24B3ST Adapter: 4 ID: 0

Read mode : Secure
Utilize accurate stream : Yes
Defeat audio cache : Yes
Make use of C2 pointers : No

Read offset correction : 6
Overread into Lead-In and Lead-Out : No
Fill up missing offset samples with silence : Yes
Delete leading and trailing silent blocks : No
Null samples used in CRC calculations : Yes
Used interface : Native Win32 interface for Win NT & 2000

Used output format : User Defined Encoder
Selected bitrate : 1024 kBit/s
Quality : High
Add ID3 tag : No
Command line compressor : C:\Program Files (x86)\EAC\WV\wavpack.exe
Additional command line options : -h -hh -m %s %d


TOC of the extracted CD

Track | Start | Length | Start sector | End sector
––––––––––––––––––––––––––––-
1 | 0:00.00 | 3:51.07 | 0 | 17331
2 | 3:51.07 | 5:13.73 | 17332 | 40879
3 | 9:05.05 | 3:53.67 | 40880 | 58421
4 | 12:58.72 | 6:19.68 | 58422 | 86914
5 | 19:18.65 | 6:30.35 | 86915 | 116199
6 | 25:49.25 | 5:40.27 | 116200 | 141726
7 | 31:29.52 | 6:00.53 | 141727 | 168779
8 | 37:30.30 | 6:00.12 | 168780 | 195791
9 | 43:30.42 | 4:47.30 | 195792 | 217346
10 | 48:17.72 | 6:12.35 | 217347 | 245281
11 | 54:30.32 | 5:37.50 | 245282 | 270606
12 | 60:08.07 | 5:13.35 | 270607 | 294116
13 | 65:21.42 | 4:22.70 | 294117 | 313836
14 | 69:44.37 | 4:19.70 | 313837 | 333331
15 | 74:04.32 | 3:44.03 | 333332 | 350134


Range status and errors

Selected range

Filename S:\BON JOVI\2001- One Wild Night (DE 2001 Island Def Jam Music Group 548 865-2)\BON JOVI - One Wild Night.wav

Peak level 100.0 %
Range quality 99.9 %
Test CRC DA2B926B
Copy CRC DA2B926B
Copy OK

No errors occurred


AccurateRip summary

Track 1 accurately ripped (confidence 44) [1616DDCD]
Track 2 accurately ripped (confidence 44) [2A83D15E]
Track 3 accurately ripped (confidence 45) [D7E1948F]
Track 4 accurately ripped (confidence 43) [35C0A066]
Track 5 accurately ripped (confidence 44) [1ADF5F70]
Track 6 accurately ripped (confidence 44) [8C278C4F]
Track 7 accurately ripped (confidence 45) [D24CD2DA]
Track 8 accurately ripped (confidence 44) [A5375C5A]
Track 9 accurately ripped (confidence 45) [5C5665A9]
Track 10 accurately ripped (confidence 45) [520C9B3B]
Track 11 accurately ripped (confidence 44) [0535316E]
Track 12 accurately ripped (confidence 45) [DDBF707D]
Track 13 accurately ripped (confidence 45) [6CB2BE6E]
Track 14 accurately ripped (confidence 43) [AD4B0F5B]
Track 15 accurately ripped (confidence 45) [A44D18E9]

All tracks accurately ripped

End of status report

foobar2000 1.2.9 / Dynamic Range Meter 1.1.1
log date: 2017-03-22 17:56:10

––––––––––––––––––––––––––––––––––––––––
Analyzed: BON JOVI / One Wild Night
––––––––––––––––––––––––––––––––––––––––

DR Peak RMS Duration Track
––––––––––––––––––––––––––––––––––––––––
DR6 0.00 dB -7.56 dB 3:51 01-It's My Life
DR7 0.00 dB -8.32 dB 5:14 02-Livin' On A Prayer
DR7 0.00 dB -8.21 dB 3:54 03-You Give Love A Bad Name
DR6 0.00 dB -7.52 dB 6:20 04-Keep The Faith
DR7 0.00 dB -9.18 dB 6:30 05-Someday I'll Be Saturday Night
DR7 0.00 dB -8.01 dB 5:40 06-Rockin' In The Free World
DR7 0.00 dB -9.70 dB 6:01 07-Something To Believe In
DR7 0.00 dB -9.46 dB 6:00 08-Wanted Dead Or Alive
DR7 0.00 dB -8.24 dB 4:47 09-Runaway
DR7 0.00 dB -8.49 dB 6:12 10-In And Out Of Love
DR7 0.00 dB -9.70 dB 5:38 11-I Don't Like Mondays
DR7 0.00 dB -8.75 dB 5:13 12-Just Older
DR7 0.00 dB -9.12 dB 4:23 13-Something For The Pain
DR7 0.00 dB -7.77 dB 4:20 14-Bad Medicine
DR7 0.00 dB -7.67 dB 3:44 15-One Wild Night 2001
––––––––––––––––––––––––––––––––––––––––

Number of tracks: 15
Official DR value: DR7

Samplerate: 44100 Hz
Channels: 2
Bits per sample: 16
Bitrate: 961 kbps
Codec: FLAC

[CUETools log; Date: 22.03.2017 17:55:59; Version: 2.1.4]
[CTDB TOCID: t_eNn.aOMXjw9_yBhbL04VmsgPM-] found.
Track | CTDB Status
1 | (135/168) Accurately ripped
2 | (136/168) Accurately ripped
3 | (135/168) Accurately ripped
4 | (134/168) Accurately ripped
5 | (137/168) Accurately ripped
6 | (136/168) Accurately ripped
7 | (137/168) Accurately ripped
8 | (136/168) Accurately ripped
9 | (134/168) Accurately ripped
10 | (135/168) Accurately ripped
11 | (136/168) Accurately ripped
12 | (161/168) Accurately ripped
13 | (137/168) Accurately ripped
14 | (135/168) Accurately ripped
15 | (133/168) Accurately ripped
[AccurateRip ID: 002b7f91-01f0e8d4-d0123c0f] found.
Track [ CRC | V2 ] Status
01 [1616ddcd|60abd322] (046+056/180) Accurately ripped
02 [2a83d15e|d6c524aa] (046+056/178) Accurately ripped
03 [d7e1948f|597748a4] (047+056/180) Accurately ripped
04 [35c0a066|de20732b] (045+056/176) Accurately ripped
05 [1adf5f70|8bcf4ae2] (046+056/178) Accurately ripped
06 [8c278c4f|5552d733] (046+055/178) Accurately ripped
07 [d24cd2da|c0212394] (047+053/175) Accurately ripped
08 [a5375c5a|56b00423] (046+055/175) Accurately ripped
09 [5c5665a9|64b5ec0f] (047+055/176) Accurately ripped
10 [520c9b3b|e9746234] (047+055/175) Accurately ripped
11 [0535316e|6ff12135] (046+055/175) Accurately ripped
12 [ddbf707d|830d9a7e] (047+054/175) Accurately ripped
13 [6cb2be6e|d2377b62] (047+053/172) Accurately ripped
14 [ad4b0f5b|21108e14] (045+052/170) Accurately ripped
15 [a44d18e9|76f14144] (047+053/173) Accurately ripped
Offsetted by -1886:
01 [80cab981] (002/180) Accurately ripped
02 [76705f25] (002/178) Accurately ripped
03 [9bbeb0d9] (002/180) Accurately ripped
04 [1a06d60f] (002/176) Accurately ripped
05 [e346cfb4] (002/178) Accurately ripped
06 [12158ab0] (002/178) Accurately ripped
07 [1f4d97c1] (002/175) Accurately ripped
08 [0590df2e] (002/175) Accurately ripped
09 [7a2ac229] (002/176) Accurately ripped
10 [b0f41241] (002/175) Accurately ripped
11 [cb62aac6] (002/175) Accurately ripped
12 [7ecaa217] (002/175) Accurately ripped
13 [8875adc0] (002/172) Accurately ripped
14 [df032b7b] (002/170) Accurately ripped
15 [198b82f9] (002/173) Accurately ripped
Offsetted by -582:
01 [76849352] (009/180) Accurately ripped
02 [2c6c2c88] (009/178) Accurately ripped
03 [1d721c1d] (009/180) Accurately ripped
04 [526051e5] (009/176) Accurately ripped
05 [b549acce] (009/178) Accurately ripped
06 [1a77393b] (008/178) Accurately ripped
07 [9d742c4e] (008/175) Accurately ripped
08 [4d21081e] (008/175) Accurately ripped
09 [91857829] (008/176) Accurately ripped
10 [45ccd709] (008/175) Accurately ripped
11 [3ed58ce6] (007/175) Accurately ripped
12 [8df37ccf] (008/175) Accurately ripped
13 [8b86a718] (008/172) Accurately ripped
14 [eedbd4fb] (009/170) Accurately ripped
15 [9d5127b9] (009/173) Accurately ripped
Offsetted by 17:
01 [5b59de22] (006/180) Accurately ripped
02 [45206493] (005/178) Accurately ripped
03 [fd7e1383] (006/180) Accurately ripped
04 [9433345a] (005/176) Accurately ripped
05 [f721c41b] (005/178) Accurately ripped
06 [4e242c5e] (006/178) Accurately ripped
07 [5fa483b1] (005/175) Accurately ripped
08 [aca0b344] (004/175) Accurately ripped
09 [adeb03e9] (005/176) Accurately ripped
10 [43e43dfe] (005/175) Accurately ripped
11 [83f6e31a] (005/175) Accurately ripped
12 [2b4b8e0a] (005/175) Accurately ripped
13 [2419a3d7] (005/172) Accurately ripped
14 [916d196b] (005/170) Accurately ripped
15 [3d93cbf1] (005/173) Accurately ripped
Offsetted by -1106:
01 [d70c0524] (000/180) No match (V2 was not tested)
02 [8efdf612] (000/178) No match (V2 was not tested)
03 [e69e4ac5] (000/180) No match
04 [81a828e9] (000/176) No match (V2 was not tested)
05 [e4d2bb0a] (000/178) No match (V2 was not tested)
06 [81a6abe7] (000/178) No match (V2 was not tested)
07 [97e3f412] (000/175) No match (V2 was not tested)
08 [2c7218a6] (000/175) No match (V2 was not tested)
09 [28553d29] (000/176) No match (V2 was not tested)
10 [aee53e25] (000/175) No match (V2 was not tested)
11 [19dd91d6] (000/175) No match (V2 was not tested)
12 [ec5fedf3] (010/175) Accurately ripped
13 [3a3216ec] (000/172) No match (V2 was not tested)
14 [a42c083b] (000/170) No match (V2 was not tested)
15 [ce739959] (000/173) No match (V2 was not tested)
Offsetted by -822:
01 [83b70c82] (000/180) No match (V2 was not tested)
02 [bddc50f9] (000/178) No match (V2 was not tested)
03 [f3479d0c] (000/180) No match
04 [f8a46635] (000/176) No match (V2 was not tested)
05 [1746017e] (000/178) No match (V2 was not tested)
06 [d7b0da02] (000/178) No match (V2 was not tested)
07 [aea774eb] (000/175) No match (V2 was not tested)
08 [b751e2be] (000/175) No match (V2 was not tested)
09 [20dadc29] (000/176) No match (V2 was not tested)
10 [9533dd39] (000/175) No match (V2 was not tested)
11 [d7eacfa6] (000/175) No match (V2 was not tested)
12 [ceb1db9f] (002/175) Accurately ripped
13 [41254ba8] (000/172) No match (V2 was not tested)
14 [3c0a55fb] (000/170) No match (V2 was not tested)
15 [65a74839] (000/173) No match (V2 was not tested)
Offsetted by -819:
01 [afb9d905] (000/180) No match (V2 was not tested)
02 [62154be2] (000/178) No match (V2 was not tested)
03 [bf8373bf] (000/180) No match
04 [635d25f4] (000/176) No match (V2 was not tested)
05 [f2d9406f] (000/178) No match (V2 was not tested)
06 [90cb1471] (000/178) No match (V2 was not tested)
07 [8b14940e] (000/175) No match (V2 was not tested)
08 [7c64799c] (000/175) No match (V2 was not tested)
09 [98a9cae9] (000/176) No match (V2 was not tested)
10 [4768f9f2] (000/175) No match (V2 was not tested)
11 [0c67586a] (000/175) No match (V2 was not tested)
12 [9115e0d6] (002/175) Accurately ripped
13 [25468333] (000/172) No match (V2 was not tested)
14 [9179c12b] (000/170) No match (V2 was not tested)
15 [265967d1] (000/173) No match (V2 was not tested)
Offsetted by -637:
01 [5245eb6c] (002/180) Accurately ripped
02 [a89dff81] (000/178) No match (V2 was not tested)
03 [1e2bd317] (002/180) Accurately ripped
04 [adcfebe2] (002/176) Accurately ripped
05 [fbbe2ae1] (002/178) Accurately ripped
06 [821f35b3] (002/178) Accurately ripped
07 [7bf6f168] (002/175) Accurately ripped
08 [dacc3a38] (002/175) Accurately ripped
09 [a7b3b469] (002/176) Accurately ripped
10 [82a9c874] (002/175) Accurately ripped
11 [d1ea6c32] (002/175) Accurately ripped
12 [a21f1d34] (002/175) Accurately ripped
13 [dfd05779] (002/172) Accurately ripped
14 [d08bd28b] (000/170) No match (V2 was not tested)
15 [25e4e481] (002/173) Accurately ripped
Offsetted by -173:
01 [2a8c3041] (000/180) No match (V2 was not tested)
02 [8ad4f925] (000/178) No match (V2 was not tested)
03 [334408ce] (000/180) No match
04 [281919f2] (000/176) No match (V2 was not tested)
05 [a4b431d1] (000/178) No match (V2 was not tested)
06 [13a811b6] (000/178) No match (V2 was not tested)
07 [7255cae5] (000/175) No match (V2 was not tested)
08 [96076058] (000/175) No match (V2 was not tested)
09 [b4b94869] (000/176) No match (V2 was not tested)
10 [2d6b22e4] (000/175) No match (V2 was not tested)
11 [dd27b7f2] (000/175) No match (V2 was not tested)
12 [13e243c4] (005/175) Accurately ripped
13 [5e8c90c9] (000/172) No match (V2 was not tested)
14 [6e873f8b] (000/170) No match (V2 was not tested)
15 [e6d7fb01] (000/173) No match (V2 was not tested)
Offsetted by -54:
01 [f5223c24] (000/180) No match (V2 was not tested)
02 [01fd4469] (000/178) No match (V2 was not tested)
03 [a09acea6] (000/180) No match (V2 was not tested)
04 [b1cd2511] (000/176) No match (V2 was not tested)
05 [aa84f27e] (000/178) No match (V2 was not tested)
06 [8d5f71c5] (000/178) No match (V2 was not tested)
07 [4d90a120] (000/175) No match (V2 was not tested)
08 [c9e8c0be] (000/175) No match (V2 was not tested)
09 [efc99c29] (000/176) No match (V2 was not tested)
10 [ca509639] (000/175) No match (V2 was not tested)
11 [547393a6] (000/175) No match (V2 was not tested)
12 [32b7129f] (000/175) No match (V2 was not tested)
13 [625cd6a8] (000/172) No match (V2 was not tested)
14 [ab7585fb] (000/170) No match (V2 was not tested)
15 [17c6e039] (000/173) No match (V2 was not tested)

Track Peak [ CRC32 ] [W/O NULL] [ LOG ]
– 99,9 [DA2B926B] [354F11F6] CRC32
01 99,9 [B60AA6E5] [941F4EB5]
02 99,9 [753D18F1] [AE475F1E]
03 99,9 [3CE5B67C] [1BAF5EA8]
04 99,9 [CBAAC678] [054E1B03]
05 99,9 [35F8588F] [A5D735FB]
06 99,9 [5768CC62] [5A928A3F]
07 99,9 [13460810] [A0445ABA]
08 99,9 [D4FF52A0] [73FC04E4]
09 99,9 [DCE0D27D] [5739E10B]
10 99,9 [23BDA196] [D34CB56F]
11 99,9 [3C92CB28] [E4700099]
12 99,9 [40C265E5] [0C68861B]
13 99,9 [545C29A6] [DBD2C078]
14 99,9 [CEA34677] [31978491]
15 99,9 [E44FF136] [4623DF4F]

Bon Jovi - One Wild Night: Live 1985-2001 (2001)

All thanks go to the original releaser

Bon Jovi in my Blog

Download Bon Jovi - One Wild Night: Live 1985-2001 (2001):