Subcategories

Bon Jovi - The Albums (2017) [Vinyl Rip 16/44 & mp3-320, Limited Edition Box set]

Posted By: v3122
Bon Jovi - The Albums (2017) [Vinyl Rip 16/44 & mp3-320, Limited Edition Box set]

Bon Jovi - The Albums (2017)
17 x Vinyl Rip 16/44 | Flac(Image + Cue) > 6038 Mb
MP3 CBR 320Kbps > 2132 Mb | Artwork(png) > 6459 Mb
Island Records, 00602547028099 | Remastered
Hard Rock, Soft Rock

Released in order to coincide with the kick-off of the band's This House Is Not For Sale Tour in North America, this is Bon Jovi's career-spanning box set, a massive and impressive collectible item. Including all 14 studio albums across 25 vinyl LPs, plus an extra disc exclusive to this release, the box set, also, features Jon Bon Jovi's 2 solo records. Super-comprehensive, then, and exceptionally designed, too. Every vinyl album preserves the original look and sound of the originals, with all LP jackets being exact replicas of the original album covers, inner sleeves, with unique custom labels. This is the first time the band's albums from the 2000s are pressed on vinyl, while others receive their first-ever US pressing, or they are being pressed for the first time in decades. Just like any self-respecting box, it features its contents cut on 180-gram heavyweight wax. Additionally, all songs have been mastered to the band's specifications to ensure exceptional audio quality (fans from the '80s, prepare to be blown away by the refreshed old sound - I know I was, and I do not get easily impressed).

Bon Jovi's discography has been boxed in the past, however, this is the first time their entire catalogue is presented in one, all-inclusive release. I am very pleased with the box overall, yet, there are two things I would improve. Although the matte finish is nice, I would rather have the covers glossy - it looks better and more luxurious. More importantly, what is greatly missing from such a pristine package, is a book to accompany the vinyls, with rare photos, liner notes etc. Similar box sets from smaller artists have one, Bon Jovi's box had to have one. Special mention for my favourite set by them, presented here as a 2LP set, as was originally intended back in the day. It holds the record for the hard rock/glam metal album to spawn the most US Top 10 hits (5), it is certified 7x Platinum by the RIAA, and was the first American album ever released in USSR (the answer in the photos below). With over 130 million albums sold, numerous hits, and nearly 3,000 concerts performed in 50 countries for over 35 million fans, Bon Jovi is simply one of the world's most successful bands ever, and "Bon Jovi-The Albums" is simply a monumental release.

Note: Potential buyers should note this: Prior to release, the box set was available on amazon.com for $331.34, and on amazon.co.uk for £199.81 (=$250). While searching, I found it on amazon.fr for €281 (=$300). At the time of writing, it costs $443.64, so, make sure you check different websites before ordering.

List of contents:

1. Bon Jovi (1984) - single LP
2. 7800° Fahrenheit (1985) - single LP
3. Slippery when wet (1986) - single LP
4. New Jersey (1988) - 2LP gatefold
5. Keep the faith (1992) - 2LP gatefold*
6. These days (1995) - 2LP with 2 bonus tracks previously unavailable*
7. Crush (2000) - 2LP gatefold**
8. Bounce (2002) - single LP**
9. Have a nice day (2005) - 2LP gatefold**
10. Lost highway (2007) - single LP**
11. The circle (2009) - 2LP gatefold**
12. What about now (2013) - 2LP gatefold**
13. Burning bridges (2015) - single LP**
14. This house is not for sale (2016) - single LP gatefold
15. Extras - exclusive 10-track compilation featuring “Always” and international rarities
16. Blaze of glory (Jon Bon Jovi) (1990) - single LP
17. Destination anywhere (Jon Bon Jovi) (1997) - 2LP gatefold**

* first-ever vinyl US pressing
** first time on vinyl

By Scarlet Jupiter, amazon
Bon Jovi - The Albums (2017):

Bon Jovi - The Albums (2017) [Vinyl Rip 16/44 & mp3-320, Limited Edition Box set]

Tracklist VNL01 - 1984 Bon Jovi:

LP1-A1 –Bon Jovi Runaway
LP1-A2 –Bon Jovi Roulette
LP1-A3 –Bon Jovi She Don't Know Me
LP1-A4 –Bon Jovi Shot Through The Heart
LP1-A5 –Bon Jovi Love Lies
LP1-B1 –Bon Jovi Breakout
LP1-B2 –Bon Jovi Burning For Love
LP1-B3 –Bon Jovi Come Back
LP1-B4 –Bon Jovi Get Ready

foobar2000 1.2.9 / Dynamic Range Meter 1.1.1
log date: 2017-11-23 01:23:04

––––––––––––––––––––––––––––––––––––––––
Analyzed: Bon Jovi / Bon Jovi
––––––––––––––––––––––––––––––––––––––––

DR Peak RMS Duration Track
––––––––––––––––––––––––––––––––––––––––
DR12 -0.14 dB -14.10 dB 3:51 01-Runaway
DR11 -0.52 dB -13.95 dB 4:41 02-Roulette
DR12 -0.92 dB -14.66 dB 4:07 03-She don't know me
DR12 -1.55 dB -16.08 dB 4:22 04-Shot through the heart
DR12 -0.83 dB -15.55 dB 4:09 05-Love lies
DR12 -0.29 dB -14.17 dB 5:23 06-Breakout
DR12 -0.95 dB -14.19 dB 3:54 07-Burning for love
DR13 -0.02 dB -14.08 dB 3:59 08-Come back
DR12 0.00 dB -13.80 dB 4:14 09-Get ready
––––––––––––––––––––––––––––––––––––––––

Number of tracks: 9
Official DR value: DR12

Samplerate: 44100 Hz
Channels: 2
Bits per sample: 16
Bitrate: 937 kbps
Codec: FLAC
================================================================================



Bon Jovi - The Albums (2017) [Vinyl Rip 16/44 & mp3-320, Limited Edition Box set]

Tracklist VNL02 - 1985 7800 Fahrenheit:

LP2-A1 –Bon Jovi In And Out Of Love
LP2-A2 –Bon Jovi Price Of Love
LP2-A3 –Bon Jovi Only Lonely
LP2-A4 –Bon Jovi King Of The Mountain
LP2-A5 –Bon Jovi Silent Night
LP2-B1 –Bon Jovi Tokyo Road
LP2-B2 –Bon Jovi Hardest Part Is The Night
LP2-B3 –Bon Jovi Always Run To You
LP2-B4 –Bon Jovi To The Fire
LP2-B5 –Bon Jovi Secret Dreams

foobar2000 1.2.9 / Dynamic Range Meter 1.1.1
log date: 2017-11-23 01:23:20

––––––––––––––––––––––––––––––––––––––––
Analyzed: Bon Jovi / 7800° Fahrenheit
––––––––––––––––––––––––––––––––––––––––

DR Peak RMS Duration Track
––––––––––––––––––––––––––––––––––––––––
DR12 -0.85 dB -14.43 dB 4:28 01-In And Out Of Love
DR12 -0.10 dB -14.39 dB 4:16 02-Price Of Love
DR12 -0.33 dB -14.51 dB 5:03 03-Only Lonely
DR12 -0.12 dB -13.99 dB 3:56 04-King Of The Mountain
DR12 -0.41 dB -15.60 dB 5:06 05-Silent Night
DR13 0.00 dB -15.53 dB 5:43 06-Tokyo Road
DR12 -0.10 dB -14.43 dB 4:27 07-Hardest Part Is The Night
DR12 -0.03 dB -13.98 dB 5:03 08-Always Run To You
DR12 -0.22 dB -14.19 dB 4:30 09-To The Fire
DR12 -0.06 dB -14.12 dB 4:58 10-Secret Dreams
––––––––––––––––––––––––––––––––––––––––

Number of tracks: 10
Official DR value: DR12

Samplerate: 44100 Hz
Channels: 2
Bits per sample: 16
Bitrate: 932 kbps
Codec: FLAC
================================================================================



Bon Jovi - The Albums (2017) [Vinyl Rip 16/44 & mp3-320, Limited Edition Box set]

Tracklist VNL03 - 1986 Slippery When Wet:

LP3-A1 –Bon Jovi Let It Rock
LP3-A2 –Bon Jovi You Give Love A Bad Name
LP3-A3 –Bon Jovi Livin' On A Prayer
LP3-A4 –Bon Jovi Social Disease
LP3-A5 –Bon Jovi Wanted Dead Or Alive
LP3-B1 –Bon Jovi Raise Your Hands
LP3-B2 –Bon Jovi Without Love
LP3-B3 –Bon Jovi I'd DIe For You
LP3-B4 –Bon Jovi Never Say Goodbye
LP3-B5 –Bon Jovi Wild In The Streets

foobar2000 1.2.9 / Dynamic Range Meter 1.1.1
log date: 2017-11-23 01:23:34

––––––––––––––––––––––––––––––––––––––––
Analyzed: Bon Jovi / Slippery When Wet
––––––––––––––––––––––––––––––––––––––––

DR Peak RMS Duration Track
––––––––––––––––––––––––––––––––––––––––
DR11 -0.75 dB -13.36 dB 5:25 01-Let It Rock
DR11 -0.08 dB -12.93 dB 3:43 02-You Give Love A Bad Name
DR11 -0.34 dB -13.20 dB 4:09 03-Livin' On A Prayer
DR11 -0.85 dB -13.37 dB 4:20 04-Social Disease
DR11 -0.60 dB -14.73 dB 5:07 05-Wanted Dead Or Alive
DR10 -0.74 dB -12.95 dB 4:17 06-Raise Your Hands
DR11 -0.53 dB -12.61 dB 3:30 07-Without Love
DR11 -0.28 dB -13.14 dB 4:31 08-I'd Die For You
DR11 -1.28 dB -14.31 dB 4:49 09-Never Say Goodbye
DR11 -1.60 dB -13.74 dB 3:57 10-Wild In The Streets
––––––––––––––––––––––––––––––––––––––––

Number of tracks: 10
Official DR value: DR11

Samplerate: 44100 Hz
Channels: 2
Bits per sample: 16
Bitrate: 969 kbps
Codec: FLAC
================================================================================



Bon Jovi - The Albums (2017) [Vinyl Rip 16/44 & mp3-320, Limited Edition Box set]

Tracklist VNL04 - 1988 New Jersey:

LP4-A1 –Bon Jovi Lay Your Hands On Me
LP4-A2 –Bon Jovi Bad Medicine
LP4-B1 –Bon Jovi Born To Be My Baby
LP4-B2 –Bon Jovi Living In Sin
LP4-B3 –Bon Jovi Blood On Blood
LP4-C1 –Bon Jovi Homebound Train
LP4-C2 –Bon Jovi Wild Is The Wind
LP4-C3 –Bon Jovi Ride Cowboy Ride
LP4-C4 –Bon Jovi Stick To Your Guns
LP4-D1 –Bon Jovi I'll Be There For You
LP4-D2 –Bon Jovi 99 In The Shade
LP4-D3 –Bon Jovi Love For Sale

foobar2000 1.2.9 / Dynamic Range Meter 1.1.1
log date: 2017-11-23 01:23:50

––––––––––––––––––––––––––––––––––––––––
Analyzed: Bon Jovi / New Jersey
––––––––––––––––––––––––––––––––––––––––

DR Peak RMS Duration Track
––––––––––––––––––––––––––––––––––––––––
DR12 -0.02 dB -14.34 dB 6:00 01-Lay Your Hands On Me
DR12 0.00 dB -13.72 dB 5:15 02-Bad Medicine
DR12 0.00 dB -13.43 dB 4:40 03-Born To Be My Baby
DR13 -0.68 dB -15.11 dB 4:39 04-Living In Sin
DR11 -0.72 dB -14.21 dB 6:16 05-Blood On Blood
DR11 -1.33 dB -14.52 dB 5:11 06-Homebound Train
DR12 0.00 dB -14.22 dB 5:09 07-Wild Is The Wind
DR14 -7.03 dB -31.24 dB 1:25 08-Ride Cowboy Ride
DR12 -0.63 dB -14.54 dB 4:44 09-Stick To Your Guns
DR12 0.00 dB -14.36 dB 5:47 10-I'll Be There For You
DR12 -0.91 dB -13.81 dB 4:30 11-99 In The Shade
DR16 -2.25 dB -20.71 dB 4:04 12-Love For Sale
––––––––––––––––––––––––––––––––––––––––

Number of tracks: 12
Official DR value: DR12

Samplerate: 44100 Hz
Channels: 2
Bits per sample: 16
Bitrate: 919 kbps
Codec: FLAC
================================================================================



Bon Jovi - The Albums (2017) [Vinyl Rip 16/44 & mp3-320, Limited Edition Box set]

Tracklist VNL05 - 1990 Keep The Faith:

LP5-A1 –Bon Jovi I Believe
LP5-A2 –Bon Jovi Keep The Faith
LP5-A3 –Bon Jovi I'll Sleep When I'm Dead
LP5-B1 –Bon Jovi In These Arms
LP5-B2 –Bon Jovi Bed Of Roses
LP5-B3 –Bon Jovi If I Was Your Mother
LP5-C1 –Bon Jovi Dry County
LP5-C2 –Bon Jovi Woman In Love
LP5-C3 –Bon Jovi Fear
LP5-D1 –Bon Jovi I Want You
LP5-D2 –Bon Jovi Blame It On The Love Of Rock & Roll

foobar2000 1.2.9 / Dynamic Range Meter 1.1.1
log date: 2017-11-23 01:24:07

––––––––––––––––––––––––––––––––––––––––
Analyzed: Bon Jovi / Blaze Of Glory - Young Guns II
––––––––––––––––––––––––––––––––––––––––

DR Peak RMS Duration Track
––––––––––––––––––––––––––––––––––––––––
DR12 0.00 dB -14.65 dB 5:06 01-Billy Get Your Guns
DR13 -0.50 dB -15.61 dB 5:10 02-Miracle
DR14 0.00 dB -16.43 dB 5:44 03-Blaze Of Glory
DR11 -3.19 dB -17.58 dB 2:35 04-Blood Money
DR12 -0.32 dB -14.84 dB 5:54 05-Santa Fe
DR12 -1.74 dB -17.65 dB 7:03 06-Justice In The Barrel
DR12 -0.05 dB -14.37 dB 4:54 07-Never Say Die
DR13 -2.02 dB -17.70 dB 2:29 08-You Really Got Me Now
DR12 -0.20 dB -14.64 dB 4:39 09-Bang A Drum
DR12 -0.66 dB -15.31 dB 4:39 10-Dyin' Ain't Much Of A Livin'
DR12 -0.31 dB -16.05 dB 1:17 11-Guano City
––––––––––––––––––––––––––––––––––––––––

Number of tracks: 11
Official DR value: DR12

Samplerate: 44100 Hz
Channels: 2
Bits per sample: 16
Bitrate: 883 kbps
Codec: FLAC
================================================================================



Bon Jovi - The Albums (2017) [Vinyl Rip 16/44 & mp3-320, Limited Edition Box set]

Tracklist VNL06 - 1992 These Days:

LP6-A1 –Bon Jovi Hey God
LP6-A2 –Bon Jovi Something For The Pain
LP6-A3 –Bon Jovi This Ain't A Love Song
LP6-B1 –Bon Jovi These Days
LP6-B2 –Bon Jovi Lie To Me
LP6-B3 –Bon Jovi Damned
LP6-C1 –Bon Jovi My Guitar Lies Bleeding In My Arms
LP6-C2 –Bon Jovi (It's Hard) Letting You Go
LP6-C3 –Bon Jovi Hearts Breaking Even
LP6-C4 –Bon Jovi Something To Believe In
LP6-D1 –Bon Jovi If That's What It Takes
LP6-D2 –Bon Jovi Diamond Ring
LP6-D3 –Bon Jovi All I Want Is Everything
LP6-D4 –Bon Jovi Bitter Wine

foobar2000 1.2.9 / Dynamic Range Meter 1.1.1
log date: 2017-11-23 01:24:30

––––––––––––––––––––––––––––––––––––––––
Analyzed: Bon Jovi / Keep The Faith
––––––––––––––––––––––––––––––––––––––––

DR Peak RMS Duration Track
––––––––––––––––––––––––––––––––––––––––
DR11 -0.04 dB -13.83 dB 5:47 01-I Believe
DR11 -0.43 dB -14.15 dB 5:47 02-Keep The Faith
DR11 -0.60 dB -14.01 dB 4:42 03-I'll Sleep When I'm Dead
DR11 -1.27 dB -14.53 dB 5:19 04-In These Arms
DR11 -0.61 dB -14.94 dB 6:34 05-Bed Of Roses
DR12 0.00 dB -14.87 dB 4:26 06-If I Was Your Mother
DR12 0.00 dB -15.22 dB 9:52 07-Dry County
DR11 -0.23 dB -12.69 dB 3:49 08-Woman In Love
DR12 -0.27 dB -13.48 dB 3:06 09-Fear
DR11 -0.15 dB -13.82 dB 5:38 10-I Want You
DR11 0.00 dB -14.00 dB 4:24 11-Blame It On The Love Of Rock & Roll
DR12 -0.17 dB -15.16 dB 5:49 12-Little Bit Of Soul
––––––––––––––––––––––––––––––––––––––––

Number of tracks: 12
Official DR value: DR12

Samplerate: 44100 Hz
Channels: 2
Bits per sample: 16
Bitrate: 887 kbps
Codec: FLAC
================================================================================



Bon Jovi - The Albums (2017) [Vinyl Rip 16/44 & mp3-320, Limited Edition Box set]

Tracklist VNL07 - 1995 Crush:

LP7-A1 –Bon Jovi It's My Life
LP7-A2 –Bon Jovi Say It Isn't So
LP7-A3 –Bon Jovi Thank You For Loving Me
LP7-B1 –Bon Jovi Two Story Town
LP7-B2 –Bon Jovi Next 100 Years
LP7-B3 –Bon Jovi Just Older
LP7-C1 –Bon Jovi Mystery Train
LP7-C2 –Bon Jovi Save The World
LP7-C3 –Bon Jovi Captain Crash & The Beauty Queen From Mars
LP7-D1 –Bon Jovi She's A Mystery
LP7-D2 –Bon Jovi I Got The Girl
LP7-D3 –Bon Jovi One Wild Night

foobar2000 1.2.9 / Dynamic Range Meter 1.1.1
log date: 2017-11-23 01:24:49

––––––––––––––––––––––––––––––––––––––––
Analyzed: Bon Jovi / These Days
––––––––––––––––––––––––––––––––––––––––

DR Peak RMS Duration Track
––––––––––––––––––––––––––––––––––––––––
DR12 0.00 dB -13.34 dB 6:11 01-Hey God
DR12 -0.41 dB -14.55 dB 4:48 02-Something For The Pain
DR12 -0.71 dB -15.52 dB 5:06 03-This Ain't A Love Song
DR12 0.00 dB -14.55 dB 6:26 04-These Days
DR11 0.00 dB -13.92 dB 5:34 05-Lie To Me
DR11 -0.36 dB -13.68 dB 4:36 06-Damned
DR12 -0.18 dB -14.97 dB 5:42 07-My Guitar Lies Bleeding In My Arms
DR11 -1.36 dB -16.57 dB 5:52 08-(It's Hard) Letting You Go
DR11 -0.30 dB -13.52 dB 5:07 09-Hearts Breaking Even
DR12 -0.96 dB -15.26 dB 5:23 10-Something To Believe In
DR12 -0.42 dB -13.97 dB 5:17 11-If That's What It Takes
DR12 -0.74 dB -14.66 dB 3:49 12-Diamond Ring
DR11 0.00 dB -13.72 dB 5:16 13-All I Want Is Everything
DR12 -0.42 dB -15.83 dB 4:36 14-Bitter Wine
––––––––––––––––––––––––––––––––––––––––

Number of tracks: 14
Official DR value: DR12

Samplerate: 44100 Hz
Channels: 2
Bits per sample: 16
Bitrate: 864 kbps
Codec: FLAC
================================================================================



Bon Jovi - The Albums (2017) [Vinyl Rip 16/44 & mp3-320, Limited Edition Box set]

Tracklist VNL08 - 1997 Bounce:

LP8-A1 –Bon Jovi Undivided
LP8-A2 –Bon Jovi Everyday
LP8-A3 –Bon Jovi The Distance
LP8-A4 –Bon Jovi Joey
LP8-A5 –Bon Jovi Misunderstood
LP8-A6 –Bon Jovi All About Lovin' You
LP8-B1 –Bon Jovi Hook Me Up
LP8-B2 –Bon Jovi Right Side Of Wrong
LP8-B3 –Bon Jovi Love Me Back To Life
LP8-B4 –Bon Jovi You Had Me From Hello
LP8-B5 –Bon Jovi Bounce
LP8-B6 –Bon Jovi Open All Night

foobar2000 1.2.9 / Dynamic Range Meter 1.1.1
log date: 2017-11-23 01:25:09

––––––––––––––––––––––––––––––––––––––––
Analyzed: Jon Bon Jovi / Destination Anywhere
––––––––––––––––––––––––––––––––––––––––

DR Peak RMS Duration Track
––––––––––––––––––––––––––––––––––––––––
DR12 0.00 dB -14.30 dB 4:31 01-Queen Of New Orleans
DR12 -0.15 dB -14.68 dB 5:18 02-Janie, Don't Take Your Love To Town
DR13 -0.31 dB -15.90 dB 4:58 03-Midnight In Chelsea
DR13 -0.84 dB -15.34 dB 3:24 04-Ugly
DR13 -0.55 dB -14.73 dB 4:26 05-Staring At Your Window With A Suitcase In My Hand
DR12 -0.12 dB -14.75 dB 5:16 06-Every Word Was A Piece Of My Heart
DR14 0.00 dB -15.52 dB 6:46 07-It's Just Me
DR12 -0.01 dB -14.32 dB 4:56 08-Destination Anywhere
DR12 -0.47 dB -14.72 dB 4:04 09-Learning How To Fall
DR11 -0.84 dB -14.37 dB 4:44 10-Naked
DR12 -1.77 dB -15.63 dB 4:58 11-Little City
DR12 -0.18 dB -13.50 dB 4:58 12-August 7, 4:15
DR13 -1.98 dB -17.88 dB 4:44 13-Cold Hard Heart
––––––––––––––––––––––––––––––––––––––––

Number of tracks: 13
Official DR value: DR12

Samplerate: 44100 Hz
Channels: 2
Bits per sample: 16
Bitrate: 904 kbps
Codec: FLAC
================================================================================



Bon Jovi - The Albums (2017) [Vinyl Rip 16/44 & mp3-320, Limited Edition Box set]

Tracklist VNL09 - 2000 Have A Nice Day:

LP9-A1 –Bon Jovi Have A Nice Day
LP9-A2 –Bon Jovi I Want To Be Loved
LP9-A3 –Bon Jovi Welcome To Wherever You Are
LP9-B1 –Bon Jovi Who Says You Can't Go Home
LP9-B2 –Bon Jovi Last Man Standing
LP9-B3 –Bon Jovi Bells Of Freedom
LP9-C1 –Bon Jovi Wildflower
LP9-C2 –Bon Jovi Last Cigarette
LP9-C3 –Bon Jovi I Am
LP9-C4 –Bon Jovi Complicated
LP9-D1 –Bon Jovi Novocaine
LP9-D2 –Bon Jovi Story Of My Life
LP9-D3 –Bon Jovi Who Says You Can't Go Home

foobar2000 1.2.9 / Dynamic Range Meter 1.1.1
log date: 2017-11-23 01:25:25

––––––––––––––––––––––––––––––––––––––––
Analyzed: Bon Jovi / Crush
––––––––––––––––––––––––––––––––––––––––

DR Peak RMS Duration Track
––––––––––––––––––––––––––––––––––––––––
DR10 -0.03 dB -12.07 dB 3:44 01-It's My Life
DR10 0.00 dB -12.99 dB 3:33 02-Say It Isn't So
DR11 -0.70 dB -15.17 dB 5:11 03-Thank You For Loving Me
DR11 -0.49 dB -14.12 dB 5:10 04-Two Story Town
DR11 -0.79 dB -13.45 dB 6:19 05-Next 100 Years
DR12 0.00 dB -13.71 dB 4:29 06-Just Older
DR10 -0.60 dB -12.61 dB 5:15 07-Mystery Train
DR10 -0.76 dB -13.26 dB 5:33 08-Save The World
DR10 -0.35 dB -12.95 dB 4:31 09-Captain Crash & The Beauty Queen From Mars
DR11 -0.74 dB -14.06 dB 5:18 10-She's A Mystery
DR10 -0.78 dB -13.04 dB 4:37 11-I Got The Girl
DR11 -0.12 dB -13.02 dB 4:46 12-One Wild Night
––––––––––––––––––––––––––––––––––––––––

Number of tracks: 12
Official DR value: DR11

Samplerate: 44100 Hz
Channels: 2
Bits per sample: 16
Bitrate: 915 kbps
Codec: FLAC
================================================================================



Bon Jovi - The Albums (2017) [Vinyl Rip 16/44 & mp3-320, Limited Edition Box set]

Tracklist VNL10 - 2002 Lost Highway:

LP10-A1 –Bon Jovi Lost Highway
LP10-A2 –Bon Jovi Summertime
LP10-A3 –Bon Jovi (You Want To) Make A Memory
LP10-A4 –Bon Jovi Whole Lot Of Leavin'
LP10-A5 –Bon Jovi We Got It Goin' On
LP10-A6 –Bon Jovi Any Other Day
LP10-B1 –Bon Jovi Seat Next To You
LP10-B2 –Bon Jovi Everybody's Broken
LP10-B3 –Bon Jovi Till We Ain't Strangers Anymore
LP10-B4 –Bon Jovi The Last Night
LP10-B5 –Bon Jovi One Step Closer
LP10-B6 –Bon Jovi I Love This Town

foobar2000 1.2.9 / Dynamic Range Meter 1.1.1
log date: 2017-11-23 01:25:42

––––––––––––––––––––––––––––––––––––––––
Analyzed: Bon Jovi / Bounce
––––––––––––––––––––––––––––––––––––––––

DR Peak RMS Duration Track
––––––––––––––––––––––––––––––––––––––––
DR11 0.00 dB -12.08 dB 3:53 01-Undivided
DR10 -1.13 dB -12.50 dB 3:00 02-Everyday
DR11 0.00 dB -12.72 dB 4:48 03-The Distance
DR10 -0.40 dB -12.44 dB 4:54 04-Joey
DR10 0.00 dB -12.18 dB 3:30 05-Misunderstood
DR11 0.00 dB -13.19 dB 3:45 06-All About Lovin' You
DR12 0.00 dB -12.86 dB 3:54 07-Hook Me Up
DR10 -0.16 dB -13.96 dB 5:50 08-Right Side Of Wrong
DR11 -1.22 dB -13.44 dB 4:09 09-Love Me Back To Life
DR11 -0.45 dB -14.83 dB 3:50 10-You Had Me From Hello
DR11 -0.34 dB -12.99 dB 3:12 11-Bounce
DR11 0.00 dB -13.54 dB 4:22 12-Open All Night
––––––––––––––––––––––––––––––––––––––––

Number of tracks: 12
Official DR value: DR11

Samplerate: 44100 Hz
Channels: 2
Bits per sample: 16
Bitrate: 888 kbps
Codec: FLAC
================================================================================



Bon Jovi - The Albums (2017) [Vinyl Rip 16/44 & mp3-320, Limited Edition Box set]

Tracklist VNL11 - 2005 The Circle:

LP11-A1 –Bon Jovi We Weren't Born To Follow
LP11-A2 –Bon Jovi When We Were Beautiful
LP11-A3 –Bon Jovi Work For The Working Man
LP11-B1 –Bon Jovi Superman Tonight
LP11-B2 –Bon Jovi Bullet
LP11-B3 –Bon Jovi Thorn In My Side
LP11-C1 –Bon Jovi Live Before You Die
LP11-C2 –Bon Jovi Brokenpromiseland
LP11-C3 –Bon Jovi Love's The Only Rule
LP11-D1 –Bon Jovi Fast Cars
LP11-D2 –Bon Jovi Happy Now
LP11-D3 –Bon Jovi Learn To Love

foobar2000 1.2.9 / Dynamic Range Meter 1.1.1
log date: 2017-11-23 01:25:58

––––––––––––––––––––––––––––––––––––––––
Analyzed: Bon Jovi / Have A Nice Day
––––––––––––––––––––––––––––––––––––––––

DR Peak RMS Duration Track
––––––––––––––––––––––––––––––––––––––––
DR11 -0.26 dB -12.31 dB 3:49 01-Have A Nice Day
DR11 0.00 dB -13.40 dB 3:49 02-I Want To Be Loved
DR11 0.00 dB -13.51 dB 3:47 03-Welcome To Wherever You Are
DR12 0.00 dB -13.21 dB 4:41 04-Who Says You Can't Go Home
DR11 -0.31 dB -13.44 dB 4:37 05-Last Man Standing
DR11 -0.89 dB -13.41 dB 4:56 06-Bells Of Freedom
DR11 -0.64 dB -13.25 dB 4:14 07-Wildflower
DR11 0.00 dB -13.74 dB 3:38 08-Last Cigarette
DR12 0.00 dB -13.16 dB 3:54 09-I Am
DR11 0.00 dB -12.87 dB 3:37 10-Complicated
DR12 -0.03 dB -14.21 dB 4:49 11-Novocaine
DR11 0.00 dB -14.22 dB 4:09 12-Story Of My Life
DR11 -0.74 dB -13.58 dB 3:53 13-Who Says You Can't Go Home
––––––––––––––––––––––––––––––––––––––––

Number of tracks: 13
Official DR value: DR11

Samplerate: 44100 Hz
Channels: 2
Bits per sample: 16
Bitrate: 948 kbps
Codec: FLAC
================================================================================



Bon Jovi - The Albums (2017) [Vinyl Rip 16/44 & mp3-320, Limited Edition Box set]

Tracklist VNL12 - 2007 What About Now:

LP12-A1 –Bon Jovi Because We Can
LP12-A2 –Bon Jovi I'm With You
LP12-A3 –Bon Jovi What About Now
LP12-B1 –Bon Jovi Pictures Of You
LP12-B2 –Bon Jovi Amen
LP12-B3 –Bon Jovi That's What The Water Made Me
LP12-C1 –Bon Jovi What's Left For Me
LP12-C2 –Bon Jovi Army Of One
LP12-C3 –Bon Jovi Thick As Thieves
LP12-D1 –Bon Jovi Beautiful World
LP12-D2 –Bon Jovi Room At The End Of The World
LP12-D3 –Bon Jovi The Fighter

foobar2000 1.2.9 / Dynamic Range Meter 1.1.1
log date: 2017-11-23 01:26:12

––––––––––––––––––––––––––––––––––––––––
Analyzed: Bon Jovi / Lost Highway
––––––––––––––––––––––––––––––––––––––––

DR Peak RMS Duration Track
––––––––––––––––––––––––––––––––––––––––
DR11 -0.21 dB -13.11 dB 4:14 01-Lost Highway
DR11 0.00 dB -13.17 dB 3:19 02-Summertime
DR11 -0.55 dB -14.07 dB 4:38 03-(You Want To) Make A Memory
DR12 0.00 dB -13.92 dB 4:18 04-Whole Lot Of Leavin'
DR12 -0.19 dB -13.99 dB 4:13 05-We Got It Going On
DR11 -0.03 dB -13.06 dB 4:02 06-Any Other Day
DR10 -0.65 dB -14.35 dB 4:20 07-Seat Next To You
DR11 -0.07 dB -13.02 dB 4:13 08-Everybody's Broken
DR10 -0.88 dB -14.41 dB 4:45 09-Till We Ain't Strangers Anymore
DR11 -0.31 dB -13.04 dB 3:33 10-The Last Night
DR11 -0.86 dB -14.37 dB 3:38 11-One Step Closer
DR11 -0.59 dB -13.03 dB 4:41 12-I Love This Town
––––––––––––––––––––––––––––––––––––––––

Number of tracks: 12
Official DR value: DR11

Samplerate: 44100 Hz
Channels: 2
Bits per sample: 16
Bitrate: 911 kbps
Codec: FLAC
================================================================================



Bon Jovi - The Albums (2017) [Vinyl Rip 16/44 & mp3-320, Limited Edition Box set]

Tracklist VNL13 - 2009 Burning Bridges:

LP13-A1 –Bon Jovi A Teardrop To The Sea
LP13-A2 –Bon Jovi We Don't Run
LP13-A3 –Bon Jovi Saturday Night Gave Me Sunday Morning
LP13-A4 –Bon Jovi We All Fall Down
LP13-A5 –Bon Jovi Blind Love
LP13-B1 –Bon Jovi Who Would You Die For
LP13-B2 –Bon Jovi Fingerprints
LP13-B3 –Bon Jovi Life Is Beautiful
LP13-B4 –Bon Jovi I'm Your Man
LP13-B5 –Bon Jovi Burning Bridges

foobar2000 1.2.9 / Dynamic Range Meter 1.1.1
log date: 2017-11-23 01:26:27

––––––––––––––––––––––––––––––––––––––––
Analyzed: Bon Jovi / The Circle
––––––––––––––––––––––––––––––––––––––––

DR Peak RMS Duration Track
––––––––––––––––––––––––––––––––––––––––
DR11 -0.10 dB -13.07 dB 4:03 01-We Weren't Born To Follow
DR12 -0.23 dB -14.12 dB 5:18 02-When We Were Beautiful
DR12 0.00 dB -13.68 dB 4:06 03-Work For The Working Man
DR12 0.00 dB -14.07 dB 5:13 04-Superman Tonight
DR12 -0.79 dB -13.28 dB 3:50 05-Bullet
DR12 -0.03 dB -13.69 dB 4:07 06-Thorn In My Side
DR12 0.00 dB -14.87 dB 4:18 07-Live Before You Die
DR12 0.00 dB -13.37 dB 4:57 08-Brokenpromiseland
DR11 0.00 dB -13.59 dB 4:37 09-Love's The Only Rule
DR11 -0.92 dB -15.15 dB 3:18 10-Fast Cars
DR12 -0.83 dB -14.30 dB 4:20 11-Happy Now
DR12 0.00 dB -14.40 dB 4:46 12-Learn To Love
––––––––––––––––––––––––––––––––––––––––

Number of tracks: 12
Official DR value: DR12

Samplerate: 44100 Hz
Channels: 2
Bits per sample: 16
Bitrate: 888 kbps
Codec: FLAC
================================================================================



Bon Jovi - The Albums (2017) [Vinyl Rip 16/44 & mp3-320, Limited Edition Box set]

Tracklist VNL14 - 2013 This House Is Not For Sale:

LP14-A1 –Bon Jovi This House Is Not For Sale
LP14-A2 –Bon Jovi Living With The Ghost
LP14-A3 –Bon Jovi Knockout
LP14-A4 –Bon Jovi Labor Of Love
LP14-A5 –Bon Jovi Born Again Tomorrow
LP14-A6 –Bon Jovi Roller Coaster
LP14-B1 –Bon Jovi New Year's Day
LP14-B2 –Bon Jovi The Devil's In The Temple
LP14-B3 –Bon Jovi Scars On This Guitar
LP14-B4 –Bon Jovi God Bless This Mess
LP14-B5 –Bon Jovi Reunion
LP14-B6 –Bon Jovi Come On Up To Our House

foobar2000 1.2.9 / Dynamic Range Meter 1.1.1
log date: 2017-11-23 01:26:43

––––––––––––––––––––––––––––––––––––––––
Analyzed: Bon Jovi / What About Now
––––––––––––––––––––––––––––––––––––––––

DR Peak RMS Duration Track
––––––––––––––––––––––––––––––––––––––––
DR10 -0.53 dB -11.98 dB 4:00 01-Because We Can
DR10 -0.42 dB -12.17 dB 3:44 02-I'm With You
DR10 -0.42 dB -11.91 dB 3:45 03-What About Now
DR10 -0.22 dB -12.36 dB 3:58 04-Pictures Of You
DR10 -1.88 dB -14.98 dB 4:11 05-Amen
DR10 -0.51 dB -12.37 dB 4:26 06-That's What The Water Made Me
DR10 -0.72 dB -12.37 dB 4:35 07-What's Left Of Me
DR9 0.00 dB -11.75 dB 4:35 08-Army Of One
DR11 -0.63 dB -14.55 dB 4:58 09-Thick As Thieves
DR10 0.00 dB -11.60 dB 3:49 10-Beautiful World
DR9 0.00 dB -11.56 dB 5:03 11-Room At The End Of The World
DR10 -2.25 dB -14.38 dB 4:37 12-The Fighter
––––––––––––––––––––––––––––––––––––––––

Number of tracks: 12
Official DR value: DR10

Samplerate: 44100 Hz
Channels: 2
Bits per sample: 16
Bitrate: 925 kbps
Codec: FLAC
================================================================================



Bon Jovi - The Albums (2017) [Vinyl Rip 16/44 & mp3-320, Limited Edition Box set]

Tracklist VNL15 - 2015 Blaze Of Glory/Young Guns II:

LP15-A1 –Jon Bon Jovi Billy Get Your Guns
LP15-A2 –Jon Bon Jovi Miracle
LP15-A3 –Jon Bon Jovi Blaze Of Glory
LP15-A4 –Jon Bon Jovi Blood Money
LP15-A5 –Jon Bon Jovi Santa Fe
LP15-B1 –Jon Bon Jovi Justice In The Barrel
LP15-B2 –Jon Bon Jovi Never Say Die
LP15-B3 –Jon Bon Jovi You Really Got Me Now
LP15-B4 –Jon Bon Jovi Bang A Drum
LP15-B5 –Jon Bon Jovi Dyin' Ain't Much Of A Livin'
LP15-B6 –Jon Bon Jovi Guano City

foobar2000 1.2.9 / Dynamic Range Meter 1.1.1
log date: 2017-11-23 01:26:55

––––––––––––––––––––––––––––––––––––––––
Analyzed: Bon Jovi / Burning Bridges
––––––––––––––––––––––––––––––––––––––––

DR Peak RMS Duration Track
––––––––––––––––––––––––––––––––––––––––
DR11 -1.00 dB -14.19 dB 5:08 01-A Teardrop To The Sea
DR10 -0.52 dB -12.91 dB 3:18 02-We Don't Run
DR11 0.00 dB -12.54 dB 3:23 03-Saturday Night Gave Me Sunday Morning
DR11 -0.18 dB -13.96 dB 4:06 04-We All Fall Down
DR11 -1.78 dB -14.76 dB 4:46 05-Blind Love
DR11 0.00 dB -13.41 dB 3:57 06-Who Would You Die For
DR11 -0.92 dB -14.03 dB 5:58 07-Fingerprints
DR11 -0.22 dB -13.30 dB 3:23 08-Life Is Beautiful
DR12 0.00 dB -13.16 dB 3:46 09-I'm Your Man
DR12 -0.87 dB -15.51 dB 2:47 10-Burning Bridges
––––––––––––––––––––––––––––––––––––––––

Number of tracks: 10
Official DR value: DR11

Samplerate: 44100 Hz
Channels: 2
Bits per sample: 16
Bitrate: 872 kbps
Codec: FLAC
================================================================================



Bon Jovi - The Albums (2017) [Vinyl Rip 16/44 & mp3-320, Limited Edition Box set]

Tracklist VNL16 - 2016 Destination Anywhere:

LP16-A1 –Jon Bon Jovi Queen Of New Orleans
LP16-A2 –Jon Bon Jovi Janie, Don't Take Your Love To Town
LP16-A3 –Jon Bon Jovi Midnight In Chelsea
LP16-A4 –Jon Bon Jovi Ugly
LP16-B1 –Jon Bon Jovi Staring At Your Window With A Suitcase In My Hand
LP16-B2 –Jon Bon Jovi Every Word Was A Piece Of My Heart
LP16-B3 –Jon Bon Jovi It's Just Me
LP16-C1 –Jon Bon Jovi Destination Anywhere
LP16-C2 –Jon Bon Jovi Learning How To Fall
LP16-C3 –Jon Bon Jovi Naked
LP16-D1 –Jon Bon Jovi Little City
LP16-D2 –Jon Bon Jovi August 7, 4:15
LP16-D3 –Jon Bon Jovi Cold Hard Heart

foobar2000 1.2.9 / Dynamic Range Meter 1.1.1
log date: 2017-11-23 01:27:11

––––––––––––––––––––––––––––––––––––––––
Analyzed: Bon Jovi / This House Is Not For Sale
––––––––––––––––––––––––––––––––––––––––

DR Peak RMS Duration Track
––––––––––––––––––––––––––––––––––––––––
DR10 -0.21 dB -12.40 dB 3:37 01-This House Is Not For Sale
DR10 -1.52 dB -12.81 dB 4:46 02-Living With The Ghost
DR10 -1.04 dB -12.55 dB 3:31 03-Knockout
DR10 -1.19 dB -13.10 dB 5:04 04-Labor Of Love
DR9 -0.36 dB -12.84 dB 3:33 05-Born Again Tomorrow
DR10 0.00 dB -13.60 dB 3:40 06-Roller Coaster
DR10 -0.69 dB -12.49 dB 4:28 07-New Year's Day
DR10 -0.73 dB -12.96 dB 3:19 08-The Devil's In The Temple
DR11 -0.83 dB -14.88 dB 5:06 09-Scars On This Guitar
DR10 -0.22 dB -12.44 dB 3:23 10-God Bless This Mess
DR10 -0.11 dB -12.36 dB 4:14 11-Reunion
DR10 -0.30 dB -12.90 dB 4:40 12-Come On Up To Our House
––––––––––––––––––––––––––––––––––––––––

Number of tracks: 12
Official DR value: DR10

Samplerate: 44100 Hz
Channels: 2
Bits per sample: 16
Bitrate: 887 kbps
Codec: FLAC
================================================================================



Bon Jovi - The Albums (2017) [Vinyl Rip 16/44 & mp3-320, Limited Edition Box set]

Tracklist VNL17 - 2017 Extras:

LP17-A1 –Bon Jovi Someday I'll Be Saturday Night
LP17-A2 –Bon Jovi No Apologies
LP17-A3 –Bon Jovi Postcards From The Wasteland
LP17-A4 –Bon Jovi These Open Arms
LP17-A5 –Bon Jovi Walk Like A Man
LP17-B1 –Bon Jovi Neurotica
LP17-B2 –Bon Jovi I Could Make A Living Out Of Loving You
LP17-B3 –Bon Jovi What Do You Got?
LP17-B4 –Bon Jovi Dirty Little Secret
LP17-B5 –Bon Jovi Always




Original ripper: Oleg-Leshiy
Original format: 24/192
Vinyl Condition: Mint
Cleaning:
Direct Drive Turntable: Pioneer PL-7L + ZYX R1000 Airy 3 gold
Cartridge:
Amplifier: PS audio Phono Stage + Tube Preamp (Telefunken)
ADC: TASCAM HS-P82
Postprocessing:

Downsampled to 16/44

Queen: Collection (1973 - 1995) [Vinyl Rip 16/44 & MP3-320]
Metallica: Discography (1983 - 2016) [Vinyl Rip 16/44 & mp3-320]
The Doors: Collection (1967 - 1971) [Vinyl Rip 16/44 & mp3-320]



Black Sabbath: Collection (1970 - 2013) [Vinyl Rip 16/44 & mp3-320]
The Beatles: Discography (1963 - 1988) [Vinyl Rip 16/44 & mp3-320]
Joe Cocker: Collection (1969 - 1991) [Vinyl Rip 16/44 & mp3-320]
Frank Zappa: Collection (1969 - 1981) [Vinyl Rip 16/44 & mp3-320]
Ten Years After: Collection (1967 - 1974) [Vinyl Rip 16/44 & mp3-320]
Dire Straits: Discography (1978 - 1991) [Vinyl Rip 16/44 & mp3-320]
Bonnie Tyler: Collection (1977 - 1986) [Vinyl Rip 16/44 & mp3-320]
The Beatles: Stereo Vinyl Box Set (2012) [Vinyl Rip 16/44 & mp3-320]
Wolfgang Amadeus Mozart - Die Violin Konzerte (1968) [Vinyl Rip 16/44 & mp3-320]
Eagles - The Studio Albums 1972-1979 (2013) [Vinyl Rip 16/44 & mp3-320]
Pink Floyd: Discography (1967 - 2014) [Vinyl Rip 16/44 & mp3-320]
Led Zeppelin: Discography (1969 - 1982) [Vinyl Rip 16/44 & mp3-320]
Manowar: Collection (1982 - 2012) [Vinyl Rip 16/44 & mp3-320]
A-HA: Collection (1985-2015) [Vinyl Rip 16/44 & mp3-320]
Decca, Wiener Philharmoniker - 6 Classic Analogue LPs (2014) [Vinyl Rip 16/44]
Beethoven - Chicago Symphony Orchestra / Sir Georg Solti ‎– The Nine Symphonies (1975) [Vinyl Rip 16/44 & mp3-320]
Scorpions: Collection (1974 - 2015) [Vinyl Rip 16/44 & mp3-320]
Pink Floyd - Echoes: The Best Of Pink Floyd (2001) [Vinyl Rip 16/44]
Alice Cooper - Paranormal (2017) [Vinyl Rip 16/44 & mp3-320]
Manfred Mann's Earth Band: Collection (1967 - 2014) [Vinyl Rip 16/44 & mp3-320]
Rainbow: Discography (1975 - 1986) [Vinyl Rip 16/44 & mp3-320]
Amanda Lear: Collection (1978 - 1986) [Vinyl Rip 16/44 & mp3-320]
Space & Didier Marouani: Collection (1977 - 1987) [Vinyl Rip 16/44 & mp3-320]
Rod Stewart: Collection (1969 - 1988) [Vinyl Rip 16/44 & mp3-320]
Kraftwerk: Collection (1974 - 1991) [Vinyl Rip 16/44 & mp3-320]
Roger Waters: Vinyl Collection (1970 - 1992) [Vinyl Rip 16/44 & mp3-320] [Vinyl Rip 16/44 & MP3-320]
David Gilmour - Rattle That Lock (2015) [Vinyl Rip 16/44 & mp3-320]
Depeche Mode: Collection (1981 - 2013) [Vinyl Rip 16/44 & mp3-320]
Sade: Discography (1984 - 2010) [Vinyl Rip 16/44 & MP3-320]



Bon Jovi or Bon Jovi in my Blog

Download Bon Jovi - The Albums (2017):