Subcategories

Boulez Conducts Ravel & Debussy (2012)

Posted By: peotuvave
Boulez Conducts Ravel & Debussy (2012)

Boulez Conducts Ravel & Debussy (2012)
EAC Rip | Flac (Tracks + cue + log) | 6 CDs | Full Scans | 1.43 GB
Genre: Classical | Label: Deutsche Grammophon | Catalog Number: 001676802

In La mer, he is among the master magicians: subtleties of nuance and timing (previously in short supply) now abound; here is playing of a wholly different order of grace and beauty, not the kind that lingers in passages in danger of becoming too exquisite to bear, nor the kind that parades the score's exoticism. In the Spanish items, some may find the Berlin woodwinds too cultured in tone and artful in phrasing for their various improvisatory solos: it is rare to hear the first few minutes' solos in Bolero quite as strongly contoured as this….In the "Féria" from the Rapsodie and in the Alborada, as before, tempos remain slower than average (the "Habanera" is utterly hypnotic), strikingly so in the "Féria" which now, quite aptly, sounds as much like Chabrier as Ravel: festive as opposed to driven and explosive.

Composer: Claude Debussy, Maurice Ravel
Performer: Franklin Cohen, Anne Sofie von Otter, Lisa Wellbaum, Alison Hagley
Conductor: Pierre Boulez
Orchestra/Ensemble: Cleveland Orchestra, Cleveland Orchestra Chorus, Berlin Philharmonic Orchestra

Reviews: I have heard Boulez conduct these composers before and for what it is worth, it is different from any other interpretation in my experience and seemed to be more suited to these composers. There is no such thing as a true and correct interpretation and so one must make up one's own mind. For me it was like my first experience of Glenn Gould playing Bach - it just seemed so right. Certainly Boulez creates the best of a certain type of interpretation, and I don't think anyone can match the kind of balance and elegance Boulez gets from his orchestras. For these composers. FYI - I think his own music is terrible and an evil influence on modern music. But I am very glad he gets to direct orchestras. Some conductors seem to think that this impressionistic music needs a romantic interpretation. Especially for Ravel it needs a neoclassical approach. A romantic approach for both composers is just not right. It feels overdone because the romance is already built in to the music. Keep it moving forward, and Boulez does that, without needing to draw out the nuances, which, again, are already in the music. I think that some listeners will regard these masterpieces as having a definitive interpretation in this release highly welcomed. Don't wait.

Tracklisting:

1. Prélude à l'après-midi d'un faune by Claude Debussy
Conductor: Pierre Boulez
Orchestra/Ensemble: Cleveland Orchestra
Period: 20th Century
Written: 1892-1894; France
Date of Recording: 03/1991
Venue: Masonic Auditorium, Cleveland
Length: 8 Minutes 52 Secs.

2. Images for Orchestra by Claude Debussy
Conductor: Pierre Boulez
Orchestra/Ensemble: Cleveland Orchestra
Period: 20th Century
Written: 1905-1912; France
Date of Recording: 03/1991
Venue: Masonic Auditorium, Cleveland

3. Printemps by Claude Debussy
Conductor: Pierre Boulez
Orchestra/Ensemble: Cleveland Orchestra
Period: 20th Century
Written: 1887; France
Date of Recording: 03/1991
Venue: Masonic Auditorium, Cleveland
Length: 16 Minutes 43 Secs.

4. Nocturnes (3) for Orchestra: no 1, Nuages by Claude Debussy
Conductor: Pierre Boulez
Orchestra/Ensemble: Cleveland Orchestra
Period: 20th Century
Written: 1897-1899; France
Date of Recording: 03/1993
Venue: Masonic Auditorium, Cleveland
Length: 6 Minutes 15 Secs.

5. Jeux by Claude Debussy
Conductor: Pierre Boulez
Orchestra/Ensemble: Cleveland Orchestra
Period: 20th Century
Written: 1912-1913; France
Date of Recording: 03/1993
Venue: Masonic Auditorium, Cleveland
Length: 16 Minutes 3 Secs.

6. La mer by Claude Debussy
Conductor: Pierre Boulez
Orchestra/Ensemble: Cleveland Orchestra
Period: 20th Century
Written: 1903-1905; France
Date of Recording: 03/1993
Venue: Masonic Auditorium, Cleveland
Length: 23 Minutes 32 Secs.

7. Nocturnes (3) for Orchestra: no 2, Fêtes by Claude Debussy
Conductor: Pierre Boulez
Orchestra/Ensemble: Cleveland Orchestra
Period: French Impressionist
Date of Recording: 03/1993
Venue: Masonic Auditorium, Cleveland
Length: 6 Minutes 31 Secs.

8. Nocturnes (3) for Orchestra: no 3, Sirènes by Claude Debussy
Conductor: Pierre Boulez
Orchestra/Ensemble: Cleveland Orchestra, Cleveland Orchestra Chorus
Period: 20th Century
Written: 1897-1899; France
Date of Recording: 03/1993
Venue: Masonic Auditorium, Cleveland
Length: 9 Minutes 40 Secs.

9. Première Rhapsodie for Clarinet and Orchestra by Claude Debussy
Performer: Franklin Cohen (Clarinet)
Conductor: Pierre Boulez
Orchestra/Ensemble: Cleveland Orchestra
Period: 20th Century
Written: 1911; France
Date of Recording: 03/1991
Venue: Masonic Auditorium, Cleveland
Length: 8 Minutes 33 Secs.

10. Shéhérazade by Maurice Ravel
Performer: Anne Sofie von Otter (Mezzo Soprano)
Conductor: Pierre Boulez
Orchestra/Ensemble: Cleveland Orchestra
Period: 20th Century
Written: 1903; France
Date of Recording: 04/1999
Venue: Masonic Auditorium, Cleveland, OH
Length: 17 Minutes 16 Secs.
Language: French

11. Le tombeau de Couperin by Maurice Ravel
Conductor: Pierre Boulez
Orchestra/Ensemble: Cleveland Orchestra
Period: 20th Century
Written: 1914-1917; orch. 191; France
Date of Recording: 04/1999
Venue: Masonic Auditorium, Cleveland, OH
Length: 17 Minutes 46 Secs.

12. Pavane pour une infante défunte by Maurice Ravel
Conductor: Pierre Boulez
Orchestra/Ensemble: Cleveland Orchestra
Period: 20th Century
Written: 1899; France
Date of Recording: 04/1999
Venue: Masonic Auditorium, Cleveland, OH
Length: 6 Minutes 38 Secs.

13. Menuet antique by Maurice Ravel
Conductor: Pierre Boulez
Orchestra/Ensemble: Cleveland Orchestra
Period: 20th Century
Written: 1895; France
Date of Recording: 04/1999
Venue: Masonic Auditorium, Cleveland, OH
Length: 7 Minutes 20 Secs.

14. Danse sacrée et danse profane by Claude Debussy
Performer: Lisa Wellbaum (Harp)
Conductor: Pierre Boulez
Orchestra/Ensemble: Cleveland Orchestra
Period: 20th Century
Written: 1904; France
Date of Recording: 04/1999
Venue: Masonic Auditorium, Cleveland, OH
Length: 10 Minutes 18 Secs.

15. Poèmes (5) de Baudelaire: no 3, Le jet d'eau by Claude Debussy
Performer: Alison Hagley (Soprano)
Conductor: Pierre Boulez
Orchestra/Ensemble: Cleveland Orchestra
Period: 20th Century
Written: 1889; France
Date of Recording: 04/1999
Venue: Masonic Auditorium, Cleveland, OH
Length: 5 Minutes 50 Secs.
Language: French

16. Ballades (3) de François Villon by Claude Debussy
Performer: Alison Hagley (Soprano)
Conductor: Pierre Boulez
Orchestra/Ensemble: Cleveland Orchestra
Period: 20th Century
Written: 1910; France
Date of Recording: 04/1999
Venue: Masonic Auditorium, Cleveland, OH
Length: 10 Minutes 6 Secs.
Language: French

17. Boléro by Maurice Ravel
Conductor: Pierre Boulez
Orchestra/Ensemble: Berlin Philharmonic Orchestra
Period: 20th Century
Written: 1928; France
Date of Recording: 03/1993
Venue: Jesus-Christus-Kirche, Berlin
Length: 14 Minutes 58 Secs.

18. Ma mère l'oye by Maurice Ravel
Conductor: Pierre Boulez
Orchestra/Ensemble: Berlin Philharmonic Orchestra
Period: 20th Century
Written: France
Date of Recording: 03/1993
Venue: Jesus-Christus-Kirche, Berlin
Length: 28 Minutes 3 Secs.

19. Rapsodie espagnole by Maurice Ravel
Conductor: Pierre Boulez
Orchestra/Ensemble: Berlin Philharmonic Orchestra
Period: 20th Century
Written: 1907-1908; France
Date of Recording: 03/1993
Venue: Jesus-Christus-Kirche, Berlin
Length: 16 Minutes 39 Secs.

20. Miroirs: Une barque sur l'océan by Maurice Ravel
Conductor: Pierre Boulez
Orchestra/Ensemble: Berlin Philharmonic Orchestra
Period: 20th Century
Written: 1904-1905; France
Date of Recording: 03/1993
Venue: Jesus-Christus-Kirche, Berlin
Length: 7 Minutes 59 Secs.

21. Miroirs: Alborada del gracioso by Maurice Ravel
Conductor: Pierre Boulez
Orchestra/Ensemble: Berlin Philharmonic Orchestra
Period: 20th Century
Written: 1904-1905; France
Date of Recording: 03/1993
Venue: Jesus-Christus-Kirche, Berlin
Length: 7 Minutes 30 Secs.

22. Daphnis et Chloé by Maurice Ravel
Conductor: Pierre Boulez
Orchestra/Ensemble: Berlin Philharmonic Orchestra, Berlin Radio Chorus
Period: 20th Century
Written: 1909-1912; France
Date of Recording: 05/1994
Venue: Jesus Christ Church, Berlin, Germany
Length: 56 Minutes 50 Secs.

23. La valse by Maurice Ravel
Conductor: Pierre Boulez
Orchestra/Ensemble: Berlin Philharmonic Orchestra
Period: 20th Century
Written: 1920; France
Date of Recording: 05/1994
Venue: Jesus Christ Church, Berlin, Germany
Length: 13 Minutes 43 Secs.

24. Concerto for Piano in G major by Maurice Ravel
Performer: Krystian Zimerman (Piano)
Conductor: Pierre Boulez
Orchestra/Ensemble: Cleveland Orchestra
Period: 20th Century
Written: 1929-1931; France
Date of Recording: 11/1994
Venue: Masonic Auditorium, Cleveland, Ohio
Length: 22 Minutes 4 Secs.

25. Valses nobles et sentimentales by Maurice Ravel
Conductor: Pierre Boulez
Orchestra/Ensemble: Cleveland Orchestra
Period: 20th Century
Written: 1911; France
Date of Recording: 11/1994
Venue: Masonic Auditorium, Cleveland, Ohio
Length: 24 Minutes 17 Secs.

26. Concerto for Piano left hand in D major by Maurice Ravel
Performer: Krystian Zimerman (Piano)
Conductor: Pierre Boulez
Orchestra/Ensemble: London Symphony Orchestra
Period: 20th Century
Written: 1929-1930; France
Date of Recording: 07/1996
Venue: Main Hall, Colosseum, Watford, England
Length: 18 Minutes 6 Secs.

Exact Audio Copy V0.99 prebeta 5 from 4. May 2009

EAC extraction logfile from 23. May 2012, 13:37

Pierre Boulez / Ravel - Debussy –-cd 1

Used drive : _NEC DVD_RW ND-3550A Adapter: 0 ID: 0

Read mode : Secure
Utilize accurate stream : Yes
Defeat audio cache : Yes
Make use of C2 pointers : No

Read offset correction : 48
Overread into Lead-In and Lead-Out : No
Fill up missing offset samples with silence : Yes
Delete leading and trailing silent blocks : No
Null samples used in CRC calculations : Yes
Used interface : Native Win32 interface for Win NT & 2000
Gap handling : Appended to previous track

Used output format : User Defined Encoder
Selected bitrate : 320 kBit/s
Quality : High
Add ID3 tag : No
Command line compressor : C:\Program Files (x86)\FLAC\flac.exe
Additional command line options : -V -8 -T "artist=%a" -T "title=%t" -T "album=%g" -T "date=%y" -T "tracknumber=%n" -T "genre=%m" %s


TOC of the extracted CD

Track | Start | Length | Start sector | End sector
––––––––––––––––––––––––––––-
1 | 0:00.33 | 8:55.00 | 33 | 40157
2 | 8:55.33 | 7:22.00 | 40158 | 73307
3 | 16:17.33 | 6:58.00 | 73308 | 104657
4 | 23:15.33 | 7:30.07 | 104658 | 138414
5 | 30:45.40 | 4:23.68 | 138415 | 158207
6 | 35:09.33 | 7:50.00 | 158208 | 193457
7 | 42:59.33 | 10:18.00 | 193458 | 239807
8 | 53:17.33 | 6:25.00 | 239808 | 268682


Track 1

Filename C:\Users\elemental5\Desktop\Debussy-Ravel-Boulez-DG\Pierre Boulez - 2012 - Ravel - Debussy –-cd 1 [FLAC]\01 - Debussy - Prelude a l'apres-midi d'un faune.wav

Pre-gap length 0:00:02.44

Peak level 43.7 %
Track quality 100.0 %
Test CRC 662C9715
Copy CRC 662C9715
Accurately ripped (confidence 3) [C3040967]
Copy OK

Track 2

Filename C:\Users\elemental5\Desktop\Debussy-Ravel-Boulez-DG\Pierre Boulez - 2012 - Ravel - Debussy –-cd 1 [FLAC]\02 - Debussy - Images pour orchestre - No. 1 Gigues.wav

Pre-gap length 0:00:03.00

Peak level 63.2 %
Track quality 100.0 %
Test CRC 3EDE6A6D
Copy CRC 3EDE6A6D
Accurately ripped (confidence 3) [C96F3D5B]
Copy OK

Track 3

Filename C:\Users\elemental5\Desktop\Debussy-Ravel-Boulez-DG\Pierre Boulez - 2012 - Ravel - Debussy –-cd 1 [FLAC]\03 - No. 2 Iberia, I. Par les rues et par les chemins.wav

Peak level 84.2 %
Track quality 100.0 %
Test CRC E25D7113
Copy CRC E25D7113
Accurately ripped (confidence 3) [0E3A359D]
Copy OK

Track 4

Filename C:\Users\elemental5\Desktop\Debussy-Ravel-Boulez-DG\Pierre Boulez - 2012 - Ravel - Debussy –-cd 1 [FLAC]\04 - No. 2 Iberia, II. Les parfums de la nuit.wav

Peak level 49.4 %
Track quality 100.0 %
Test CRC AF91D6C9
Copy CRC AF91D6C9
Accurately ripped (confidence 3) [E34B64B1]
Copy OK

Track 5

Filename C:\Users\elemental5\Desktop\Debussy-Ravel-Boulez-DG\Pierre Boulez - 2012 - Ravel - Debussy –-cd 1 [FLAC]\05 - No. 2 Iberia, III. Le matin d'un jour de fete.wav

Pre-gap length 0:00:00.04

Peak level 97.7 %
Track quality 100.0 %
Test CRC 5BFC8C2C
Copy CRC 5BFC8C2C
Accurately ripped (confidence 3) [DB5F1756]
Copy OK

Track 6

Filename C:\Users\elemental5\Desktop\Debussy-Ravel-Boulez-DG\Pierre Boulez - 2012 - Ravel - Debussy –-cd 1 [FLAC]\06 - No. 3 Rondes de printemps.wav

Peak level 60.3 %
Track quality 100.0 %
Test CRC F5F4FFE3
Copy CRC F5F4FFE3
Accurately ripped (confidence 3) [1BA933E0]
Copy OK

Track 7

Filename C:\Users\elemental5\Desktop\Debussy-Ravel-Boulez-DG\Pierre Boulez - 2012 - Ravel - Debussy –-cd 1 [FLAC]\07 - Printemps - I. Tres modere.wav

Pre-gap length 0:00:06.00

Peak level 64.1 %
Track quality 100.0 %
Test CRC E8C1AF14
Copy CRC E8C1AF14
Accurately ripped (confidence 3) [967B2C0C]
Copy OK

Track 8

Filename C:\Users\elemental5\Desktop\Debussy-Ravel-Boulez-DG\Pierre Boulez - 2012 - Ravel - Debussy –-cd 1 [FLAC]\08 - Printemps - II. Modere.wav

Peak level 91.5 %
Track quality 100.0 %
Test CRC 17DDF39A
Copy CRC 17DDF39A
Accurately ripped (confidence 3) [9135BFA7]
Copy OK


All tracks accurately ripped

No errors occurred

End of status report


Exact Audio Copy V0.99 prebeta 5 from 4. May 2009

EAC extraction logfile from 23. May 2012, 14:16

Pierre Boulez / Ravel - Debussy –-cd 2

Used drive : _NEC DVD_RW ND-3550A Adapter: 0 ID: 0

Read mode : Secure
Utilize accurate stream : Yes
Defeat audio cache : Yes
Make use of C2 pointers : No

Read offset correction : 48
Overread into Lead-In and Lead-Out : No
Fill up missing offset samples with silence : Yes
Delete leading and trailing silent blocks : No
Null samples used in CRC calculations : Yes
Used interface : Native Win32 interface for Win NT & 2000
Gap handling : Appended to previous track

Used output format : User Defined Encoder
Selected bitrate : 320 kBit/s
Quality : High
Add ID3 tag : No
Command line compressor : C:\Program Files (x86)\FLAC\flac.exe
Additional command line options : -V -8 -T "artist=%a" -T "title=%t" -T "album=%g" -T "date=%y" -T "tracknumber=%n" -T "genre=%m" %s


TOC of the extracted CD

Track | Start | Length | Start sector | End sector
––––––––––––––––––––––––––––-
1 | 0:00.33 | 6:15.00 | 33 | 28157
2 | 6:15.33 | 6:31.00 | 28158 | 57482
3 | 12:46.33 | 9:47.00 | 57483 | 101507
4 | 22:33.33 | 8:42.00 | 101508 | 140657
5 | 31:15.33 | 16:06.00 | 140658 | 213107
6 | 47:21.33 | 8:47.15 | 213108 | 252647
7 | 56:08.48 | 7:08.67 | 252648 | 284814
8 | 63:17.40 | 7:40.68 | 284815 | 319382


Track 1

Filename C:\Users\elemental5\Desktop\Debussy-Ravel-Boulez-DG\Pierre Boulez - 2012 - Ravel - Debussy –-cd 2 [FLAC]\01 - Nocturnes ! 1 Nuages.wav

Pre-gap length 0:00:02.44

Peak level 24.4 %
Track quality 100.0 %
Test CRC 6BA43156
Copy CRC 6BA43156
Accurately ripped (confidence 32) [DC51A5A5]
Copy OK

Track 2

Filename C:\Users\elemental5\Desktop\Debussy-Ravel-Boulez-DG\Pierre Boulez - 2012 - Ravel - Debussy –-cd 2 [FLAC]\02 - Nocturnes ! 2 Fêtes.wav

Peak level 76.9 %
Track quality 100.0 %
Test CRC 18E17937
Copy CRC 18E17937
Accurately ripped (confidence 32) [9A5E8D93]
Copy OK

Track 3

Filename C:\Users\elemental5\Desktop\Debussy-Ravel-Boulez-DG\Pierre Boulez - 2012 - Ravel - Debussy –-cd 2 [FLAC]\03 - Nocturnes ! 3 Sirènes.wav

Peak level 55.1 %
Track quality 100.0 %
Test CRC 4DC7D644
Copy CRC 4DC7D644
Accurately ripped (confidence 32) [2550F5E0]
Copy OK

Track 4

Filename C:\Users\elemental5\Desktop\Debussy-Ravel-Boulez-DG\Pierre Boulez - 2012 - Ravel - Debussy –-cd 2 [FLAC]\04 - Première rhapsodie.wav

Pre-gap length 0:00:07.00

Peak level 43.0 %
Track quality 99.9 %
Test CRC 71E6D06E
Copy CRC 71E6D06E
Accurately ripped (confidence 32) [90610A05]
Copy OK

Track 5

Filename C:\Users\elemental5\Desktop\Debussy-Ravel-Boulez-DG\Pierre Boulez - 2012 - Ravel - Debussy –-cd 2 [FLAC]\05 - Jeux, Poême dansé.wav

Pre-gap length 0:00:09.00

Peak level 88.0 %
Track quality 100.0 %
Test CRC AE23A581
Copy CRC AE23A581
Accurately ripped (confidence 32) [ABFD2E60]
Copy OK

Track 6

Filename C:\Users\elemental5\Desktop\Debussy-Ravel-Boulez-DG\Pierre Boulez - 2012 - Ravel - Debussy –-cd 2 [FLAC]\06 - La mer 1 De l'aube a midi sur la mer.wav

Pre-gap length 0:00:03.00

Peak level 89.3 %
Track quality 100.0 %
Test CRC 0B2B8760
Copy CRC 0B2B8760
Accurately ripped (confidence 32) [413A8A15]
Copy OK

Track 7

Filename C:\Users\elemental5\Desktop\Debussy-Ravel-Boulez-DG\Pierre Boulez - 2012 - Ravel - Debussy –-cd 2 [FLAC]\07 - La mer 2 Jeux de vagues.wav

Pre-gap length 0:00:02.20

Peak level 55.7 %
Track quality 100.0 %
Test CRC 147ADFF6
Copy CRC 147ADFF6
Accurately ripped (confidence 32) [9A5595A2]
Copy OK

Track 8

Filename C:\Users\elemental5\Desktop\Debussy-Ravel-Boulez-DG\Pierre Boulez - 2012 - Ravel - Debussy –-cd 2 [FLAC]\08 - La mer 3 Dialogue du vent et de la mer.wav

Pre-gap length 0:00:03.49

Peak level 99.9 %
Track quality 99.9 %
Test CRC 87194292
Copy CRC 87194292
Accurately ripped (confidence 32) [B59980F8]
Copy OK


All tracks accurately ripped

No errors occurred

End of status report


Exact Audio Copy V0.99 prebeta 5 from 4. May 2009

EAC extraction logfile from 23. May 2012, 15:04

Pierre Boulez / Ravel - Debussy –-cd 3

Used drive : _NEC DVD_RW ND-3550A Adapter: 0 ID: 0

Read mode : Secure
Utilize accurate stream : Yes
Defeat audio cache : Yes
Make use of C2 pointers : No

Read offset correction : 48
Overread into Lead-In and Lead-Out : No
Fill up missing offset samples with silence : Yes
Delete leading and trailing silent blocks : No
Null samples used in CRC calculations : Yes
Used interface : Native Win32 interface for Win NT & 2000
Gap handling : Appended to previous track

Used output format : User Defined Encoder
Selected bitrate : 320 kBit/s
Quality : High
Add ID3 tag : No
Command line compressor : C:\Program Files (x86)\FLAC\flac.exe
Additional command line options : -V -8 -T "artist=%a" -T "title=%t" -T "album=%g" -T "date=%y" -T "tracknumber=%n" -T "genre=%m" %s


TOC of the extracted CD

Track | Start | Length | Start sector | End sector
––––––––––––––––––––––––––––-
1 | 0:00.00 | 9:53.00 | 0 | 44474
2 | 9:53.00 | 3:08.00 | 44475 | 58574
3 | 13:01.00 | 4:25.00 | 58575 | 78449
4 | 17:26.00 | 3:20.00 | 78450 | 93449
5 | 20:46.00 | 5:52.38 | 93450 | 119887
6 | 26:38.38 | 5:16.37 | 119888 | 143624
7 | 31:55.00 | 3:25.00 | 143625 | 158999
8 | 35:20.00 | 6:49.00 | 159000 | 189674
9 | 42:09.00 | 7:26.00 | 189675 | 223124
10 | 49:35.00 | 5:08.07 | 223125 | 246231
11 | 54:43.07 | 5:17.68 | 246232 | 270074
12 | 60:01.00 | 5:59.00 | 270075 | 296999
13 | 66:00.00 | 4:22.00 | 297000 | 316649
14 | 70:22.00 | 3:44.38 | 316650 | 333487
15 | 74:06.38 | 1:58.37 | 333488 | 342374


Track 1

Filename C:\Users\elemental5\Desktop\Debussy-Ravel-Boulez-DG\Pierre Boulez - 2012 - Ravel - Debussy –-cd 3 [FLAC]\01 - Ravel - Shéhérazade I. Asie.wav

Pre-gap length 0:00:02.00

Peak level 99.9 %
Track quality 100.0 %
Test CRC 232C4DB9
Copy CRC 232C4DB9
Accurately ripped (confidence 6) [A4089136]
Copy OK

Track 2

Filename C:\Users\elemental5\Desktop\Debussy-Ravel-Boulez-DG\Pierre Boulez - 2012 - Ravel - Debussy –-cd 3 [FLAC]\02 - Ravel - Shéhérazade II.La Flute enchantée.wav

Peak level 52.4 %
Track quality 100.0 %
Test CRC 828B3844
Copy CRC 828B3844
Accurately ripped (confidence 6) [1AA1E1C8]
Copy OK

Track 3

Filename C:\Users\elemental5\Desktop\Debussy-Ravel-Boulez-DG\Pierre Boulez - 2012 - Ravel - Debussy –-cd 3 [FLAC]\03 - Ravel - Shéhérazade III. L'Indifférent.wav

Peak level 39.1 %
Track quality 99.9 %
Test CRC CF4C455F
Copy CRC CF4C455F
Accurately ripped (confidence 6) [D6C92B92]
Copy OK

Track 4

Filename C:\Users\elemental5\Desktop\Debussy-Ravel-Boulez-DG\Pierre Boulez - 2012 - Ravel - Debussy –-cd 3 [FLAC]\04 - Ravel - Le Tombeau de Couperin I. Prélude.wav

Pre-gap length 0:00:10.00

Peak level 61.0 %
Track quality 100.0 %
Test CRC BB901782
Copy CRC BB901782
Accurately ripped (confidence 6) [EA43FB2B]
Copy OK

Track 5

Filename C:\Users\elemental5\Desktop\Debussy-Ravel-Boulez-DG\Pierre Boulez - 2012 - Ravel - Debussy –-cd 3 [FLAC]\05 - Ravel - Le Tombeau de Couperin II. Folane.Allegretto.wav

Peak level 23.4 %
Track quality 100.0 %
Test CRC 085ECD8F
Copy CRC 085ECD8F
Accurately ripped (confidence 5) [45DEC5CF]
Copy OK

Track 6

Filename C:\Users\elemental5\Desktop\Debussy-Ravel-Boulez-DG\Pierre Boulez - 2012 - Ravel - Debussy –-cd 3 [FLAC]\06 - Ravel - Le Tombeau de Couperin III. Menuet.wav

Peak level 53.7 %
Track quality 100.0 %
Test CRC 98DA61D9
Copy CRC 98DA61D9
Accurately ripped (confidence 6) [829121B8]
Copy OK

Track 7

Filename C:\Users\elemental5\Desktop\Debussy-Ravel-Boulez-DG\Pierre Boulez - 2012 - Ravel - Debussy –-cd 3 [FLAC]\07 - Ravel - Le Tombeau de Couperin IV. Rigaudon.wav

Peak level 62.8 %
Track quality 100.0 %
Test CRC 8CE663F2
Copy CRC 8CE663F2
Accurately ripped (confidence 6) [0C16A227]
Copy OK

Track 8

Filename C:\Users\elemental5\Desktop\Debussy-Ravel-Boulez-DG\Pierre Boulez - 2012 - Ravel - Debussy –-cd 3 [FLAC]\08 - Ravel - Pavane pour une Infante défunte.wav

Pre-gap length 0:00:09.00

Peak level 47.7 %
Track quality 100.0 %
Test CRC DA99E39B
Copy CRC DA99E39B
Accurately ripped (confidence 6) [37C5B6CC]
Copy OK

Track 9

Filename C:\Users\elemental5\Desktop\Debussy-Ravel-Boulez-DG\Pierre Boulez - 2012 - Ravel - Debussy –-cd 3 [FLAC]\09 - Ravel - Menuet antique.wav

Pre-gap length 0:00:11.00

Peak level 97.9 %
Track quality 100.0 %
Test CRC 797D9AFF
Copy CRC 797D9AFF
Accurately ripped (confidence 6) [9D8E7CBD]
Copy OK

Track 10

Filename C:\Users\elemental5\Desktop\Debussy-Ravel-Boulez-DG\Pierre Boulez - 2012 - Ravel - Debussy –-cd 3 [FLAC]\10 - Debussy - Deux Danses I. Danse sacrée.wav

Pre-gap length 0:00:06.00

Peak level 21.0 %
Track quality 100.0 %
Test CRC AB72F70C
Copy CRC AB72F70C
Accurately ripped (confidence 6) [8D1E3ACD]
Copy OK

Track 11

Filename C:\Users\elemental5\Desktop\Debussy-Ravel-Boulez-DG\Pierre Boulez - 2012 - Ravel - Debussy –-cd 3 [FLAC]\11 - Debussy - Deux Danses II. Danse profane.wav

Peak level 32.7 %
Track quality 100.0 %
Test CRC 25076AD8
Copy CRC 25076AD8
Accurately ripped (confidence 6) [A565597D]
Copy OK

Track 12

Filename C:\Users\elemental5\Desktop\Debussy-Ravel-Boulez-DG\Pierre Boulez - 2012 - Ravel - Debussy –-cd 3 [FLAC]\12 - Debussy - Le jet d'eau.wav

Pre-gap length 0:00:08.00

Peak level 54.8 %
Track quality 100.0 %
Test CRC 48774C01
Copy CRC 48774C01
Accurately ripped (confidence 6) [020A25D7]
Copy OK

Track 13

Filename C:\Users\elemental5\Desktop\Debussy-Ravel-Boulez-DG\Pierre Boulez - 2012 - Ravel - Debussy –-cd 3 [FLAC]\13 - Debussy - 3 Ballades de F. Villon 1. Ballade de Villon à s'amye.wav

Pre-gap length 0:00:09.00

Peak level 70.2 %
Track quality 99.9 %
Test CRC 045030A0
Copy CRC 045030A0
Accurately ripped (confidence 6) [C5AC2FF4]
Copy OK

Track 14

Filename C:\Users\elemental5\Desktop\Debussy-Ravel-Boulez-DG\Pierre Boulez - 2012 - Ravel - Debussy –-cd 3 [FLAC]\14 - Debussy - 3 Ballades de F. Villon 2. Ballade qui Villon fait….wav

Peak level 44.8 %
Track quality 100.0 %
Test CRC 15A40722
Copy CRC 15A40722
Accurately ripped (confidence 6) [7FFD2196]
Copy OK

Track 15

Filename C:\Users\elemental5\Desktop\Debussy-Ravel-Boulez-DG\Pierre Boulez - 2012 - Ravel - Debussy –-cd 3 [FLAC]\15 - Debussy - 3 Ballades de F. Villon 3. Ballade des femmes de Paris.wav

Peak level 99.9 %
Track quality 100.0 %
Test CRC 9AB17901
Copy CRC 9AB17901
Accurately ripped (confidence 6) [6581E6BA]
Copy OK


All tracks accurately ripped

No errors occurred

End of status report


Exact Audio Copy V0.99 prebeta 5 from 4. May 2009

EAC extraction logfile from 23. May 2012, 15:39

Pierre Boulez / Ravel - Debussy –-cd 4

Used drive : _NEC DVD_RW ND-3550A Adapter: 0 ID: 0

Read mode : Secure
Utilize accurate stream : Yes
Defeat audio cache : Yes
Make use of C2 pointers : No

Read offset correction : 48
Overread into Lead-In and Lead-Out : No
Fill up missing offset samples with silence : Yes
Delete leading and trailing silent blocks : No
Null samples used in CRC calculations : Yes
Used interface : Native Win32 interface for Win NT & 2000
Gap handling : Appended to previous track

Used output format : User Defined Encoder
Selected bitrate : 320 kBit/s
Quality : High
Add ID3 tag : No
Command line compressor : C:\Program Files (x86)\FLAC\flac.exe
Additional command line options : -V -8 -T "artist=%a" -T "title=%t" -T "album=%g" -T "date=%y" -T "tracknumber=%n" -T "genre=%m" %s


TOC of the extracted CD

Track | Start | Length | Start sector | End sector
––––––––––––––––––––––––––––-
1 | 0:00.32 | 3:28.18 | 32 | 15649
2 | 3:28.50 | 3:41.30 | 15650 | 32254
3 | 7:10.05 | 2:21.30 | 32255 | 42859
4 | 9:31.35 | 5:00.22 | 42860 | 65381
5 | 14:31.57 | 3:19.50 | 65382 | 80356
6 | 17:51.32 | 1:35.35 | 80357 | 87516
7 | 19:26.67 | 5:08.40 | 87517 | 110656
8 | 24:35.32 | 3:35.00 | 110657 | 126781
9 | 28:10.32 | 8:05.00 | 126782 | 163156
10 | 36:15.32 | 7:36.00 | 163157 | 197356
11 | 43:51.32 | 4:23.00 | 197357 | 217081
12 | 48:14.32 | 2:09.00 | 217082 | 226756
13 | 50:23.32 | 3:27.00 | 226757 | 242281
14 | 53:50.32 | 6:45.00 | 242282 | 272656
15 | 60:35.32 | 14:58.00 | 272657 | 340006


Track 1

Filename C:\Users\elemental5\Desktop\Debussy-Ravel-Boulez-DG\Pierre Boulez - 2012 - Ravel - Debussy –-cd 4 [FLAC]\01 - Ma mère l'Oye - Prélude.wav

Pre-gap length 0:00:02.42

Peak level 52.0 %
Track quality 100.0 %
Test CRC F69A40F2
Copy CRC F69A40F2
Accurately ripped (confidence 9) [66276C3F]
Copy OK

Track 2

Filename C:\Users\elemental5\Desktop\Debussy-Ravel-Boulez-DG\Pierre Boulez - 2012 - Ravel - Debussy –-cd 4 [FLAC]\02 - Ma mère l'Oye - Tableau 1.wav

Peak level 53.4 %
Track quality 100.0 %
Test CRC 84D0CB85
Copy CRC 84D0CB85
Accurately ripped (confidence 9) [7D07D39C]
Copy OK

Track 3

Filename C:\Users\elemental5\Desktop\Debussy-Ravel-Boulez-DG\Pierre Boulez - 2012 - Ravel - Debussy –-cd 4 [FLAC]\03 - Ma mère l'Oye - Tableau 2.wav

Peak level 22.8 %
Track quality 100.0 %
Test CRC 23F95CDC
Copy CRC 23F95CDC
Accurately ripped (confidence 9) [C1CAC431]
Copy OK

Track 4

Filename C:\Users\elemental5\Desktop\Debussy-Ravel-Boulez-DG\Pierre Boulez - 2012 - Ravel - Debussy –-cd 4 [FLAC]\04 - Ma mère l'Oye - Tableau 3.wav

Peak level 33.9 %
Track quality 100.0 %
Test CRC 15AEA578
Copy CRC 15AEA578
Accurately ripped (confidence 9) [DF86A324]
Copy OK

Track 5

Filename C:\Users\elemental5\Desktop\Debussy-Ravel-Boulez-DG\Pierre Boulez - 2012 - Ravel - Debussy –-cd 4 [FLAC]\05 - Ma mère l'Oye - Tableau 4.wav

Peak level 27.0 %
Track quality 100.0 %
Test CRC 856AF988
Copy CRC 856AF988
Accurately ripped (confidence 9) [02D85A8E]
Copy OK

Track 6

Filename C:\Users\elemental5\Desktop\Debussy-Ravel-Boulez-DG\Pierre Boulez - 2012 - Ravel - Debussy –-cd 4 [FLAC]\06 - Ma mère l'Oye - Interlude.wav

Peak level 21.8 %
Track quality 100.0 %
Test CRC D45D1279
Copy CRC D45D1279
Accurately ripped (confidence 9) [F08DC1D5]
Copy OK

Track 7

Filename C:\Users\elemental5\Desktop\Debussy-Ravel-Boulez-DG\Pierre Boulez - 2012 - Ravel - Debussy –-cd 4 [FLAC]\07 - Ma mère l'Oye - Tableau 5.wav

Peak level 57.7 %
Track quality 100.0 %
Test CRC 4B8D72CA
Copy CRC 4B8D72CA
Accurately ripped (confidence 9) [B7214CA8]
Copy OK

Track 8

Filename C:\Users\elemental5\Desktop\Debussy-Ravel-Boulez-DG\Pierre Boulez - 2012 - Ravel - Debussy –-cd 4 [FLAC]\08 - Ma mère l'Oye - Apothéose.wav

Peak level 86.0 %
Track quality 100.0 %
Test CRC 52DC44D7
Copy CRC 52DC44D7
Accurately ripped (confidence 9) [8D5F4EDB]
Copy OK

Track 9

Filename C:\Users\elemental5\Desktop\Debussy-Ravel-Boulez-DG\Pierre Boulez - 2012 - Ravel - Debussy –-cd 4 [FLAC]\09 - Une barque sur l'océan.wav

Pre-gap length 0:00:06.00

Peak level 95.2 %
Track quality 100.0 %
Test CRC E1C18661
Copy CRC E1C18661
Accurately ripped (confidence 9) [15DB9BCE]
Copy OK

Track 10

Filename C:\Users\elemental5\Desktop\Debussy-Ravel-Boulez-DG\Pierre Boulez - 2012 - Ravel - Debussy –-cd 4 [FLAC]\10 - Alborada del gracioso.wav

Pre-gap length 0:00:06.00

Peak level 96.4 %
Track quality 100.0 %
Test CRC 4744EA73
Copy CRC 4744EA73
Accurately ripped (confidence 9) [982488B1]
Copy OK

Track 11

Filename C:\Users\elemental5\Desktop\Debussy-Ravel-Boulez-DG\Pierre Boulez - 2012 - Ravel - Debussy –-cd 4 [FLAC]\11 - Rapsodie espagnole - I. Prelude à la nuit.wav

Pre-gap length 0:00:06.00

Peak level 41.5 %
Track quality 99.9 %
Test CRC B8837D9D
Copy CRC B8837D9D
Accurately ripped (confidence 9) [E4598571]
Copy OK

Track 12

Filename C:\Users\elemental5\Desktop\Debussy-Ravel-Boulez-DG\Pierre Boulez - 2012 - Ravel - Debussy –-cd 4 [FLAC]\12 - Rapsodie espagnole - II. Malaguena.wav

Peak level 96.5 %
Track quality 100.0 %
Test CRC 5DDEAD45
Copy CRC 5DDEAD45
Accurately ripped (confidence 9) [BDAD15D6]
Copy OK

Track 13

Filename C:\Users\elemental5\Desktop\Debussy-Ravel-Boulez-DG\Pierre Boulez - 2012 - Ravel - Debussy –-cd 4 [FLAC]\13 - Rapsodie espagnole - III. Habanera.wav

Peak level 24.8 %
Track quality 100.0 %
Test CRC F7C902BC
Copy CRC F7C902BC
Accurately ripped (confidence 9) [8AD00699]
Copy OK

Track 14

Filename C:\Users\elemental5\Desktop\Debussy-Ravel-Boulez-DG\Pierre Boulez - 2012 - Ravel - Debussy –-cd 4 [FLAC]\14 - Rapsodie espagnole - IV. Feria.wav

Peak level 99.0 %
Track quality 100.0 %
Test CRC 2F731EF7
Copy CRC 2F731EF7
Accurately ripped (confidence 9) [ECC96D1B]
Copy OK

Track 15

Filename C:\Users\elemental5\Desktop\Debussy-Ravel-Boulez-DG\Pierre Boulez - 2012 - Ravel - Debussy –-cd 4 [FLAC]\15 - Boléro.wav

Pre-gap length 0:00:05.00

Peak level 99.9 %
Track quality 100.0 %
Test CRC FEF0A59D
Copy CRC FEF0A59D
Accurately ripped (confidence 9) [26E55C53]
Copy OK


All tracks accurately ripped

No errors occurred

End of status report


Exact Audio Copy V0.99 prebeta 5 from 4. May 2009

EAC extraction logfile from 23. May 2012, 17:05

Pierre Boulez / Ravel - Debussy –-cd 5

Used drive : _NEC DVD_RW ND-3550A Adapter: 0 ID: 0

Read mode : Secure
Utilize accurate stream : Yes
Defeat audio cache : Yes
Make use of C2 pointers : No

Read offset correction : 48
Overread into Lead-In and Lead-Out : No
Fill up missing offset samples with silence : Yes
Delete leading and trailing silent blocks : No
Null samples used in CRC calculations : Yes
Used interface : Native Win32 interface for Win NT & 2000
Gap handling : Appended to previous track

Used output format : User Defined Encoder
Selected bitrate : 320 kBit/s
Quality : High
Add ID3 tag : No
Command line compressor : C:\Program Files (x86)\FLAC\flac.exe
Additional command line options : -V -8 -T "artist=%a" -T "title=%t" -T "album=%g" -T "date=%y" -T "tracknumber=%n" -T "genre=%m" %s


TOC of the extracted CD

Track | Start | Length | Start sector | End sector
––––––––––––––––––––––––––––-
1 | 0:00.32 | 3:21.50 | 32 | 15156
2 | 3:22.07 | 5:51.08 | 15157 | 41489
3 | 9:13.15 | 3:14.42 | 41490 | 56081
4 | 12:27.57 | 1:54.05 | 56082 | 64636
5 | 14:21.62 | 3:46.58 | 64637 | 81644
6 | 18:08.45 | 4:17.27 | 81645 | 100946
7 | 22:25.72 | 4:33.35 | 100947 | 121456
8 | 26:59.32 | 3:25.23 | 121457 | 136854
9 | 30:24.55 | 4:16.17 | 136855 | 156071
10 | 34:40.72 | 5:32.60 | 156072 | 181031
11 | 40:13.57 | 6:30.38 | 181032 | 210319
12 | 46:44.20 | 5:42.00 | 210320 | 235969
13 | 52:26.20 | 4:37.12 | 235970 | 256756
14 | 57:03.32 | 13:43.00 | 256757 | 318481


Track 1

Filename C:\Users\elemental5\Desktop\Debussy-Ravel-Boulez-DG\Pierre Boulez - 2012 - Ravel - Debussy –-cd 5 [FLAC]\01 - Daphnis et Chloé, partie 1, Introduction.wav

Pre-gap length 0:00:02.42

Peak level 99.8 %
Track quality 100.0 %
Test CRC EBBB0A27
Copy CRC EBBB0A27
Accurately ripped (confidence 2) [4A35AD8D]
Copy OK

Track 2

Filename C:\Users\elemental5\Desktop\Debussy-Ravel-Boulez-DG\Pierre Boulez - 2012 - Ravel - Debussy –-cd 5 [FLAC]\02 - Daphnis et Chloé, partie 1, Danse religieuse.wav

Peak level 99.9 %
Track quality 100.0 %
Test CRC 9985A10A
Copy CRC 9985A10A
Accurately ripped (confidence 2) [6783565F]
Copy OK

Track 3

Filename C:\Users\elemental5\Desktop\Debussy-Ravel-Boulez-DG\Pierre Boulez - 2012 - Ravel - Debussy –-cd 5 [FLAC]\03 - Daphnis et Chloé, partie 1, Danse des jeunes filles.wav

Peak level 86.0 %
Track quality 100.0 %
Test CRC 6663D640
Copy CRC 6663D640
Accurately ripped (confidence 2) [77CB95BD]
Copy OK

Track 4

Filename C:\Users\elemental5\Desktop\Debussy-Ravel-Boulez-DG\Pierre Boulez - 2012 - Ravel - Debussy –-cd 5 [FLAC]\04 - Daphnis et Chloé, partie 1, Danse grotesque de Dorcon.wav

Peak level 96.7 %
Track quality 100.0 %
Test CRC 877A0F59
Copy CRC 877A0F59
Accurately ripped (confidence 2) [0AB4808B]
Copy OK

Track 5

Filename C:\Users\elemental5\Desktop\Debussy-Ravel-Boulez-DG\Pierre Boulez - 2012 - Ravel - Debussy –-cd 5 [FLAC]\05 - Daphnis et Chloé, partie 1, Danse légère et gracieuse de Daphnis.wav

Peak level 58.1 %
Track quality 99.9 %
Test CRC F5C4387D
Copy CRC F5C4387D
Accurately ripped (confidence 2) [99DE1AE0]
Copy OK

Track 6

Filename C:\Users\elemental5\Desktop\Debussy-Ravel-Boulez-DG\Pierre Boulez - 2012 - Ravel - Debussy –-cd 5 [FLAC]\06 - Daphnis et Chloé, partie 1, Lycénion entre.wav

Peak level 99.9 %
Track quality 99.9 %
Test CRC 0EABA87C
Copy CRC 0EABA87C
Accurately ripped (confidence 2) [C5EC4E89]
Copy OK

Track 7

Filename C:\Users\elemental5\Desktop\Debussy-Ravel-Boulez-DG\Pierre Boulez - 2012 - Ravel - Debussy –-cd 5 [FLAC]\07 - Daphnis et Chloé, partie 1, Nocturne.wav

Peak level 31.5 %
Track quality 100.0 %
Test CRC DA5A158B
Copy CRC DA5A158B
Accurately ripped (confidence 2) [A60EA8CA]
Copy OK

Track 8

Filename C:\Users\elemental5\Desktop\Debussy-Ravel-Boulez-DG\Pierre Boulez - 2012 - Ravel - Debussy –-cd 5 [FLAC]\08 - Daphnis et Chloé, partie 2, Interlude.wav

Peak level 81.9 %
Track quality 100.0 %
Test CRC 8BC2878F
Copy CRC 8BC2878F
Accurately ripped (confidence 2) [2FE71073]
Copy OK

Track 9

Filename C:\Users\elemental5\Desktop\Debussy-Ravel-Boulez-DG\Pierre Boulez - 2012 - Ravel - Debussy –-cd 5 [FLAC]\09 - Daphnis et Chloé, partie 2, Danse guerrière.wav

Peak level 99.9 %
Track quality 100.0 %
Test CRC B7F9298A
Copy CRC B7F9298A
Accurately ripped (confidence 2) [1A1F4A95]
Copy OK

Track 10

Filename C:\Users\elemental5\Desktop\Debussy-Ravel-Boulez-DG\Pierre Boulez - 2012 - Ravel - Debussy –-cd 5 [FLAC]\10 - Daphnis et Chloé, partie 2, Danse suppliante de Chloé.wav

Peak level 99.9 %
Track quality 100.0 %
Test CRC 8DB3E2AD
Copy CRC 8DB3E2AD
Accurately ripped (confidence 2) [463532C3]
Copy OK

Track 11

Filename C:\Users\elemental5\Desktop\Debussy-Ravel-Boulez-DG\Pierre Boulez - 2012 - Ravel - Debussy –-cd 5 [FLAC]\11 - Daphnis et Chloé, partie 3, Lever du jour.wav

Peak level 99.9 %
Track quality 99.9 %
Test CRC C4945B92
Copy CRC C4945B92
Accurately ripped (confidence 2) [05475317]
Copy OK

Track 12

Filename C:\Users\elemental5\Desktop\Debussy-Ravel-Boulez-DG\Pierre Boulez - 2012 - Ravel - Debussy –-cd 5 [FLAC]\12 - Daphnis et Chloé, partie 3, Pantomime.wav

Peak level 44.9 %
Track quality 100.0 %
Test CRC DC5E3252
Copy CRC DC5E3252
Accurately ripped (confidence 2) [F8B1FF6C]
Copy OK

Track 13

Filename C:\Users\elemental5\Desktop\Debussy-Ravel-Boulez-DG\Pierre Boulez - 2012 - Ravel - Debussy –-cd 5 [FLAC]\13 - Daphnis et Chloé, partie 3, Danse générale.wav

Peak level 99.9 %
Track quality 100.0 %
Test CRC A01821E8
Copy CRC A01821E8
Accurately ripped (confidence 2) [4DAF088C]
Copy OK

Track 14

Filename C:\Users\elemental5\Desktop\Debussy-Ravel-Boulez-DG\Pierre Boulez - 2012 - Ravel - Debussy –-cd 5 [FLAC]\14 - La Valse.wav

Pre-gap length 0:00:13.00

Peak level 99.9 %
Track quality 100.0 %
Test CRC 6B83CA66
Copy CRC 6B83CA66
Accurately ripped (confidence 2) [8193EBF4]
Copy OK


All tracks accurately ripped

No errors occurred

End of status report


Exact Audio Copy V0.99 prebeta 5 from 4. May 2009

EAC extraction logfile from 23. May 2012, 16:41

Pierre Boulez / Ravel - Debussy –-cd 6

Used drive : _NEC DVD_RW ND-3550A Adapter: 0 ID: 0

Read mode : Secure
Utilize accurate stream : Yes
Defeat audio cache : Yes
Make use of C2 pointers : No

Read offset correction : 48
Overread into Lead-In and Lead-Out : No
Fill up missing offset samples with silence : Yes
Delete leading and trailing silent blocks : No
Null samples used in CRC calculations : Yes
Used interface : Native Win32 interface for Win NT & 2000
Gap handling : Appended to previous track

Used output format : User Defined Encoder
Selected bitrate : 320 kBit/s
Quality : High
Add ID3 tag : No
Command line compressor : C:\Program Files (x86)\FLAC\flac.exe
Additional command line options : -V -8 -T "artist=%a" -T "title=%t" -T "album=%g" -T "date=%y" -T "tracknumber=%n" -T "genre=%m" %s


TOC of the extracted CD

Track | Start | Length | Start sector | End sector
––––––––––––––––––––––––––––-
1 | 0:00.32 | 8:44.00 | 32 | 39331
2 | 8:44.32 | 9:23.00 | 39332 | 81556
3 | 18:07.32 | 4:06.00 | 81557 | 100006
4 | 22:13.32 | 1:15.25 | 100007 | 105656
5 | 23:28.57 | 2:35.63 | 105657 | 117344
6 | 26:04.45 | 1:42.42 | 117345 | 125036
7 | 27:47.12 | 1:05.70 | 125037 | 129981
8 | 28:53.07 | 1:20.38 | 129982 | 136019
9 | 30:13.45 | 0:40.62 | 136020 | 139081
10 | 30:54.32 | 2:56.63 | 139082 | 152344
11 | 33:51.20 | 3:47.12 | 152345 | 169381
12 | 37:38.32 | 18:07.00 | 169382 | 250906


Track 1

Filename C:\Users\elemental5\Desktop\Debussy-Ravel-Boulez-DG\Pierre Boulez - 2012 - Ravel - Debussy –-cd 6 [FLAC]\01 - Piano Concerto in G major - I. Allegramente.wav

Pre-gap length 0:00:02.42

Peak level 99.9 %
Track quality 99.9 %
Test CRC 0BFBDFEA
Copy CRC 0BFBDFEA
Accurately ripped (confidence 20) [722AE51A]
Copy OK

Track 2

Filename C:\Users\elemental5\Desktop\Debussy-Ravel-Boulez-DG\Pierre Boulez - 2012 - Ravel - Debussy –-cd 6 [FLAC]\02 - Piano Concerto in G major - II. Adagio assai.wav

Peak level 61.3 %
Track quality 100.0 %
Test CRC B751C64A
Copy CRC B751C64A
Accurately ripped (confidence 19) [A6B25223]
Copy OK

Track 3

Filename C:\Users\elemental5\Desktop\Debussy-Ravel-Boulez-DG\Pierre Boulez - 2012 - Ravel - Debussy –-cd 6 [FLAC]\03 - Piano Concerto in G major - III. Presto.wav

Peak level 88.8 %
Track quality 100.0 %
Test CRC 385F654B
Copy CRC 385F654B
Accurately ripped (confidence 19) [71F0BBE3]
Copy OK

Track 4

Filename C:\Users\elemental5\Desktop\Debussy-Ravel-Boulez-DG\Pierre Boulez - 2012 - Ravel - Debussy –-cd 6 [FLAC]\04 - Valses nobles et sentimentales - I. Modere.wav

Pre-gap length 0:00:09.00

Peak level 94.5 %
Track quality 100.0 %
Test CRC A55BA486
Copy CRC A55BA486
Accurately ripped (confidence 19) [0D04399E]
Copy OK

Track 5

Filename C:\Users\elemental5\Desktop\Debussy-Ravel-Boulez-DG\Pierre Boulez - 2012 - Ravel - Debussy –-cd 6 [FLAC]\05 - Valses nobles et sentimentales - II. Assez lent.wav

Peak level 36.4 %
Track quality 100.0 %
Test CRC CF36C56F
Copy CRC CF36C56F
Accurately ripped (confidence 19) [3BCBD505]
Copy OK

Track 6

Filename C:\Users\elemental5\Desktop\Debussy-Ravel-Boulez-DG\Pierre Boulez - 2012 - Ravel - Debussy –-cd 6 [FLAC]\06 - Valses nobles et sentimentales - III. Modere.wav

Peak level 27.4 %
Track quality 100.0 %
Test CRC 31F50735
Copy CRC 31F50735
Accurately ripped (confidence 19) [0822DBCF]
Copy OK

Track 7

Filename C:\Users\elemental5\Desktop\Debussy-Ravel-Boulez-DG\Pierre Boulez - 2012 - Ravel - Debussy –-cd 6 [FLAC]\07 - Valses nobles et sentimentales - IV. Assez anime.wav

Peak level 39.3 %
Track quality 100.0 %
Test CRC FB15FBF7
Copy CRC FB15FBF7
Accurately ripped (confidence 19) [F351D70D]
Copy OK

Track 8

Filename C:\Users\elemental5\Desktop\Debussy-Ravel-Boulez-DG\Pierre Boulez - 2012 - Ravel - Debussy –-cd 6 [FLAC]\08 - Valses nobles et sentimentales - V. Presque lent.wav

Peak level 30.7 %
Track quality 100.0 %
Test CRC B8CE89CA
Copy CRC B8CE89CA
Accurately ripped (confidence 19) [0E05F7CF]
Copy OK

Track 9

Filename C:\Users\elemental5\Desktop\Debussy-Ravel-Boulez-DG\Pierre Boulez - 2012 - Ravel - Debussy –-cd 6 [FLAC]\09 - Valses nobles et sentimentales - VI. Assez vif.wav

Peak level 50.3 %
Track quality 99.7 %
Test CRC BF3F4F89
Copy CRC BF3F4F89
Accurately ripped (confidence 19) [CDA8B7B1]
Copy OK

Track 10

Filename C:\Users\elemental5\Desktop\Debussy-Ravel-Boulez-DG\Pierre Boulez - 2012 - Ravel - Debussy –-cd 6 [FLAC]\10 - Valses nobles et sentimentales - VII. Moins vif.wav

Peak level 94.0 %
Track quality 100.0 %
Test CRC CC1C3E48
Copy CRC CC1C3E48
Accurately ripped (confidence 19) [D4A5D0D7]
Copy OK

Track 11

Filename C:\Users\elemental5\Desktop\Debussy-Ravel-Boulez-DG\Pierre Boulez - 2012 - Ravel - Debussy –-cd 6 [FLAC]\11 - Valses nobles et sentimentales - VIII. Epilogue, Lent.wav

Peak level 28.2 %
Track quality 100.0 %
Test CRC 4758A3A4
Copy CRC 4758A3A4
Accurately ripped (confidence 19) [29570159]
Copy OK

Track 12

Filename C:\Users\elemental5\Desktop\Debussy-Ravel-Boulez-DG\Pierre Boulez - 2012 - Ravel - Debussy –-cd 6 [FLAC]\12 - Piano Concerto in D major, for the left hand.wav

Pre-gap length 0:00:09.00

Peak level 99.9 %
Track quality 100.0 %
Test CRC CE2DA718
Copy CRC CE2DA718
Accurately ripped (confidence 18) [C3FF9F83]
Copy OK


All tracks accurately ripped

No errors occurred

End of status report


Thanks to the original releaser
Download:

CD 1 | CD 2 | CD 3 | CD 4 | CD 5 | CD 6
Scans