Subcategories

Bow Wow Wow - We Are the '80s (2006)

Posted By: Designol
Bow Wow Wow - We Are the '80s (2006)

Bow Wow Wow - We Are the '80s (2006)
EAC | FLAC | Image (Cue&Log) ~ 266 Mb | Mp3 (CBR320) ~ 108 Mb | Scans included
New Wave, Post-Punk, Dance-Rock | Label: RCA/Legasy | # 82876 67469 2 | 00:43:46

Though its musical legacy was brief, Malcolm McLaren's post-Sex Pistols project Bow Wow Wow left its mark on the 1980s as much as contemporaries like Adam and the Ants and Culture Club. This entry in the cross-promotional VH1 Classics/BMG '80s retrospective series features hits like the punky "C30, C60, C90, Go" and the Bo Diddley-influenced "I Want Candy," as well as also-rans like the intriguing rockabilly-jungle hybrid "Aphrodisiac," the loopy "Go Wild in the Country" (the latter complete with teen singer Annabella Lwin's modern primitive free-associations), and the Debbie Harry-esque "Mile High Club."

Bow Wow Wow's short but brilliant career was well captured by RCA's The Best of Bow Wow Wow in 1996. It has 20 tracks by the band and two by frontwoman Annabella Lwin, and it's all the casual fan could ever need. The band's entry in the We Are the '80s series is even better for casual listeners since, with eight fewer tracks included, stripping all but the essentials makes the band's appeal even more focused. Of course "I Want Candy" is here, and so are new wave classics like "Do You Wanna Hold Me," "(I'm A) TV Savage," "See Jungle! (Jungle Boy)," and "C30,C60, C90, Go." It's a furiously paced and exhilarating collection of songs by one of the truly great new wave era groups, and while fans should really seek out a collection with more tracks (or the individual albums), this is still an excellent introduction.

Review by Tim Sendra, Allmusic.com

Bow Wow Wow at Allmusic
Bow Wow Wow at Wiki

Tracklist:

01. C30, C60, C90, Go (03:00)
02. Aphrodisiac (02:58)
03. I Want Candy (02:44)
04. Do You Wanna Hold Me? (03:13)
05. (I'm A) TV Savage (02:35)
06. Go Wild In The Country (02:41)
07. See Jungle! (Jungle Boy) (05:12)
08. Baby, Oh No (02:45)
09. Loius Quatorze (02:49)
10. Cowboy (03:31)
11. W.O.R.K. (N.O. Nah No No My Daddy Don't) (02:39)
12. Mile High Club (03:26)
13. Elimination Dancing (03:02)
14. What's The Time (Hey Buddy) (03:05)


Exact Audio Copy V0.99 prebeta 5 from 4. May 2009

EAC extraction logfile from 8. July 2010, 14:25

Bow Wow Wow / We Are The 80's

Used drive : Optiarc DVD RW AD-5240S Adapter: 1 ID: 1

Read mode : Secure
Utilize accurate stream : Yes
Defeat audio cache : Yes
Make use of C2 pointers : No

Read offset correction : 48
Overread into Lead-In and Lead-Out : No
Fill up missing offset samples with silence : Yes
Delete leading and trailing silent blocks : No
Null samples used in CRC calculations : Yes
Used interface : Native Win32 interface for Win NT & 2000

Used output format : User Defined Encoder
Selected bitrate : 768 kBit/s
Quality : High
Add ID3 tag : No
Command line compressor : C:\Program Files\Exact Audio Copy\FLAC\FLAC.EXE
Additional command line options : -8 -V %s


TOC of the extracted CD

Track | Start | Length | Start sector | End sector
––––––––––––––––––––––––––––-
1 | 0:00.00 | 3:01.31 | 0 | 13605
2 | 3:01.31 | 3:00.20 | 13606 | 27125
3 | 6:01.51 | 2:44.72 | 27126 | 39497
4 | 8:46.48 | 3:14.21 | 39498 | 54068
5 | 12:00.69 | 2:36.59 | 54069 | 65827
6 | 14:37.53 | 2:43.43 | 65828 | 78095
7 | 17:21.21 | 5:13.67 | 78096 | 101637
8 | 22:35.13 | 2:47.12 | 101638 | 114174
9 | 25:22.25 | 2:50.40 | 114175 | 126964
10 | 28:12.65 | 3:32.54 | 126965 | 142918
11 | 31:45.44 | 2:40.31 | 142919 | 154949
12 | 34:26.00 | 3:27.60 | 154950 | 170534
13 | 37:53.60 | 3:04.46 | 170535 | 184380
14 | 40:58.31 | 3:05.74 | 184381 | 198329


Range status and errors

Selected range

Filename S:\Для торрентов\Bow Wow Wow - We Are The 80's.wav

Peak level 94.5 %
Range quality 100.0 %
Test CRC 6D4796C1
Copy CRC 6D4796C1
Copy OK

No errors occurred


AccurateRip summary

Track 1 accurately ripped (confidence 3) [8BF23644]
Track 2 accurately ripped (confidence 3) [79D099F5]
Track 3 accurately ripped (confidence 3) [1F03F78F]
Track 4 accurately ripped (confidence 3) [E98E97F9]
Track 5 accurately ripped (confidence 3) [E1426180]
Track 6 accurately ripped (confidence 3) [351E289A]
Track 7 accurately ripped (confidence 3) [EB84DC02]
Track 8 accurately ripped (confidence 3) [F25381B7]
Track 9 accurately ripped (confidence 3) [E98DA25A]
Track 10 accurately ripped (confidence 3) [3F45BD9D]
Track 11 accurately ripped (confidence 4) [07873B73]
Track 12 accurately ripped (confidence 3) [037605A9]
Track 13 accurately ripped (confidence 3) [B5D5C45E]
Track 14 accurately ripped (confidence 3) [A57ECED3]

All tracks accurately ripped

End of status report

Bow Wow Wow - We Are the '80s (2006)

Bow Wow Wow - We Are the '80s (2006)

All thanks to original releaser - kostya8

More interesting music in My Blog