Tags
Language
Tags

Bozzio Levin Stevens - Black Light Syndrome (1997) {2006, Reissue}

Posted By: popsakov
Bozzio Levin Stevens - Black Light Syndrome (1997) {2006, Reissue}

Bozzio Levin Stevens - Black Light Syndrome (1997) {2006, Reissue}
EAC Rip | FLAC (Img) + Cue + Log ~ 462 Mb | MP3 CBR320 ~ 176 Mb
Scans Included | RAR 5% Recovery
Art Rock / Progressive Rock / Jazz Fusion
Magna Carta / Irond #IROND CD 06-DD404

Bozzio Levin Stevens is a supergroup power trio of rock, fusion, jazz and instrumental classical music, consisting of drummer Terry Bozzio (Frank Zappa, U.K., Missing Persons, Steve Vai, Jeff Beck), bassist and Chapman Stick player Tony Levin (Peter Gabriel, King Crimson, Liquid Tension Experiment) and guitarist Steve Stevens (Billy Idol, Michael Jackson). They have recorded two albums via Magna Carta.

One of the more interesting bands to emerge on the Magna Carta label (a record co that specializes primarily in prog rock artists, especially collaborations/supergroups) is the aptly named Bozzio Levin Stevens. Featuring three players who many feel are at the top of their respective instruments in the rock world (drummer Terry Bozzio, bassist Tony Levin, and guitarist Steve Stevens), each member possesses quite a storied history. Bozzio first came to attention of rock fans as the drummer for Frank Zappa (appearing on such ‘70s-era classics as Zoot Allures, Zappa in New York, Sheik Yerbouti, etc.), before becoming a founding member of new wavers The Missing Persons, and a much sought after session man. Levin on the other hand, is primarily known as a session man (having played on such renowned albums as Paul Simon's Still Crazy After All These Years, John Lennon's Double Fantasy, Dire Straits' Brothers in Arms, etc.), but he's also been a long-standing member of Peter Gabriel's backing band, and was a member of King Crimson for an extended period as well. Like the others, Stevens has balanced his career between being a full time member of rock groups (he's best known as Billy Idol's right hand man on his best known albums, Billy Idol, Rebel Yell, and Whiplash Smile, as well as briefly working with Vince Neil), as well as session work (Michael Jackson's Bad, a Grammy award for his work on the Top Gun movie soundtrack, etc.). Never ones to pass on an opportunity to show off their immense instrumental prowess, the trio jumped at the chance to unite together and shred away. 1997 saw the release of the trio's debut album, Black Light Syndrome, which left prog rockers frothing at the mouth (especially since nearly all of the album's seven tracks either came close to reaching the ten minute mark). A supporting tour didn't happen, due to scheduling conflicts, but three years later, a sophomore effort was released, 2000's Situation Dangerous (an album that took only 14 days to record). It's anyone's guess as to when the trio will get around to issuing another recording – as all three continue to have quite demanding recording schedules.

~ Greg Prato, All Music

***************

Bozzio Levin Stevens - Black Light Syndrome (1997) {2006, Reissue}

Track List:

01. The Sun Road [14:41]
02. Dark Corners [8:33]
03. Duende [7:27]
04. Black Light Syndrome [8:46]
05. Falling In Circles [9:09]
06. Book Of Hours [9:43]
07. Chaos/Control [8:50]

Personnel:
Steve Stevens - guitar
Tony Levin - Chapman stick, bass
Terry Bozzio - drums

Exact Audio Copy V1.0 beta 3 from 29. August 2011

EAC extraction logfile from 12. June 2019, 12:06

BOZZIO LEVIN STEVENS / Black Light Syndrome

Used drive : PLEXTOR DVDR PX-740A Adapter: 0 ID: 0

Read mode : Secure
Utilize accurate stream : Yes
Defeat audio cache : Yes
Make use of C2 pointers : No

Read offset correction : 618
Overread into Lead-In and Lead-Out : No
Fill up missing offset samples with silence : Yes
Delete leading and trailing silent blocks : No
Null samples used in CRC calculations : Yes
Used interface : Native Win32 interface for Win NT & 2000

Used output format : Internal WAV Routines
Sample format : 44.100 Hz; 16 Bit; Stereo


TOC of the extracted CD

Track | Start | Length | Start sector | End sector
––––––––––––––––––––––––––––-
1 | 0:00.00 | 14:40.42 | 0 | 66041
2 | 14:40.42 | 8:33.33 | 66042 | 104549
3 | 23:14.00 | 7:27.37 | 104550 | 138111
4 | 30:41.37 | 8:46.28 | 138112 | 177589
5 | 39:27.65 | 9:09.00 | 177590 | 218764
6 | 48:36.65 | 9:43.20 | 218765 | 262509
7 | 58:20.10 | 8:49.57 | 262510 | 302241


Range status and errors

Selected range

Filename C:\MUSIC\CD Rips_J\Bozzio L S 1\BOZZIO LEVIN STEVENS - Black Light Syndrome.wav

Peak level 98.8 %
Extraction speed 8.8 X
Range quality 99.9 %
Test CRC 01F8D8AC
Copy CRC 01F8D8AC
Copy OK

No errors occurred


AccurateRip summary

Track 1 accurately ripped (confidence 2) [53676DCB] (AR v2)
Track 2 accurately ripped (confidence 2) [D79CB979] (AR v2)
Track 3 accurately ripped (confidence 2) [CB476C45] (AR v2)
Track 4 accurately ripped (confidence 2) [F5ED823E] (AR v2)
Track 5 accurately ripped (confidence 2) [4BF28E2E] (AR v2)
Track 6 accurately ripped (confidence 2) [499488F6] (AR v2)
Track 7 accurately ripped (confidence 2) [C492D972] (AR v2)

All tracks accurately ripped

End of status report

==== Log checksum 1BD9B04D242EB31782A7147150E8E52FBB144D3B43FA5E06F3A17328F25BE8C1 ====

[CUETools log; Date: 20.06.2019 13:34:43; Version: 2.1.6]
[CTDB TOCID: TKOK57G_ZEh_wAwAJUlzcfwp.Sc-] found.
Track | CTDB Status
1 | (195/205) Accurately ripped
2 | (196/205) Accurately ripped
3 | (196/205) Accurately ripped
4 | (196/205) Accurately ripped
5 | (195/205) Accurately ripped
6 | (196/205) Accurately ripped
7 | (190/205) Accurately ripped
[AccurateRip ID: 00136033-0071be15-690fbd07] found.
Track [ CRC | V2 ] Status
01 [d1c78064|53676dcb] (000+003/176) Accurately ripped
02 [09b8d789|d79cb979] (000+003/180) Accurately ripped
03 [9d823371|cb476c45] (000+003/179) Accurately ripped
04 [d1f0876f|f5ed823e] (000+003/178) Accurately ripped
05 [33857bec|4bf28e2e] (000+003/175) Accurately ripped
06 [3e0c41d1|499488f6] (000+003/176) Accurately ripped
07 [489e2747|c492d972] (000+003/173) Accurately ripped
Offsetted by 330:
01 [e804989a] (007/176) Accurately ripped
02 [198446c3] (007/180) Accurately ripped
03 [e1c80137] (007/179) Accurately ripped
04 [389c0169] (007/178) Accurately ripped
05 [f77054df] (007/175) Accurately ripped
06 [f0ce27b8] (007/176) Accurately ripped
07 [5bff5c7b] (007/173) Accurately ripped
Offsetted by 401:
01 [e063f893] (004/176) Accurately ripped
02 [7c554832] (004/180) Accurately ripped
03 [cd8fa748] (004/179) Accurately ripped
04 [d73b77f8] (004/178) Accurately ripped
05 [cc66cfc5] (004/175) Accurately ripped
06 [c0990f81] (004/176) Accurately ripped
07 [6b071679] (004/173) Accurately ripped
Offsetted by 402:
01 [b503f652] (003/176) Accurately ripped
02 [0a5839cb] (004/180) Accurately ripped
03 [9396122f] (004/179) Accurately ripped
04 [b568fb71] (003/178) Accurately ripped
05 [c6693b62] (002/175) Accurately ripped
06 [d99400f5] (003/176) Accurately ripped
07 [1119398b] (003/173) Accurately ripped
Offsetted by 659:
01 [29a1b311] (006/176) Accurately ripped
02 [9b4cc464] (006/180) Accurately ripped
03 [60076416] (006/179) Accurately ripped
04 [c119f7ea] (006/178) Accurately ripped
05 [052f7368] (006/175) Accurately ripped
06 [47627e44] (006/176) Accurately ripped
07 [c94e6e9d] (006/173) Accurately ripped
Offsetted by 664:
01 [50c1a7cc] (013/176) Accurately ripped
02 [615b7c61] (013/180) Accurately ripped
03 [3e277a99] (013/179) Accurately ripped
04 [17fd8947] (013/178) Accurately ripped
05 [75beb8df] (013/175) Accurately ripped
06 [b95d2dae] (013/176) Accurately ripped
07 [07a91df7] (012/173) Accurately ripped
Offsetted by 1056:
01 [e5be3444] (013/176) Accurately ripped
02 [d5dd6ea9] (013/180) Accurately ripped
03 [77fb2c51] (013/179) Accurately ripped
04 [4daeda8f] (013/178) Accurately ripped
05 [009e258e] (013/175) Accurately ripped
06 [cbb84e5b] (013/176) Accurately ripped
07 [536ed187] (013/173) Accurately ripped
Offsetted by 1060:
01 [383e2b40] (012/176) Accurately ripped
02 [0de9350d] (012/180) Accurately ripped
03 [9014d7ed] (012/179) Accurately ripped
04 [c664e873] (012/178) Accurately ripped
05 [d76edb31] (012/175) Accurately ripped
06 [2ca90b64] (012/176) Accurately ripped
07 [ebb75dcf] (012/173) Accurately ripped
Offsetted by 1061:
01 [0cde28ff] (014/176) Accurately ripped
02 [9bec26a6] (014/180) Accurately ripped
03 [561b42d4] (014/179) Accurately ripped
04 [a4926bec] (014/178) Accurately ripped
05 [61786d5c] (014/175) Accurately ripped
06 [44e5faa2] (014/176) Accurately ripped
07 [91c980e1] (014/173) Accurately ripped
Offsetted by 1286:
01 [ed7c2dde] (002/176) Accurately ripped
02 [6c827e1f] (002/180) Accurately ripped
03 [61bf37db] (002/179) Accurately ripped
04 [ea92f945] (002/178) Accurately ripped
05 [0ac48f1c] (002/175) Accurately ripped
06 [ffce5c4f] (002/176) Accurately ripped
07 [87ba53b3] (002/173) Accurately ripped
Offsetted by -263:
01 [6169d12b] (000/176) No match (V2 was not tested)
02 [24b2a35a] (000/180) No match (V2 was not tested)
03 [2cea6020] (000/179) No match (V2 was not tested)
04 [912e7620] (000/178) No match (V2 was not tested)
05 [9a0c3b25] (000/175) No match (V2 was not tested)
06 [956038b1] (000/176) No match (V2 was not tested)
07 [abfc1fc9] (000/173) No match (V2 was not tested)

Track Peak [ CRC32 ] [W/O NULL] [ LOG ]
– 98,8 [01F8D8AC] [7710601C] CRC32
01 98,8 [D995298E] [1AF9457C]
02 98,8 [4486912D] [E8E52C24]
03 98,8 [B7CFDCF3] [A8EC6EA7]
04 98,8 [65C16094] [898D62EE]
05 98,8 [DE7B789F] [882E6753]
06 98,8 [3E7438B8] [05405596]
07 98,8 [DEED5BB0] [B0D8B309]

Bozzio Levin Stevens - Black Light Syndrome (1997) {2006, Reissue}

All thanks go to Juergen

>>> My Blog <<<

Download from icerbox.com: