Subcategories

Brad Mehldau - Progression, The Art of The Trio Vol.5 (2001) [2CDs] {Warner}

Posted By: tiburon
Brad Mehldau - Progression, The Art of The Trio Vol.5 (2001) [2CDs] {Warner}

Brad Mehldau - Progression, The Art of The Trio Vol.5 (2001) [2CDs] {Warner}
EAC 0.99pb4 | FLAC tracks level 8 | Cue+Log+M3U | Full Scans 300dpi | 766MB + 5% Recovery
MP3 CBR 320 Kbps | 311MB + 5% Recovery
Genre: Jazz, Post-Bop
Brad Mehldau - Progression, The Art of The Trio Vol.5 (2001) [2CDs] {Warner}

Virtuoso pianist Brad Mehldau continues his Art of the Trio series with a two-CD set titled Art of the Trio, Vol. 5: Progression. Recorded live at the Village Vanguard in New York City, this volume is his most satisfying triad outing yet. The trio opens disc one with a swinging up-tempo rendition of "The More I See You" and, for over ten minutes, Mehldau improvises his swinging instincts with his well-organized rhythmic partners, drummer Jorge Rossy and acoustic bassist Larry Grenadier. His original "Dream's Monk" features an extended variation on his profoundly introspective bebop. This composition is the centerpiece of disc one, which otherwise features covers of such standards as "Alone Together," "It Might as Well Be Spring," and "The Folks Who Live on the Hill." Disc two is evenly programmed with three originals by Brad Mehldau and three by Great American Songbook composers George & Ira Gershwin, Jerome Kern, Sammy Fain, and Paul Francis Webster. On the nearly 15-minute rendition of the Gershwin/Kern composition "Long Ago and Far Away," Mehldau's rhythm section plays fervent bop lines over his brilliant piano arpeggios after a virtuosic introduction. Grenadier's bass solo remains one of the most memorable on this recording, with Mehldau delicately comping it with light piano chord voicings. Rossy deftly adjusts and readjusts his brushwork to provide just the right textures and musical accompaniment. Whereas The Art of the Trio, Vol. 2, Vol. 3, and Vol. 4 provided Mehldau's listeners with rich documentation of his piano mastery that often includes altered root motion and meter on standard tunes, blazing swing tempos, and poetic piano lines that can hover intensely in a ballad, his intrinsic musical signature is more substantial on Progression due to several stunning piano solos, ethereal vamps, and successive thematic transformations.
Track List

CD1
01. The More I See You
02. Dream's Monk
03. The Folks Who Live On The Hill
04. Alone Toghether
05. It Might As Well Be Spring
06. Cry Me A River
07. River Man

CD2
01. Quit
02. Secret Love
03. Sublation
04. Resignation
05. Long Ago And Far Away
06. How Long Has This Been Going On

musicians
Brad Mehldau - piano
Larry Grenadier - bass
Jorge Rossy - drums

Produced by Matt Pierson


Exact Audio Copy V0.99 prebeta 4 from 23. January 2008

EAC extraction logfile from 14. April 2009, 19:00

Brad Mehldau / The Art of The Trio Vol.5 (disc 1)

Used drive : HL-DT-STDVD-ROM GDR8161B Adapter: 4 ID: 1

Read mode : Secure
Utilize accurate stream : Yes
Defeat audio cache : Yes
Make use of C2 pointers : No

Read offset correction : 102
Overread into Lead-In and Lead-Out : No
Fill up missing offset samples with silence : Yes
Delete leading and trailing silent blocks : No
Null samples used in CRC calculations : Yes
Used interface : Native Win32 interface for Win NT & 2000
Gap handling : Appended to previous track

Used output format : User Defined Encoder
Selected bitrate : 128 kBit/s
Quality : High
Add ID3 tag : No
Command line compressor : C:\Programmi\Exact Audio Copy\Flac\flac.exe
Additional command line options : -8 -V -T "ARTIST=%a" -T "TITLE=%t" -T "ALBUM=%g" -T "DATE=%y" -T "TRACKNUMBER=%n" -T "GENRE=%m" -T "COMMENT=EAC FLAC -8" %s


TOC of the extracted CD

Track | Start | Length | Start sector | End sector
––––––––––––––––––––––––––––-
1 | 0:00.00 | 10:06.67 | 0 | 45516
2 | 10:06.67 | 11:21.13 | 45517 | 96604
3 | 21:28.05 | 9:50.50 | 96605 | 140904
4 | 31:18.55 | 15:00.72 | 140905 | 208476
5 | 46:19.52 | 2:48.58 | 208477 | 221134
6 | 49:08.35 | 8:50.57 | 221135 | 260941
7 | 57:59.17 | 11:30.50 | 260942 | 312741


Track 1

Filename F:\Temp\Brad Mehldau - Progression, The Art of The Trio Vol.5\CD1of2\01 - The More I See You.wav

Pre-gap length 0:00:02.00

Peak level 99.8 %
Track quality 100.0 %
Test CRC 600859CF
Copy CRC 600859CF
Accurately ripped (confidence 6) [9395CFEC]
Copy OK

Track 2

Filename F:\Temp\Brad Mehldau - Progression, The Art of The Trio Vol.5\CD1of2\02 - Dream's Monk.wav

Peak level 99.8 %
Track quality 100.0 %
Test CRC 11131A2A
Copy CRC 11131A2A
Accurately ripped (confidence 6) [7025E7C7]
Copy OK

Track 3

Filename F:\Temp\Brad Mehldau - Progression, The Art of The Trio Vol.5\CD1of2\03 - The Folks Who Live On The Hill.wav

Peak level 91.6 %
Track quality 100.0 %
Test CRC 66A4DF77
Copy CRC 66A4DF77
Accurately ripped (confidence 6) [DEAA1279]
Copy OK

Track 4

Filename F:\Temp\Brad Mehldau - Progression, The Art of The Trio Vol.5\CD1of2\04 - Alone Toghether.wav

Peak level 99.8 %
Track quality 100.0 %
Test CRC D47E0F2D
Copy CRC D47E0F2D
Accurately ripped (confidence 6) [B027869F]
Copy OK

Track 5

Filename F:\Temp\Brad Mehldau - Progression, The Art of The Trio Vol.5\CD1of2\05 - It Might As Well Be Spring.wav

Peak level 99.8 %
Track quality 100.0 %
Test CRC BDDD7007
Copy CRC BDDD7007
Accurately ripped (confidence 6) [11C37C4D]
Copy OK

Track 6

Filename F:\Temp\Brad Mehldau - Progression, The Art of The Trio Vol.5\CD1of2\06 - Cry Me A River.wav

Peak level 99.8 %
Track quality 100.0 %
Test CRC 263EA0E1
Copy CRC 263EA0E1
Accurately ripped (confidence 6) [19EDD127]
Copy OK

Track 7

Filename F:\Temp\Brad Mehldau - Progression, The Art of The Trio Vol.5\CD1of2\07 - River Man.wav

Peak level 99.8 %
Track quality 100.0 %
Test CRC CAD538FC
Copy CRC CAD538FC
Accurately ripped (confidence 6) [FC543E8C]
Copy OK


All tracks accurately ripped

No errors occurred

End of status report


Exact Audio Copy V0.99 prebeta 4 from 23. January 2008

EAC extraction logfile from 14. April 2009, 19:28

Brad Mehldau / The Art of The Trio Vol.5 (disc 2)

Used drive : HL-DT-STDVD-ROM GDR8161B Adapter: 4 ID: 1

Read mode : Secure
Utilize accurate stream : Yes
Defeat audio cache : Yes
Make use of C2 pointers : No

Read offset correction : 102
Overread into Lead-In and Lead-Out : No
Fill up missing offset samples with silence : Yes
Delete leading and trailing silent blocks : No
Null samples used in CRC calculations : Yes
Used interface : Native Win32 interface for Win NT & 2000
Gap handling : Appended to previous track

Used output format : User Defined Encoder
Selected bitrate : 128 kBit/s
Quality : High
Add ID3 tag : No
Command line compressor : C:\Programmi\Exact Audio Copy\Flac\flac.exe
Additional command line options : -8 -V -T "ARTIST=%a" -T "TITLE=%t" -T "ALBUM=%g" -T "DATE=%y" -T "TRACKNUMBER=%n" -T "GENRE=%m" -T "COMMENT=EAC FLAC -8" %s


TOC of the extracted CD

Track | Start | Length | Start sector | End sector
––––––––––––––––––––––––––––-
1 | 0:00.00 | 7:14.15 | 0 | 32564
2 | 7:14.15 | 10:08.37 | 32565 | 78201
3 | 17:22.52 | 14:58.35 | 78202 | 145586
4 | 32:21.12 | 8:39.18 | 145587 | 184529
5 | 41:00.30 | 14:50.22 | 184530 | 251301
6 | 55:50.52 | 10:45.40 | 251302 | 299716


Track 1

Filename F:\Temp\Brad Mehldau - Progression, The Art of The Trio Vol.5\CD2of2\01 - Quit.wav

Pre-gap length 0:00:02.00

Peak level 99.8 %
Track quality 100.0 %
Test CRC FCDB68ED
Copy CRC FCDB68ED
Accurately ripped (confidence 7) [AD299C08]
Copy OK

Track 2

Filename F:\Temp\Brad Mehldau - Progression, The Art of The Trio Vol.5\CD2of2\02 - Secret Love.wav

Peak level 98.0 %
Track quality 100.0 %
Test CRC 257DF38A
Copy CRC 257DF38A
Accurately ripped (confidence 7) [D831AF6C]
Copy OK

Track 3

Filename F:\Temp\Brad Mehldau - Progression, The Art of The Trio Vol.5\CD2of2\03 - Sublation.wav

Peak level 99.8 %
Track quality 100.0 %
Test CRC A5C244E7
Copy CRC A5C244E7
Accurately ripped (confidence 7) [B05422C1]
Copy OK

Track 4

Filename F:\Temp\Brad Mehldau - Progression, The Art of The Trio Vol.5\CD2of2\04 - Resignation.wav

Peak level 99.8 %
Track quality 100.0 %
Test CRC F7FAE0DB
Copy CRC F7FAE0DB
Accurately ripped (confidence 7) [A544471A]
Copy OK

Track 5

Filename F:\Temp\Brad Mehldau - Progression, The Art of The Trio Vol.5\CD2of2\05 - Long Ago And Far Away.wav

Peak level 99.8 %
Track quality 100.0 %
Test CRC 1755F62B
Copy CRC 1755F62B
Accurately ripped (confidence 7) [D85C1F5D]
Copy OK

Track 6

Filename F:\Temp\Brad Mehldau - Progression, The Art of The Trio Vol.5\CD2of2\06 - How Long Has This Been Going On.wav

Peak level 97.2 %
Track quality 99.9 %
Test CRC 17772E33
Copy CRC 17772E33
Accurately ripped (confidence 7) [C7BED280]
Copy OK


All tracks accurately ripped

No errors occurred

End of status report

Brad Mehldau - Progression, The Art of The Trio Vol.5 (2001) [2CDs] {Warner}
Brad Mehldau - Progression, The Art of The Trio Vol.5 (2001) [2CDs] {Warner}
Brad Mehldau - Progression, The Art of The Trio Vol.5 (2001) [2CDs] {Warner}


Thanks to the original ripper