Subcategories

Brahms: The Piano concertos - Claudio Arrau, Carlo Maria Giulini - REUP

Posted By: juancito84
Brahms: The Piano concertos - Claudio Arrau, Carlo Maria Giulini - REUP

Brahms: The Piano concertos - Claudio Arrau, piano
Philharmonia Orchestra - Carlo Maria Giulini, conductor

Classical | APE (separate tracks) + LOG - No cue | Ripped with dBpoweramp | Covers & booklet | 2 CD's | 522 MB
Release: 1997 | Label: EMI Classics

Since in music we deal with notes, not words, with chords, with transitions, with color and expression, the musical meaning always based on those notes as written and nothing else - has to be divined. Therefore any musician, no matter how great an instrumentalist, who is not also an interpreter of a divinatory order, the way Furtwängler was, or Fischer-Dieskau is, is somehow one-sided, somehow without spiritual grandeur. — Claudio Arrau

Brahms: The Piano concertos - Claudio Arrau, Carlo Maria Giulini - REUP

Tracks:

CD1:
-Piano concerto No.1, Op.15
-Ouverture Tragique, Op.81

CD2:
-Piano concerto No.2, Op.83
-Variations sur a theme de Haydn, Op.56a

Claudio Arrau
, piano
Philharmonia Orchestra
Carlo Maria Giulini, conductor
Recordings: 1960 (Concerto No.1), 1961 (Haydn variations), 1962 (Ouverture, Concerto No.2)
Release: 1997

dBpoweramp Release 12.1 Digital Audio Extraction Log from Sábado, 26 de Junio de 2010 2:46 p.m.

Drive & Settings
––––––––

Ripping with drive 'D: [HL-DT-ST - DVDRAM GH20NS15 ]', Drive offset: 667, Overread Lead-in/out: No
AccurateRip: Active, Using C2: No, Cache: None, FUA Cache Invalidate: No
Pass 1 Drive Speed: Max, Pass 2 Drive Speed: Max
Ultra:: Vary Drive Speed: No, Min Passes: 3, Max Passes: 6, Finish After Clean Passes: 2
Bad Sector Re-rip:: Drive Speed: Max, Maximum Re-reads: 34

Encoder: Monkeys Audio -c="4000"

Extraction Log
–––––––

Track 1: Ripped LBA 32 to 106060 (23:33) in 4:05. Filename: C:\Juan\Juan\Arrau-Giulini\Claudio Arrau\Claudio Arrau - The piano concertos - CD1 - 01 - Brahms - Piano Concerto No.1 in D minor, Op.15 - I. Maestoso.ape
AccurateRip: Accurate (confidence 2) [Pass 1]
CRC32: 5825AE58

Track 2: Ripped LBA 106060 to 174037 (15:06) in 1:57. Filename: C:\Juan\Juan\Arrau-Giulini\Claudio Arrau\Claudio Arrau - The piano concertos - CD1 - 02 - II. Adagio.ape
AccurateRip: Accurate (confidence 2) [Pass 1]
CRC32: B54ACFB8

Track 3: Ripped LBA 174037 to 232527 (12:59) in 2:56. Filename: C:\Juan\Juan\Arrau-Giulini\Claudio Arrau\Claudio Arrau - The piano concertos - CD1 - 03 - III. Rondo (Allegro non troppo).ape
AccurateRip: Accurate (confidence 2) [Pass 1 & 2]
CRC32: 6C88E8CB

Track 4: Ripped LBA 232527 to 291857 (13:11) in 12:47. Filename: C:\Juan\Juan\Arrau-Giulini\Claudio Arrau\Claudio Arrau - The piano concertos - CD1 - 04 - Brahms - Tragic Overture, Op.81.ape
AccurateRip: Inaccurate (confidence 2) Secure (Warning) [Pass 1 & 2, Ultra 1 to 6, Re-Rip 354 Frames]
CRC32: CCD3E2C3
Re-rip Frame: 233940 (00:00:18,826) matched 10 / 10
Re-rip Frame: 234987 (00:00:32,786) matched 10 / 11
Re-rip Frame: 234988 (00:00:32,800) matched 10 / 11
Re-rip Frame: 235169 (00:00:35,213) matched 10 / 22
Re-rip Frame: 235421 (00:00:38,573) matched 10 / 12
Re-rip Frame: 235430 (00:00:38,693) matched 10 / 10
Re-rip Frame: 235942 (00:00:45,520) matched 10 / 10
Re-rip Frame: 235978 (00:00:46,000) matched 10 / 16
Re-rip Frame: 235986 (00:00:46,106) matched 10 / 14
Re-rip Frame: 236063 (00:00:47,133) matched 10 / 10
Re-rip Frame: 236104 (00:00:47,680) matched 10 / 10
Re-rip Frame: 236594 (00:00:54,213) matched 10 / 10
Re-rip Frame: 237019 (00:00:59,880) matched 10 / 10
Re-rip Frame: 237246 (00:01:02,906) matched 10 / 11
Re-rip Frame: 237282 (00:01:03,386) matched 10 / 10
Re-rip Frame: 237329 (00:01:04,013) matched 10 / 12
Re-rip Frame: 238113 (00:01:14,466) matched 10 / 11
Re-rip Frame: 238167 (00:01:15,186) matched 10 / 10
Re-rip Frame: 238171 (00:01:15,240) matched 10 / 12
Re-rip Frame: 238296 (00:01:16,906) matched 10 / 11
Re-rip Frame: 238669 (00:01:21,880) matched 10 / 16
Re-rip Frame: 239115 (00:01:27,826) matched 10 / 11
Re-rip Frame: 239995 (00:01:39,560) matched 10 / 12
Re-rip Frame: 240086 (00:01:40,773) matched 10 / 11
Re-rip Frame: 240181 (00:01:42,040) matched 10 / 11
Re-rip Frame: 240354 (00:01:44,346) matched 10 / 11
Re-rip Frame: 240578 (00:01:47,333) matched 10 / 11
Re-rip Frame: 240754 (00:01:49,680) matched 10 / 10
Re-rip Frame: 241200 (00:01:55,626) matched 10 / 20
Re-rip Frame: 241280 (00:01:56,693) matched 10 / 13
Re-rip Frame: 241738 (00:02:02,800) matched 10 / 10
Re-rip Frame: 243384 (00:02:24,746) matched 10 / 12
Re-rip Frame: 243864 (00:02:31,146) matched 10 / 10
Re-rip Frame: 244232 (00:02:36,053) matched 10 / 12
Re-rip Frame: 244734 (00:02:42,746) matched 10 / 10
Re-rip Frame: 244988 (00:02:46,133) matched 10 / 12
Re-rip Frame: 244989 (00:02:46,146) matched 10 / 10
Re-rip Frame: 244996 (00:02:46,240) matched 10 / 11
Re-rip Frame: 245065 (00:02:47,160) matched 10 / 11
Re-rip Frame: 245066 (00:02:47,173) matched 10 / 10
Re-rip Frame: 245204 (00:02:49,013) matched 10 / 10
Re-rip Frame: 245248 (00:02:49,600) matched 10 / 11
Re-rip Frame: 245790 (00:02:56,826) matched 10 / 19
Re-rip Frame: 245797 (00:02:56,920) matched 10 / 11
Re-rip Frame: 245855 (00:02:57,693) matched 10 / 13
Re-rip Frame: 245856 (00:02:57,706) matched 10 / 10
Re-rip Frame: 245913 (00:02:58,466) matched 10 / 10
Re-rip Frame: 245968 (00:02:59,200) matched 10 / 10
Re-rip Frame: 245971 (00:02:59,240) matched 10 / 10
Re-rip Frame: 246033 (00:03:00,066) matched 10 / 11
Re-rip Frame: 246067 (00:03:00,520) matched 10 / 10
Re-rip Frame: 246070 (00:03:00,560) matched 10 / 11
Re-rip Frame: 246202 (00:03:02,320) matched 10 / 16
Re-rip Frame: 246508 (00:03:06,400) matched 10 / 10
Re-rip Frame: 246580 (00:03:07,360) matched 10 / 10
Re-rip Frame: 246737 (00:03:09,453) matched 10 / 10
Re-rip Frame: 246762 (00:03:09,786) matched 10 / 10
Re-rip Frame: 246810 (00:03:10,426) matched 10 / 10
Re-rip Frame: 246819 (00:03:10,546) matched 10 / 10
Re-rip Frame: 247083 (00:03:14,066) matched 10 / 14
Re-rip Frame: 247108 (00:03:14,400) matched 10 / 10
Re-rip Frame: 247186 (00:03:15,440) matched 10 / 12
Re-rip Frame: 247769 (00:03:23,213) matched 10 / 10
Re-rip Frame: 247979 (00:03:26,013) matched 10 / 15
Re-rip Frame: 248092 (00:03:27,520) matched 10 / 10
Re-rip Frame: 248353 (00:03:31,000) matched 10 / 16
Re-rip Frame: 248354 (00:03:31,013) matched 10 / 12
Re-rip Frame: 248424 (00:03:31,946) matched 10 / 11
Re-rip Frame: 248725 (00:03:35,960) matched 10 / 12
Re-rip Frame: 248978 (00:03:39,333) matched 10 / 11
Re-rip Frame: 249127 (00:03:41,320) matched 10 / 11
Re-rip Frame: 249132 (00:03:41,386) matched 10 / 11
Re-rip Frame: 249305 (00:03:43,693) matched 10 / 22
Re-rip Frame: 249610 (00:03:47,760) matched 10 / 10
Re-rip Frame: 249629 (00:03:48,013) matched 10 / 11
Re-rip Frame: 249982 (00:03:52,720) matched 10 / 10
Re-rip Frame: 251183 (00:04:08,733) matched 10 / 13
Re-rip Frame: 251221 (00:04:09,240) matched 10 / 10
Re-rip Frame: 251233 (00:04:09,400) matched 10 / 10
Re-rip Frame: 251513 (00:04:13,133) matched 10 / 22
Re-rip Frame: 251576 (00:04:13,973) matched 10 / 11
Re-rip Frame: 251955 (00:04:19,026) matched 10 / 10
Re-rip Frame: 252331 (00:04:24,040) matched 10 / 14
Re-rip Frame: 253644 (00:04:41,546) matched 10 / 10
Re-rip Frame: 253794 (00:04:43,546) matched 10 / 11
Re-rip Frame: 253884 (00:04:44,746) matched 10 / 10
Re-rip Frame: 254212 (00:04:49,120) matched 10 / 11
Re-rip Frame: 254498 (00:04:52,933) matched 10 / 11
Re-rip Frame: 254692 (00:04:55,520) matched 10 / 10
Re-rip Frame: 255476 (00:05:05,973) matched 10 / 10
Re-rip Frame: 255538 (00:05:06,800) matched 10 / 10
Re-rip Frame: 255539 (00:05:06,813) matched 10 / 10
Re-rip Frame: 255722 (00:05:09,253) matched 10 / 10
Re-rip Frame: 256575 (00:05:20,626) matched 10 / 11
Re-rip Frame: 256953 (00:05:25,666) matched 10 / 12
Re-rip Frame: 257465 (00:05:32,493) matched 10 / 19
Re-rip Frame: 259109 (00:05:54,413) matched 10 / 10
Re-rip Frame: 260734 (00:06:16,080) matched 10 / 18
Re-rip Frame: 261154 (00:06:21,680) matched 10 / 11
Re-rip Frame: 261155 (00:06:21,693) matched 10 / 11
Re-rip Frame: 261482 (00:06:26,053) matched 10 / 18
Re-rip Frame: 261836 (00:06:30,773) matched 10 / 12
Re-rip Frame: 261968 (00:06:32,533) matched 10 / 14
Re-rip Frame: 262026 (00:06:33,306) matched 10 / 11
Re-rip Frame: 262077 (00:06:33,986) matched 10 / 12
Re-rip Frame: 262078 (00:06:34,000) matched 10 / 10
Re-rip Frame: 262436 (00:06:38,773) matched 10 / 11
Re-rip Frame: 262465 (00:06:39,160) matched 10 / 10
Re-rip Frame: 262752 (00:06:42,986) matched 10 / 12
Re-rip Frame: 266134 (00:07:28,080) matched 10 / 12
Re-rip Frame: 266296 (00:07:30,240) matched 10 / 13
Re-rip Frame: 267142 (00:07:41,520) matched 10 / 17
Re-rip Frame: 267173 (00:07:41,933) matched 10 / 11
Re-rip Frame: 267255 (00:07:43,026) matched 10 / 18
Re-rip Frame: 267256 (00:07:43,040) matched 10 / 13
Re-rip Frame: 267482 (00:07:46,053) matched 10 / 10
Re-rip Frame: 267661 (00:07:48,440) matched 10 / 15
Re-rip Frame: 267812 (00:07:50,453) matched 10 / 10
Re-rip Frame: 267900 (00:07:51,626) matched 10 / 19
Re-rip Frame: 267977 (00:07:52,653) matched 10 / 19
Re-rip Frame: 268026 (00:07:53,306) matched 10 / 12
Re-rip Frame: 268161 (00:07:55,106) matched 10 / 10
Re-rip Frame: 268277 (00:07:56,653) matched 10 / 10
Re-rip Frame: 268324 (00:07:57,280) matched 10 / 10
Re-rip Frame: 269031 (00:08:06,706) matched 10 / 11
Re-rip Frame: 269340 (00:08:10,826) matched 10 / 10
Re-rip Frame: 269518 (00:08:13,200) matched 10 / 11
Re-rip Frame: 270459 (00:08:25,746) matched 10 / 10
Re-rip Frame: 270460 (00:08:25,760) matched 10 / 10
Re-rip Frame: 270854 (00:08:31,013) matched 10 / 15
Re-rip Frame: 271142 (00:08:34,853) matched 10 / 11
Re-rip Frame: 271513 (00:08:39,800) matched 10 / 10
Re-rip Frame: 271592 (00:08:40,853) matched 10 / 13
Re-rip Frame: 271593 (00:08:40,866) matched 10 / 11
Re-rip Frame: 273720 (00:09:09,226) matched 10 / 10
Re-rip Frame: 274059 (00:09:13,746) matched 10 / 13
Re-rip Frame: 274904 (00:09:25,013) matched 10 / 10
Re-rip Frame: 274927 (00:09:25,320) matched 10 / 11
Re-rip Frame: 274936 (00:09:25,440) matched 10 / 10
Re-rip Frame: 274964 (00:09:25,813) matched 10 / 10
Re-rip Frame: 274965 (00:09:25,826) matched 10 / 11
Re-rip Frame: 274974 (00:09:25,946) matched 10 / 11
Re-rip Frame: 275108 (00:09:27,733) matched 10 / 22
Re-rip Frame: 275128 (00:09:28,000) matched 10 / 15
Re-rip Frame: 275148 (00:09:28,266) matched 10 / 22
Re-rip Frame: 275149 (00:09:28,280) matched 10 / 15
Re-rip Frame: 275168 (00:09:28,533) matched 10 / 15
Re-rip Frame: 275169 (00:09:28,546) matched 10 / 15
Re-rip Frame: 275188 (00:09:28,800) matched 10 / 15
Re-rip Frame: 275189 (00:09:28,813) matched 10 / 15
Re-rip Frame: 275208 (00:09:29,066) matched 10 / 15
Re-rip Frame: 275209 (00:09:29,080) matched 10 / 15
Re-rip Frame: 275228 (00:09:29,333) matched 10 / 14
Re-rip Frame: 275229 (00:09:29,346) matched 10 / 15
Re-rip Frame: 275249 (00:09:29,613) matched 10 / 15
Re-rip Frame: 275250 (00:09:29,626) matched 10 / 10
Re-rip Frame: 275269 (00:09:29,880) matched 10 / 14
Re-rip Frame: 275289 (00:09:30,146) matched 10 / 13
Re-rip Frame: 275309 (00:09:30,413) matched 10 / 10
Re-rip Frame: 275330 (00:09:30,693) matched 10 / 11
Re-rip Frame: 275334 (00:09:30,746) matched 10 / 10
Re-rip Frame: 275350 (00:09:30,960) matched 10 / 13
Re-rip Frame: 275369 (00:09:31,213) matched 10 / 11
Re-rip Frame: 275370 (00:09:31,226) matched 10 / 15
Re-rip Frame: 275390 (00:09:31,493) matched 10 / 15
Re-rip Frame: 275391 (00:09:31,506) matched 10 / 15
Re-rip Frame: 275410 (00:09:31,760) matched 10 / 11
Re-rip Frame: 275430 (00:09:32,026) matched 10 / 12
Re-rip Frame: 275431 (00:09:32,040) matched 10 / 13
Re-rip Frame: 275450 (00:09:32,293) matched 10 / 15
Re-rip Frame: 275470 (00:09:32,560) matched 10 / 15
Re-rip Frame: 275471 (00:09:32,573) matched 10 / 15
Re-rip Frame: 275491 (00:09:32,840) matched 10 / 13
Re-rip Frame: 275511 (00:09:33,106) matched 10 / 10
Re-rip Frame: 275551 (00:09:33,640) matched 10 / 10
Re-rip Frame: 275552 (00:09:33,653) matched 10 / 10
Re-rip Frame: 275571 (00:09:33,906) matched 10 / 10
Re-rip Frame: 275652 (00:09:34,986) matched 10 / 12
Re-rip Frame: 275733 (00:09:36,066) matched 10 / 10
Re-rip Frame: 275753 (00:09:36,333) matched 10 / 11
Re-rip Frame: 275773 (00:09:36,600) matched 10 / 11
Re-rip Frame: 275774 (00:09:36,613) matched 10 / 11
Re-rip Frame: 275790 (00:09:36,826) matched 10 / 10
Re-rip Frame: 275793 (00:09:36,866) matched 10 / 10
Re-rip Frame: 275805 (00:09:37,026) matched 10 / 10
Re-rip Frame: 275814 (00:09:37,146) matched 10 / 10
Re-rip Frame: 275816 (00:09:37,173) matched 10 / 10
Re-rip Frame: 275834 (00:09:37,413) matched 10 / 12
Re-rip Frame: 275845 (00:09:37,560) matched 10 / 11
Re-rip Frame: 275914 (00:09:38,480) matched 10 / 15
Re-rip Frame: 275919 (00:09:38,546) matched 10 / 10
Re-rip Frame: 275925 (00:09:38,626) matched 10 / 10
Re-rip Frame: 275935 (00:09:38,760) matched 10 / 12
Re-rip Frame: 275974 (00:09:39,280) matched 10 / 10
Re-rip Frame: 275975 (00:09:39,293) matched 10 / 10
Re-rip Frame: 276096 (00:09:40,906) matched 10 / 11
Re-rip Frame: 276116 (00:09:41,173) matched 10 / 11
Re-rip Frame: 276156 (00:09:41,706) matched 10 / 10
Re-rip Frame: 276205 (00:09:42,360) matched 10 / 10
Re-rip Frame: 276318 (00:09:43,866) matched 10 / 11
Re-rip Frame: 276358 (00:09:44,400) matched 10 / 13
Re-rip Frame: 276499 (00:09:46,280) matched 10 / 10
Re-rip Frame: 276540 (00:09:46,826) matched 10 / 14
Re-rip Frame: 277049 (00:09:53,613) matched 10 / 13
Re-rip Frame: 277247 (00:09:56,253) matched 10 / 11
Re-rip Frame: 277254 (00:09:56,346) matched 10 / 11
Re-rip Frame: 277495 (00:09:59,560) matched 10 / 11
Re-rip Frame: 277873 (00:10:04,600) matched 10 / 10
Re-rip Frame: 277937 (00:10:05,453) matched 10 / 11
Re-rip Frame: 278026 (00:10:06,640) matched 10 / 12
Re-rip Frame: 278027 (00:10:06,653) matched 10 / 11
Re-rip Frame: 278061 (00:10:07,106) matched 10 / 10
Re-rip Frame: 278084 (00:10:07,413) matched 10 / 11
Re-rip Frame: 278086 (00:10:07,440) matched 10 / 12
Re-rip Frame: 278095 (00:10:07,560) matched 10 / 11
Re-rip Frame: 278226 (00:10:09,306) matched 10 / 11
Re-rip Frame: 278279 (00:10:10,013) matched 10 / 11
Re-rip Frame: 278325 (00:10:10,626) matched 10 / 10
Re-rip Frame: 278347 (00:10:10,920) matched 10 / 16
Re-rip Frame: 278400 (00:10:11,626) matched 10 / 16
Re-rip Frame: 278440 (00:10:12,160) matched 10 / 11
Re-rip Frame: 278521 (00:10:13,240) matched 10 / 21
Re-rip Frame: 278522 (00:10:13,253) matched 10 / 14
Re-rip Frame: 278906 (00:10:18,373) matched 10 / 10
Re-rip Frame: 278947 (00:10:18,920) matched 10 / 13
Re-rip Frame: 278987 (00:10:19,453) matched 10 / 11
Re-rip Frame: 279006 (00:10:19,706) matched 10 / 11
Re-rip Frame: 279008 (00:10:19,733) matched 10 / 12
Re-rip Frame: 279089 (00:10:20,813) matched 10 / 15
Re-rip Frame: 279107 (00:10:21,053) matched 10 / 11
Re-rip Frame: 279134 (00:10:21,413) matched 10 / 11
Re-rip Frame: 279136 (00:10:21,440) matched 10 / 12
Re-rip Frame: 279398 (00:10:24,933) matched 10 / 11
Re-rip Frame: 279480 (00:10:26,026) matched 10 / 10
Re-rip Frame: 279495 (00:10:26,226) matched 10 / 12
Re-rip Frame: 279798 (00:10:30,266) matched 10 / 10
Re-rip Frame: 280041 (00:10:33,506) matched 10 / 11
Re-rip Frame: 280128 (00:10:34,666) matched 10 / 19
Re-rip Frame: 280147 (00:10:34,920) matched 10 / 13
Re-rip Frame: 280185 (00:10:35,426) matched 10 / 10
Re-rip Frame: 280188 (00:10:35,466) matched 10 / 14
Re-rip Frame: 280244 (00:10:36,213) matched 10 / 10
Re-rip Frame: 280247 (00:10:36,253) matched 10 / 10
Re-rip Frame: 280506 (00:10:39,706) matched 10 / 10
Re-rip Frame: 280840 (00:10:44,160) matched 10 / 11
Re-rip Frame: 280867 (00:10:44,520) matched 10 / 10
Re-rip Frame: 281174 (00:10:48,613) matched 10 / 10
Re-rip Frame: 281194 (00:10:48,880) matched 10 / 10
Re-rip Frame: 281207 (00:10:49,053) matched 10 / 13
Re-rip Frame: 281777 (00:10:56,653) matched 10 / 20
Re-rip Frame: 281793 (00:10:56,866) matched 10 / 10
Re-rip Frame: 281833 (00:10:57,400) matched 10 / 13
Re-rip Frame: 282492 (00:11:06,186) matched 10 / 15
Re-rip Frame: 282493 (00:11:06,200) matched 10 / 12
Re-rip Frame: 282600 (00:11:07,626) matched 10 / 14
Re-rip Frame: 282642 (00:11:08,186) matched 10 / 12
Re-rip Frame: 282747 (00:11:09,586) matched 10 / 12
Re-rip Frame: 282765 (00:11:09,826) matched 10 / 13
Re-rip Frame: 282778 (00:11:10,000) matched 10 / 11
Re-rip Frame: 282904 (00:11:11,680) matched 10 / 11
Re-rip Frame: 282937 (00:11:12,120) matched 10 / 10
Re-rip Frame: 283008 (00:11:13,066) matched 10 / 11
Re-rip Frame: 283084 (00:11:14,080) matched 10 / 10
Re-rip Frame: 283096 (00:11:14,240) matched 10 / 12
Re-rip Frame: 283481 (00:11:19,373) matched 10 / 12
Re-rip Frame: 283519 (00:11:19,880) matched 10 / 10
Re-rip Frame: 283693 (00:11:22,200) matched 10 / 11
Re-rip Frame: 283732 (00:11:22,720) matched 10 / 10
Re-rip Frame: 283835 (00:11:24,093) matched 10 / 12
Re-rip Frame: 284078 (00:11:27,333) matched 10 / 10
Re-rip Frame: 284095 (00:11:27,560) matched 10 / 11
Re-rip Frame: 284294 (00:11:30,213) matched 10 / 11
Re-rip Frame: 284313 (00:11:30,466) matched 10 / 19
Re-rip Frame: 284314 (00:11:30,480) matched 10 / 13
Re-rip Frame: 284322 (00:11:30,586) matched 10 / 10
Re-rip Frame: 284334 (00:11:30,746) matched 10 / 13
Re-rip Frame: 284335 (00:11:30,760) matched 10 / 15
Re-rip Frame: 284354 (00:11:31,013) matched 10 / 11
Re-rip Frame: 284355 (00:11:31,026) matched 10 / 11
Re-rip Frame: 284375 (00:11:31,293) matched 10 / 11
Re-rip Frame: 284376 (00:11:31,306) matched 10 / 15
Re-rip Frame: 284391 (00:11:31,506) matched 10 / 10
Re-rip Frame: 284416 (00:11:31,840) matched 10 / 10
Re-rip Frame: 284500 (00:11:32,960) matched 10 / 12
Re-rip Frame: 284515 (00:11:33,160) matched 10 / 15
Re-rip Frame: 284518 (00:11:33,200) matched 10 / 15
Re-rip Frame: 284519 (00:11:33,213) matched 10 / 10
Re-rip Frame: 284561 (00:11:33,773) matched 10 / 10
Re-rip Frame: 284579 (00:11:34,013) matched 10 / 10
Re-rip Frame: 284580 (00:11:34,026) matched 10 / 12
Re-rip Frame: 284641 (00:11:34,840) matched 10 / 13
Re-rip Frame: 284662 (00:11:35,120) matched 10 / 11
Re-rip Frame: 284715 (00:11:35,826) matched 10 / 10
Re-rip Frame: 284717 (00:11:35,853) matched 10 / 13
Re-rip Frame: 284722 (00:11:35,920) matched 10 / 12
Re-rip Frame: 284783 (00:11:36,733) matched 10 / 10
Re-rip Frame: 284825 (00:11:37,293) matched 10 / 10
Re-rip Frame: 284964 (00:11:39,146) matched 10 / 10
Re-rip Frame: 285029 (00:11:40,013) matched 10 / 11
Re-rip Frame: 285137 (00:11:41,453) matched 10 / 10
Re-rip Frame: 285315 (00:11:43,826) matched 10 / 13
Re-rip Frame: 285401 (00:11:44,973) matched 10 / 10
Re-rip Frame: 285402 (00:11:44,986) matched 10 / 12
Re-rip Frame: 285421 (00:11:45,240) matched 10 / 11
Re-rip Frame: 285751 (00:11:49,640) matched 10 / 10
Re-rip Frame: 286550 (00:12:00,293) matched 10 / 10
Re-rip Frame: 286592 (00:12:00,853) matched 10 / 22
Re-rip Frame: 286679 (00:12:02,013) matched 10 / 11
Re-rip Frame: 286962 (00:12:05,786) matched 10 / 11
Re-rip Frame: 287149 (00:12:08,280) matched 10 / 22
Re-rip Frame: 287161 (00:12:08,440) matched 10 / 10
Re-rip Frame: 287289 (00:12:10,146) matched 10 / 10
Re-rip Frame: 287784 (00:12:16,746) matched 10 / 10
Re-rip Frame: 287956 (00:12:19,040) matched 10 / 11
Re-rip Frame: 288012 (00:12:19,786) matched 10 / 10
Re-rip Frame: 288031 (00:12:20,040) matched 10 / 11
Re-rip Frame: 288190 (00:12:22,160) matched 10 / 12
Re-rip Frame: 288306 (00:12:23,706) matched 10 / 10
Re-rip Frame: 288572 (00:12:27,253) matched 10 / 12
Re-rip Frame: 288618 (00:12:27,866) matched 10 / 10
Re-rip Frame: 288813 (00:12:30,466) matched 10 / 10
Re-rip Frame: 289008 (00:12:33,066) matched 10 / 10
Re-rip Frame: 289326 (00:12:37,306) matched 10 / 17
Re-rip Frame: 289345 (00:12:37,560) matched 10 / 10
Re-rip Frame: 289457 (00:12:39,053) matched 10 / 10
Re-rip Frame: 289470 (00:12:39,226) matched 10 / 10
Re-rip Frame: 289501 (00:12:39,640) matched 10 / 10
Re-rip Frame: 289566 (00:12:40,506) matched 10 / 10
Re-rip Frame: 289584 (00:12:40,746) matched 10 / 10
Re-rip Frame: 289654 (00:12:41,680) matched 10 / 10
Re-rip Frame: 289703 (00:12:42,333) matched 10 / 11
Re-rip Frame: 289743 (00:12:42,866) matched 10 / 17
Re-rip Frame: 289753 (00:12:43,000) matched 10 / 10
Re-rip Frame: 289985 (00:12:46,093) matched 10 / 11
Re-rip Frame: 290018 (00:12:46,533) matched 10 / 10
Re-rip Frame: 290020 (00:12:46,560) matched 10 / 10
Re-rip Frame: 290028 (00:12:46,666) matched 10 / 10
Re-rip Frame: 290067 (00:12:47,186) matched 10 / 14
Re-rip Frame: 290134 (00:12:48,080) matched 10 / 11
Re-rip Frame: 290270 (00:12:49,893) matched 10 / 11
Re-rip Frame: 290301 (00:12:50,306) matched 10 / 10
Re-rip Frame: 290565 (00:12:53,826) matched 10 / 12
Re-rip Frame: 290701 (00:12:55,640) matched 10 / 20
Re-rip Frame: 290803 (00:12:57,000) matched 10 / 10
Re-rip Frame: 290818 (00:12:57,200) matched 10 / 10
Re-rip Frame: 290881 (00:12:58,040) matched 10 / 14
Re-rip Frame: 290889 (00:12:58,146) matched 10 / 11
Re-rip Frame: 291165 (00:13:01,826) matched 10 / 10
Re-rip Frame: 291258 (00:13:03,066) matched 10 / 18
Re-rip Frame: 291442 (00:13:05,520) matched 10 / 11
Re-rip Frame: 291689 (00:13:08,813) matched 10 / 10
Re-rip Frame: 291765 (00:13:09,826) matched 10 / 10
Re-rip Frame: 291806 (00:13:10,373) matched 10 / 18
Re-rip Frame: 291811 (00:13:10,440) matched 10 / 10

–––––––

4 Tracks Ripped: 3 Accurate, 1 Secure (Warning)


dBpoweramp Release 12.1 Digital Audio Extraction Log from Sábado, 26 de Junio de 2010 3:20 p.m.

Drive & Settings
––––––––

Ripping with drive 'D: [HL-DT-ST - DVDRAM GH20NS15 ]', Drive offset: 667, Overread Lead-in/out: No
AccurateRip: Active, Using C2: No, Cache: None, FUA Cache Invalidate: No
Pass 1 Drive Speed: Max, Pass 2 Drive Speed: Max
Ultra:: Vary Drive Speed: No, Min Passes: 3, Max Passes: 6, Finish After Clean Passes: 2
Bad Sector Re-rip:: Drive Speed: Max, Maximum Re-reads: 34

Encoder: Monkeys Audio -c="4000"

Extraction Log
–––––––

Track 1: Ripped LBA 32 to 86802 (19:16) in 4:31. Filename: C:\Juan\Juan\Arrau-Giulini\Claudio Arrau\Claudio Arrau - The piano concertos - CD2 - 01 - Brahms - Piano Concerto No.2 in B flat major, Op.83 - I. Allegro non troppo.ape
AccurateRip: Accurate (confidence 2) [Pass 1 & 2, Ultra 1 to 3, Re-Rip 10 Frames]
CRC32: 5A268164
Re-rip Frame: 72 (00:00:00,520) matched 10 / 11
Re-rip Frame: 408 (00:00:05,000) matched 10 / 11
Re-rip Frame: 466 (00:00:05,773) matched 10 / 10
Re-rip Frame: 1772 (00:00:23,186) matched 10 / 14
Re-rip Frame: 2771 (00:00:36,506) matched 10 / 10
Re-rip Frame: 3731 (00:00:49,306) matched 10 / 12
Re-rip Frame: 5795 (00:01:16,826) matched 10 / 11
Re-rip Frame: 11084 (00:02:27,346) matched 10 / 16
Re-rip Frame: 18374 (00:04:04,546) matched 10 / 12
Re-rip Frame: 21873 (00:04:51,200) matched 10 / 11

Track 2: Ripped LBA 86802 to 128940 (9:21) in 0:40. Filename: C:\Juan\Juan\Arrau-Giulini\Claudio Arrau\Claudio Arrau - The piano concertos - CD2 - 02 - II. Allegretto appassionato.ape
AccurateRip: Accurate (confidence 2) [Pass 1 & 2]
CRC32: ABD5EA54

Track 3: Ripped LBA 128940 to 183567 (12:08) in 3:10. Filename: C:\Juan\Juan\Arrau-Giulini\Claudio Arrau\Claudio Arrau - The piano concertos - CD2 - 03 - III. Andante.ape
AccurateRip: Inaccurate (confidence 2) Secure (Warning) [Pass 1 & 2, Ultra 1 to 6, Re-Rip 29 Frames]
CRC32: 61A8A7E6
Re-rip Frame: 128956 (00:00:00,200) matched 10 / 22
Re-rip Frame: 128957 (00:00:00,213) matched 10 / 10
Re-rip Frame: 146593 (00:03:55,360) matched 10 / 16
Re-rip Frame: 172554 (00:09:41,506) matched 10 / 10
Re-rip Frame: 176530 (00:10:34,520) matched 10 / 11
Re-rip Frame: 183297 (00:12:04,746) matched 10 / 11
Re-rip Frame: 183299 (00:12:04,773) matched 10 / 15
Re-rip Frame: 183300 (00:12:04,786) matched 10 / 14
Re-rip Frame: 183301 (00:12:04,800) matched 10 / 15
Re-rip Frame: 183302 (00:12:04,813) matched 10 / 15
Re-rip Frame: 183303 (00:12:04,826) matched 10 / 15
Re-rip Frame: 183304 (00:12:04,840) matched 10 / 15
Re-rip Frame: 183305 (00:12:04,853) matched 10 / 15
Re-rip Frame: 183306 (00:12:04,866) matched 10 / 15
Re-rip Frame: 183307 (00:12:04,880) matched 10 / 15
Re-rip Frame: 183308 (00:12:04,893) matched 10 / 15
Re-rip Frame: 183309 (00:12:04,906) matched 10 / 15
Re-rip Frame: 183310 (00:12:04,920) matched 10 / 15
Re-rip Frame: 183311 (00:12:04,933) matched 10 / 15
Re-rip Frame: 183312 (00:12:04,946) matched 10 / 15
Re-rip Frame: 183313 (00:12:04,960) matched 10 / 15
Re-rip Frame: 183314 (00:12:04,973) matched 10 / 15
Re-rip Frame: 183315 (00:12:04,986) matched 10 / 15
Re-rip Frame: 183316 (00:12:05,000) matched 10 / 15
Re-rip Frame: 183317 (00:12:05,013) matched 10 / 15
Re-rip Frame: 183318 (00:12:05,026) matched 10 / 15
Re-rip Frame: 183319 (00:12:05,040) matched 10 / 15
Re-rip Frame: 183320 (00:12:05,053) matched 10 / 15
Re-rip Frame: 183322 (00:12:05,080) matched 10 / 15

Track 4: Ripped LBA 183567 to 228752 (10:02) in 3:07. Filename: C:\Juan\Juan\Arrau-Giulini\Claudio Arrau\Claudio Arrau - The piano concertos - CD2 - 04 - IV. Allegretto grazioso.ape
AccurateRip: Inaccurate (confidence 2) Secure (Warning) [Pass 1 & 2, Ultra 1 to 6, Re-Rip 186 Frames]
CRC32: F763D93A
Re-rip Frame: 183581 (00:00:00,173) matched 10 / 22
Re-rip Frame: 183582 (00:00:00,186) matched 10 / 15
Re-rip Frame: 183711 (00:00:01,906) matched 10 / 15
Re-rip Frame: 183863 (00:00:03,933) matched 10 / 12
Re-rip Frame: 184103 (00:00:07,133) matched 10 / 11
Re-rip Frame: 184256 (00:00:09,173) matched 10 / 17
Re-rip Frame: 184397 (00:00:11,053) matched 10 / 11
Re-rip Frame: 184631 (00:00:14,173) matched 10 / 10
Re-rip Frame: 184870 (00:00:17,360) matched 10 / 10
Re-rip Frame: 185078 (00:00:20,133) matched 10 / 10
Re-rip Frame: 185278 (00:00:22,800) matched 10 / 13
Re-rip Frame: 185739 (00:00:28,946) matched 10 / 13
Re-rip Frame: 186842 (00:00:43,653) matched 10 / 11
Re-rip Frame: 187078 (00:00:46,800) matched 10 / 11
Re-rip Frame: 188430 (00:01:04,826) matched 10 / 10
Re-rip Frame: 189119 (00:01:14,013) matched 10 / 10
Re-rip Frame: 189187 (00:01:14,920) matched 10 / 10
Re-rip Frame: 189210 (00:01:15,226) matched 10 / 11
Re-rip Frame: 189218 (00:01:15,333) matched 10 / 10
Re-rip Frame: 189789 (00:01:22,946) matched 10 / 13
Re-rip Frame: 189806 (00:01:23,173) matched 10 / 14
Re-rip Frame: 190806 (00:01:36,506) matched 10 / 10
Re-rip Frame: 191064 (00:01:39,946) matched 10 / 10
Re-rip Frame: 191236 (00:01:42,240) matched 10 / 10
Re-rip Frame: 191841 (00:01:50,306) matched 10 / 11
Re-rip Frame: 192019 (00:01:52,680) matched 10 / 10
Re-rip Frame: 192100 (00:01:53,760) matched 10 / 11
Re-rip Frame: 192187 (00:01:54,920) matched 10 / 11
Re-rip Frame: 192244 (00:01:55,680) matched 10 / 10
Re-rip Frame: 192259 (00:01:55,880) matched 10 / 10
Re-rip Frame: 192310 (00:01:56,560) matched 10 / 10
Re-rip Frame: 192344 (00:01:57,013) matched 10 / 10
Re-rip Frame: 192393 (00:01:57,666) matched 10 / 10
Re-rip Frame: 192394 (00:01:57,680) matched 10 / 11
Re-rip Frame: 192412 (00:01:57,920) matched 10 / 10
Re-rip Frame: 192413 (00:01:57,933) matched 10 / 12
Re-rip Frame: 192448 (00:01:58,400) matched 10 / 11
Re-rip Frame: 192531 (00:01:59,506) matched 10 / 12
Re-rip Frame: 192549 (00:01:59,746) matched 10 / 11
Re-rip Frame: 192600 (00:02:00,426) matched 10 / 10
Re-rip Frame: 192620 (00:02:00,693) matched 10 / 10
Re-rip Frame: 192827 (00:02:03,453) matched 10 / 10
Re-rip Frame: 193214 (00:02:08,613) matched 10 / 10
Re-rip Frame: 193553 (00:02:13,133) matched 10 / 11
Re-rip Frame: 193571 (00:02:13,373) matched 10 / 11
Re-rip Frame: 193659 (00:02:14,546) matched 10 / 10
Re-rip Frame: 193744 (00:02:15,680) matched 10 / 10
Re-rip Frame: 193816 (00:02:16,640) matched 10 / 11
Re-rip Frame: 193920 (00:02:18,026) matched 10 / 10
Re-rip Frame: 193925 (00:02:18,093) matched 10 / 11
Re-rip Frame: 193989 (00:02:18,946) matched 10 / 11
Re-rip Frame: 194214 (00:02:21,946) matched 10 / 13
Re-rip Frame: 194229 (00:02:22,146) matched 10 / 10
Re-rip Frame: 194248 (00:02:22,400) matched 10 / 11
Re-rip Frame: 194250 (00:02:22,426) matched 10 / 12
Re-rip Frame: 194352 (00:02:23,786) matched 10 / 10
Re-rip Frame: 194390 (00:02:24,293) matched 10 / 12
Re-rip Frame: 194391 (00:02:24,306) matched 10 / 12
Re-rip Frame: 194631 (00:02:27,506) matched 10 / 10
Re-rip Frame: 194807 (00:02:29,853) matched 10 / 11
Re-rip Frame: 194856 (00:02:30,506) matched 10 / 11
Re-rip Frame: 194858 (00:02:30,533) matched 10 / 11
Re-rip Frame: 194945 (00:02:31,693) matched 10 / 10
Re-rip Frame: 194946 (00:02:31,706) matched 10 / 11
Re-rip Frame: 194947 (00:02:31,720) matched 10 / 10
Re-rip Frame: 195013 (00:02:32,600) matched 10 / 11
Re-rip Frame: 195014 (00:02:32,613) matched 10 / 11
Re-rip Frame: 195274 (00:02:36,080) matched 10 / 10
Re-rip Frame: 195308 (00:02:36,533) matched 10 / 11
Re-rip Frame: 195343 (00:02:37,000) matched 10 / 10
Re-rip Frame: 195554 (00:02:39,813) matched 10 / 10
Re-rip Frame: 195555 (00:02:39,826) matched 10 / 10
Re-rip Frame: 195674 (00:02:41,413) matched 10 / 11
Re-rip Frame: 195897 (00:02:44,386) matched 10 / 12
Re-rip Frame: 196077 (00:02:46,786) matched 10 / 11
Re-rip Frame: 196148 (00:02:47,733) matched 10 / 10
Re-rip Frame: 196338 (00:02:50,266) matched 10 / 11
Re-rip Frame: 196342 (00:02:50,320) matched 10 / 15
Re-rip Frame: 196383 (00:02:50,866) matched 10 / 12
Re-rip Frame: 196460 (00:02:51,893) matched 10 / 10
Re-rip Frame: 196583 (00:02:53,533) matched 10 / 12
Re-rip Frame: 197195 (00:03:01,693) matched 10 / 10
Re-rip Frame: 197418 (00:03:04,666) matched 10 / 11
Re-rip Frame: 197422 (00:03:04,720) matched 10 / 11
Re-rip Frame: 197488 (00:03:05,600) matched 10 / 13
Re-rip Frame: 197609 (00:03:07,213) matched 10 / 10
Re-rip Frame: 198015 (00:03:12,626) matched 10 / 13
Re-rip Frame: 198498 (00:03:19,066) matched 10 / 11
Re-rip Frame: 198670 (00:03:21,360) matched 10 / 10
Re-rip Frame: 198765 (00:03:22,626) matched 10 / 13
Re-rip Frame: 199256 (00:03:29,173) matched 10 / 10
Re-rip Frame: 199751 (00:03:35,773) matched 10 / 11
Re-rip Frame: 199979 (00:03:38,813) matched 10 / 12
Re-rip Frame: 199995 (00:03:39,026) matched 10 / 10
Re-rip Frame: 200183 (00:03:41,533) matched 10 / 11
Re-rip Frame: 200289 (00:03:42,946) matched 10 / 11
Re-rip Frame: 200767 (00:03:49,320) matched 10 / 12
Re-rip Frame: 200801 (00:03:49,773) matched 10 / 10
Re-rip Frame: 200817 (00:03:49,986) matched 10 / 11
Re-rip Frame: 201645 (00:04:01,026) matched 10 / 11
Re-rip Frame: 202194 (00:04:08,346) matched 10 / 10
Re-rip Frame: 202246 (00:04:09,040) matched 10 / 13
Re-rip Frame: 203090 (00:04:20,293) matched 10 / 12
Re-rip Frame: 203096 (00:04:20,373) matched 10 / 10
Re-rip Frame: 203164 (00:04:21,280) matched 10 / 10
Re-rip Frame: 203637 (00:04:27,586) matched 10 / 10
Re-rip Frame: 203657 (00:04:27,853) matched 10 / 10
Re-rip Frame: 204418 (00:04:38,000) matched 10 / 11
Re-rip Frame: 204861 (00:04:43,906) matched 10 / 10
Re-rip Frame: 206847 (00:05:10,386) matched 10 / 12
Re-rip Frame: 207469 (00:05:18,680) matched 10 / 10
Re-rip Frame: 207504 (00:05:19,146) matched 10 / 11
Re-rip Frame: 207562 (00:05:19,920) matched 10 / 10
Re-rip Frame: 207574 (00:05:20,080) matched 10 / 13
Re-rip Frame: 207735 (00:05:22,226) matched 10 / 11
Re-rip Frame: 208038 (00:05:26,266) matched 10 / 10
Re-rip Frame: 208271 (00:05:29,373) matched 10 / 11
Re-rip Frame: 208289 (00:05:29,613) matched 10 / 13
Re-rip Frame: 208822 (00:05:36,720) matched 10 / 10
Re-rip Frame: 208860 (00:05:37,226) matched 10 / 10
Re-rip Frame: 208892 (00:05:37,653) matched 10 / 13
Re-rip Frame: 209841 (00:05:50,306) matched 10 / 12
Re-rip Frame: 212493 (00:06:25,666) matched 10 / 10
Re-rip Frame: 212672 (00:06:28,053) matched 10 / 12
Re-rip Frame: 213051 (00:06:33,106) matched 10 / 10
Re-rip Frame: 213731 (00:06:42,173) matched 10 / 11
Re-rip Frame: 213857 (00:06:43,853) matched 10 / 10
Re-rip Frame: 213875 (00:06:44,093) matched 10 / 10
Re-rip Frame: 213876 (00:06:44,106) matched 10 / 10
Re-rip Frame: 214036 (00:06:46,240) matched 10 / 11
Re-rip Frame: 214651 (00:06:54,440) matched 10 / 10
Re-rip Frame: 214687 (00:06:54,920) matched 10 / 11
Re-rip Frame: 214939 (00:06:58,280) matched 10 / 11
Re-rip Frame: 215191 (00:07:01,640) matched 10 / 11
Re-rip Frame: 215625 (00:07:07,426) matched 10 / 10
Re-rip Frame: 215881 (00:07:10,840) matched 10 / 11
Re-rip Frame: 216145 (00:07:14,360) matched 10 / 10
Re-rip Frame: 216149 (00:07:14,413) matched 10 / 15
Re-rip Frame: 216564 (00:07:19,946) matched 10 / 10
Re-rip Frame: 216565 (00:07:19,960) matched 10 / 10
Re-rip Frame: 216958 (00:07:25,200) matched 10 / 10
Re-rip Frame: 217035 (00:07:26,226) matched 10 / 10
Re-rip Frame: 217036 (00:07:26,240) matched 10 / 10
Re-rip Frame: 217146 (00:07:27,706) matched 10 / 14
Re-rip Frame: 217779 (00:07:36,146) matched 10 / 11
Re-rip Frame: 217795 (00:07:36,360) matched 10 / 11
Re-rip Frame: 217831 (00:07:36,840) matched 10 / 10
Re-rip Frame: 218013 (00:07:39,266) matched 10 / 10
Re-rip Frame: 219026 (00:07:52,773) matched 10 / 11
Re-rip Frame: 219172 (00:07:54,720) matched 10 / 10
Re-rip Frame: 219316 (00:07:56,640) matched 10 / 10
Re-rip Frame: 219518 (00:07:59,333) matched 10 / 10
Re-rip Frame: 219884 (00:08:04,213) matched 10 / 10
Re-rip Frame: 220409 (00:08:11,213) matched 10 / 11
Re-rip Frame: 220444 (00:08:11,680) matched 10 / 10
Re-rip Frame: 220521 (00:08:12,706) matched 10 / 11
Re-rip Frame: 220646 (00:08:14,373) matched 10 / 10
Re-rip Frame: 220808 (00:08:16,533) matched 10 / 10
Re-rip Frame: 221018 (00:08:19,333) matched 10 / 10
Re-rip Frame: 221248 (00:08:22,400) matched 10 / 10
Re-rip Frame: 221252 (00:08:22,453) matched 10 / 10
Re-rip Frame: 221379 (00:08:24,146) matched 10 / 10
Re-rip Frame: 223964 (00:08:58,613) matched 10 / 11
Re-rip Frame: 224190 (00:09:01,626) matched 10 / 10
Re-rip Frame: 224257 (00:09:02,520) matched 10 / 10
Re-rip Frame: 224282 (00:09:02,853) matched 10 / 11
Re-rip Frame: 224810 (00:09:09,893) matched 10 / 12
Re-rip Frame: 226000 (00:09:25,760) matched 10 / 10
Re-rip Frame: 226298 (00:09:29,733) matched 10 / 10
Re-rip Frame: 226410 (00:09:31,226) matched 10 / 10
Re-rip Frame: 227052 (00:09:39,786) matched 10 / 10
Re-rip Frame: 227843 (00:09:50,333) matched 10 / 10
Re-rip Frame: 228331 (00:09:56,840) matched 10 / 10
Re-rip Frame: 228332 (00:09:56,853) matched 10 / 11
Re-rip Frame: 228333 (00:09:56,866) matched 10 / 15
Re-rip Frame: 228334 (00:09:56,880) matched 10 / 15
Re-rip Frame: 228335 (00:09:56,893) matched 10 / 15
Re-rip Frame: 228336 (00:09:56,906) matched 10 / 15
Re-rip Frame: 228337 (00:09:56,920) matched 10 / 15
Re-rip Frame: 228338 (00:09:56,933) matched 10 / 15
Re-rip Frame: 228339 (00:09:56,946) matched 10 / 15
Re-rip Frame: 228340 (00:09:56,960) matched 10 / 13
Re-rip Frame: 228341 (00:09:56,973) matched 10 / 15
Re-rip Frame: 228342 (00:09:56,986) matched 10 / 12
Re-rip Frame: 228343 (00:09:57,000) matched 10 / 12
Re-rip Frame: 228344 (00:09:57,013) matched 10 / 12

Track 5: Ripped LBA 228752 to 312640 (18:38) in 0:28. Filename: C:\Juan\Juan\Arrau-Giulini\Claudio Arrau\Claudio Arrau - The piano concertos - CD2 - 05 - Variations on a theme of Haydn, Op.56a.ape
AccurateRip: Accurate (confidence 2) [Pass 1]
CRC32: 1C22EB39

–––––––

5 Tracks Ripped: 3 Accurate, 2 Secure (Warning)