Subcategories

Brainbox - Parts (1972) [Reissue 2012]

Posted By: antonyart
Brainbox - Parts (1972) [Reissue 2012]

Brainbox - Parts (1972) [Reissue 2012]
EAC Rip | FLAC (IMG+CUE+LOG) | 344 MB | Complete HQ Scans 600 dpi JPG included | MP3 Lame 320 CBR | 128 MB
Genre: Progressive Rock | RAR 5% Rec. | Label: Flawed Gems (GEM 75) | Uploaded, Depositfiles

Brainbox is usually remembered as Dutch heavy progressive band with guitarist Jan Akkerman and drummer Pierre van der Linden - just before they have founded fame in Focus. Many fans still even remember the vocalist Kaz Lux, but nobody ever mentions ‘Parts’ - an official 2nd album recorded by completely revamped line-up (with the exception of drummer Frank Smit) and released by EMI Harvest in 1972. This unjustly forgotten, but great record (now on CD for the first time!) was completely ignored at the time of release, which surely was a big mistake! LP featured very eclectic, mostly progressive and sometimes truly experimental tracks characterized by changing moods and clever arrangements - in many ways similar in style to Wishbone Ash, Livin’ Blues, Fleetwood Mac and Crosby, Stills, Nash & Young.
Brainbox - Parts (1972) [Reissue 2012]

Tracklist:

01. A Face 04:25
02. You're Used To Be Warmer 03:57
03. Part Of Me Is A Part of You 05:38
04. What It's All About 04:58
05. Scotch Ballad 02:04
06. Another Part 03:19
07. Dilemma 03:32
08. Drum And Thunder Suite 05:06
09. When I Was Poor 05:57
10. Virgin (Bonus A-Side 1971 SP) 03:42
11. Mobilae (Bonus B-Side 1971 SP) 05:40
12. Companion (Bonus Live at Paradiso 1971) 04:32
13. Sea Of Delight (Bonus Single version 1969) 03:03

Total: 55:53

Exact Audio Copy V1.0 beta 3 from 29. August 2011

EAC extraction logfile from 1. December 2012, 20:05

Brainbox / Parts

Used drive : HL-DT-STDVDRAM GT34N Adapter: 0 ID: 2

Read mode : Secure
Utilize accurate stream : Yes
Defeat audio cache : Yes
Make use of C2 pointers : No

Read offset correction : 103
Overread into Lead-In and Lead-Out : No
Fill up missing offset samples with silence : Yes
Delete leading and trailing silent blocks : No
Null samples used in CRC calculations : Yes
Used interface : Native Win32 interface for Win NT & 2000

Used output format : User Defined Encoder
Selected bitrate : 896 kBit/s
Quality : High
Add ID3 tag : Yes
Command line compressor : C:\Program Files (x86)\Exact Audio Copy\FLAC\FLAC.EXE
Additional command line options : -6 -V -T "ARTIST=%artist%" -T "TITLE=%title%" -T "ALBUM=%albumtitle%" -T "DATE=%year%" -T "TRACKNUMBER=%tracknr%" -T "GENRE=%genre%" -T "COMMENT=%comment%" -T "BAND=%albuminterpret%" -T "ALBUMARTIST=%albuminterpret%" -T "COMPOSER=%composer%" %haslyrics%–tag-from-file=LYRICS="%lyricsfile%"%haslyrics% -T "DISCNUMBER=%cdnumber%" -T "TOTALDISCS=%totalcds%" -T "TOTALTRACKS=%numtracks%" %hascover%–picture="%coverfile%"%hascover% %source% -o %dest%


TOC of the extracted CD

Track | Start | Length | Start sector | End sector
––––––––––––––––––––––––––––-
1 | 0:00.00 | 4:24.54 | 0 | 19853
2 | 4:24.54 | 3:56.48 | 19854 | 37601
3 | 8:21.27 | 5:37.70 | 37602 | 62946
4 | 13:59.22 | 4:57.73 | 62947 | 85294
5 | 18:57.20 | 2:04.29 | 85295 | 94623
6 | 21:01.49 | 3:18.38 | 94624 | 109511
7 | 24:20.12 | 3:32.02 | 109512 | 125413
8 | 27:52.14 | 5:06.21 | 125414 | 148384
9 | 32:58.35 | 5:57.17 | 148385 | 175176
10 | 38:55.52 | 3:41.44 | 175177 | 191795
11 | 42:37.21 | 5:40.02 | 191796 | 217297
12 | 48:17.23 | 4:32.17 | 217298 | 237714
13 | 52:49.40 | 3:03.07 | 237715 | 251446


Range status and errors

Selected range

Filename D:\FLAC\BRAINBOX -72- Parts\Brainbox - Parts.wav

Peak level 100.0 %
Extraction speed 2.1 X
Range quality 100.0 %
Test CRC 6AF354A4
Copy CRC 6AF354A4
Copy OK

No errors occurred


AccurateRip summary

Track 1 not present in database
Track 2 not present in database
Track 3 not present in database
Track 4 not present in database
Track 5 not present in database
Track 6 not present in database
Track 7 not present in database
Track 8 not present in database
Track 9 not present in database
Track 10 not present in database
Track 11 not present in database
Track 12 not present in database
Track 13 not present in database

None of the tracks are present in the AccurateRip database

End of status report

==== Log checksum 4DF66003CCBB3DE95CD544F5A13EE73BD4C16843CE86E2131F89FDDBBC1BAAA5 ====

foobar2000 1.1.9 / Dynamic Range Meter 1.1.1
log date: 2013-02-05 14:59:24

––––––––––––––––––––––––––––––––––––––––
Analyzed: Brainbox / Parts
––––––––––––––––––––––––––––––––––––––––

DR Peak RMS Duration Track
––––––––––––––––––––––––––––––––––––––––
DR8 -0.10 dB -10.71 dB 4:25 01-A Face
DR9 -0.10 dB -10.67 dB 3:57 02-You're Used To Be Warmer
DR9 -0.40 dB -12.82 dB 5:38 03-Part Of Me Is A Part of You
DR10 -0.30 dB -13.62 dB 4:58 04-What's It's All About
DR8 -0.40 dB -12.40 dB 2:04 05-Scotch Ballad
DR9 -0.40 dB -11.35 dB 3:19 06-Another Part
DR8 -0.40 dB -10.20 dB 3:32 07-Dilemma
DR13 0.00 dB -16.25 dB 5:06 08-Drum And Thunder Suite
DR7 -0.10 dB -9.00 dB 5:57 09-When I Saw Poor
DR6 -0.40 dB -7.26 dB 3:42 10-Virgin (bonus A-Side 1971 SP)
DR9 0.00 dB -11.24 dB 5:40 11-Mobilae (bonus B-Side 1971 SP)
DR9 -0.40 dB -11.56 dB 4:32 12-Companoin (bonus Live At Paradiso 1971)
DR12 0.00 dB -13.29 dB 3:03 13-Sea Of Delight (bonus 1969 SP)
––––––––––––––––––––––––––––––––––––––––

Number of tracks: 13
Official DR value: DR9

Samplerate: 44100 Hz
Channels: 2
Bits per sample: 16
Bitrate: 845 kbps
Codec: FLAC
================================================================================

Brainbox is a Dutch rock group from the late 1960s/early 1970s. The band was founded in Amsterdam by guitarist Jan Akkerman[1] , drummer Pierre van der Linden and singer Kazimir Lux (Kaz). Their debut single was "Down Man", which established their progressive blues sound. They had several hit singles in the Netherlands, including "Between Alpha and Omega", "Doomsday Train", Reason to Believe and "Smile". Soon after they released their first album, Jan Akkerman and Pierre van der Linden left the group to join Focus.
After Pierre van der linden and Jan Akkerman left, Brainbox bass player Cyril Havermans also followed to join Focus, replacing the original bass player Bert Ruiter. They were replaced by guitarists Herman Meyer and Rudie de Queljoe and drummer Frans Smit. Meyer was later replaced by John Schuursma. After Kaz Lux left the group in 1971, their popularity waned and they split up in 1972. In 2004 Kaz Lux reassembled the band (though without Jan Akkerman) and they performed in the Netherlands. In 2010 and 2011 the band performed again and recorded a new studio album The 3rd Flood.

from wiki

Brainbox - Parts (1972) [Reissue 2012]


This CD is from my personal collection. My original rip & my scan work.
>> here is my blog with all my rips <<
Please, do not mirror these links at any web pages.
FLAC + HQ 600 dpi complete scans:

Uploaded

Depositfiles

MP3 + 300 dpi front/back cover scans:

Uploaded

Depositfiles


Password: Ant