Subcategories

Breathless - Breathless (1979)

Posted By: v3122
Breathless - Breathless (1979)

Breathless - Breathless (1979)
EAC | Flac(Image) + Cue + Log & MP3 CBR 320Kbps
2020 | EMI America, SW-17013 | RU | ~ 254 or 89 Mb | Artwork(jpg) -> 2.52 Mb
Melodic Hard Rock, Arena Rock

Breathless, a band that many Clevelander's consider to be among the quintessential Cleveland rock groups (along with Eric Carmen (Rasberries), Joe Walsh (James Gang) the Michael Stanley Band and others) had brief successes from 1978 to 1981.

During this time EMI-America Records released two albums by the group, "Breathless" and "Nobody Leaves This Song Alive".

~ discogs
Breathless - Breathless (1979):

Breathless - Breathless (1979)

Tracklist:

01. Walk Right In
02. Dead Of The Night
03. Let Me Down Easy
04. Looks Like It's Heartaches (Without End)
05. Unchained Lightning
06. Takin' It Back
07. Nothing's Gonna Change My Mind
08. Glued To The Radio
09. Alibis
10. Ends Of The Earth

Bob Benjamin – Bass, Bass [Fretless Bass], Backing Vocals
Rodney Psyka – Congas, Timbales, Tom Tom, Percussion, Backing Vocals
Kevin Valentine – Drums, Synthesizer
Mark Avsec – Grand Piano, Electric Piano, Clavinet, Synthesizer, Organ, Backing Vocals
Alan Greene – Lead Guitar, Rhythm Guitar
Jonah Koslen – Lead Vocals, Backing Vocals, Lead Guitar, Twelve-String Guitar

Exact Audio Copy V1.3 from 2. September 2016

EAC extraction logfile from 7. April 2020, 11:14

Breathless / Breathless

Used drive : ASUS DRW-24D5MT Adapter: 1 ID: 0

Read mode : Secure
Utilize accurate stream : Yes
Defeat audio cache : Yes
Make use of C2 pointers : No

Read offset correction : 6
Overread into Lead-In and Lead-Out : No
Fill up missing offset samples with silence : Yes
Delete leading and trailing silent blocks : No
Null samples used in CRC calculations : Yes
Used interface : Native Win32 interface for Win NT & 2000
Gap handling : Appended to previous track

Used output format : User Defined Encoder
Selected bitrate : 1024 kBit/s
Quality : High
Add ID3 tag : No
Command line compressor : C:\Program Files (x86)\Exact Audio Copy\Flac\flac.exe
Additional command line options : -V -8 -T "Genre=%genre%" -T "Artist=%artist%" -T "Title=%title%" -T "Album=%albumtitle%" -T "Date=%year%" -T "Tracknumber=%tracknr%" -T "Comment=%comment%" %source%


TOC of the extracted CD

Track | Start | Length | Start sector | End sector
––––––––––––––––––––––––––––-
1 | 0:00.00 | 3:35.00 | 0 | 16124
2 | 3:35.00 | 3:16.47 | 16125 | 30871
3 | 6:51.47 | 4:30.00 | 30872 | 51121
4 | 11:21.47 | 3:37.19 | 51122 | 67415
5 | 14:58.66 | 4:02.54 | 67416 | 85619
6 | 19:01.45 | 3:23.18 | 85620 | 100862
7 | 22:24.63 | 3:37.28 | 100863 | 117165
8 | 26:02.16 | 4:02.24 | 117166 | 135339
9 | 30:04.40 | 3:01.52 | 135340 | 148966
10 | 33:06.17 | 4:33.28 | 148967 | 169469


Track 1

Filename H:\Sket4er\Breathless – Breathless (1979) 2020\01 Walk Right In.wav

Pre-gap length 0:00:02.00

Peak level 99.4 %
Extraction speed 1.1 X
Track quality 100.0 %
Test CRC 5AC115F9
Copy CRC 5AC115F9
Track not present in AccurateRip database
Copy OK

Track 2

Filename H:\Sket4er\Breathless – Breathless (1979) 2020\02 Dead Of The Night.wav

Peak level 99.9 %
Extraction speed 1.2 X
Track quality 100.0 %
Test CRC 819B7B06
Copy CRC 819B7B06
Track not present in AccurateRip database
Copy OK

Track 3

Filename H:\Sket4er\Breathless – Breathless (1979) 2020\03 Let Me Down Easy.wav

Peak level 98.8 %
Extraction speed 1.4 X
Track quality 100.0 %
Test CRC 1BFF4169
Copy CRC 1BFF4169
Track not present in AccurateRip database
Copy OK

Track 4

Filename H:\Sket4er\Breathless – Breathless (1979) 2020\04 Looks Like It's Heartaches (Without End).wav

Peak level 100.0 %
Extraction speed 1.4 X
Track quality 100.0 %
Test CRC 77D69537
Copy CRC 77D69537
Track not present in AccurateRip database
Copy OK

Track 5

Filename H:\Sket4er\Breathless – Breathless (1979) 2020\05 Unchained Lightning.wav

Peak level 99.8 %
Extraction speed 1.5 X
Track quality 100.0 %
Test CRC CD22383D
Copy CRC CD22383D
Track not present in AccurateRip database
Copy OK

Track 6

Filename H:\Sket4er\Breathless – Breathless (1979) 2020\06 Takin' It Back.wav

Peak level 99.5 %
Extraction speed 1.6 X
Track quality 100.0 %
Test CRC 356B2ABA
Copy CRC 356B2ABA
Track not present in AccurateRip database
Copy OK

Track 7

Filename H:\Sket4er\Breathless – Breathless (1979) 2020\07 Nothing's Gonna Change My Mind.wav

Peak level 100.0 %
Extraction speed 1.7 X
Track quality 100.0 %
Test CRC 7A58763D
Copy CRC 7A58763D
Track not present in AccurateRip database
Copy OK

Track 8

Filename H:\Sket4er\Breathless – Breathless (1979) 2020\08 Glued To The Radio.wav

Peak level 99.9 %
Extraction speed 1.4 X
Track quality 99.9 %
Test CRC 8B55B309
Copy CRC 8B55B309
Track not present in AccurateRip database
Copy OK

Track 9

Filename H:\Sket4er\Breathless – Breathless (1979) 2020\09 Alibis.wav

Peak level 100.0 %
Extraction speed 1.7 X
Track quality 100.0 %
Test CRC A9BD34AD
Copy CRC A9BD34AD
Track not present in AccurateRip database
Copy OK

Track 10

Filename H:\Sket4er\Breathless – Breathless (1979) 2020\10 Ends Of The Earth.wav

Peak level 100.0 %
Extraction speed 1.9 X
Track quality 100.0 %
Test CRC E4AAC7F2
Copy CRC E4AAC7F2
Track not present in AccurateRip database
Copy OK


None of the tracks are present in the AccurateRip database

No errors occurred

End of status report

–– CUETools DB Plugin V2.1.6

[CTDB TOCID: KtOZpCN62RJShu3V4RD7j57Myh4-] disk not present in database
Submit result: KtOZpCN62RJShu3V4RD7j57Myh4- has been uploaded


==== Log checksum 41FB6A84C4EE3F2D4C4EEFF36352C25E0E0C1717DA8EB31A456AE093BAE39D9C ====


[CUETools log; Date: 09.04.2020 17:54:00; Version: 2.1.4]
[AccurateRip ID: 000e1551-0070d860-7e08d30a] disk not present in database.

Track Peak [ CRC32 ] [W/O NULL] [ LOG ]
– 100,0 [ECF20E8F] [3BB77C2C]
01 99,4 [5AC115F9] [E73FA63B] CRC32
02 99,9 [819B7B06] [08BB5C6C] CRC32
03 98,8 [1BFF4169] [020CF037] CRC32
04 100,0 [77D69537] [643DF4A1] CRC32
05 99,8 [CD22383D] [15AE6DB0] CRC32
06 99,5 [356B2ABA] [05334C52] CRC32
07 100,0 [7A58763D] [CF5E607E] CRC32
08 99,9 [8B55B309] [D29FE310] CRC32
09 100,0 [A9BD34AD] [1050B51A] CRC32
10 100,0 [E4AAC7F2] [56B6EE14] CRC32


Breathless - Breathless (1979)

All thanks go to Sket4er

Breathless in my Blog

Download Breathless - Breathless (1979):