Subcategories

Brenda Boykin (Feat. Bebo Best and James Taylor) - All the Time in the World (2012)

Posted By: v3122
Brenda Boykin (Feat. Bebo Best and James Taylor) - All the Time in the World (2012)

Brenda Boykin (Feat. Bebo Best and James Taylor) - All the Time in the World (2012)
EAC Rip | Flac(Image) + Cue + Log & iPod M4A(Tracks) & MP3 CBR 320Kbps
ChinChin Records, ac 2079 | ~ 506 or 463 or 186 Mb | Scans(600dpi, Jpg) Included
Nu Jazz / Downtempo / Lounge / Soul

One of the great contemporary jazz singers. To say it with Lee Hildebrand's (music critic and music historian) words: "the most authentic and most creative voice of this generation."

Brenda Boykin used to live in San Francisco until 2004. Since then she lives in Wuppertal, Germany.

Brenda Boykin (Feat. Bebo Best and James Taylor) - All the Time in the World (2012)

She has performed at many of the famous jazz festivals like the Monterey Jazz Festivals, San Francisco Blues Festivals, DuMaurier Jazz Festivals in Vancouver, Umbria Jazz Festivals and the Montreux Jazz Festival (which she was awarded best vocalist in 2005), she also has performed in Mexico, France, New Zealand, Japan and of course thousands of times in the USA and Germany.

1997 she received a BAMMY nomination for "Best vocalist of the Year".

Since 2005 she's working with the German Nu-Jazz Project "Club des Belugas"

Brenda Boykin's solo album "chocolate and chilli", which has been released in October 2008, has been chosen by BBC among the best albums of the year 2008.

~ chinchin-records
Brenda Boykin (Feat. Bebo Best and James Taylor) - All the Time in the World (2012):

Brenda Boykin (Feat. Bebo Best and James Taylor) - All the Time in the World (2012)

Tracklist:

01. Feel Me (4:23)
02. Mambo Jambo (4:35)
03. This Maybe Game (4:05)
04. Don't Take My Love Away (3:46)
05. Where Is It Written (5:08)
06. I'll Be With You (4:31)
07. Stone Mad (4:40)
08. El Ritmo (4:20)
09. Pa-Pade Swing (Koko Chanel Club Mix) (4:04)
10. Dancing All Night (3:59)
11. All the Time in the World (3:57)
12. La Diva (4:16)
13. Ninety Nine 'n a Half (3:56)
14. U Don't Love Me (I Don't Care) (4:56)
15. And You Know How (3:59)

Exact Audio Copy V0.99 prebeta 5 from 4. May 2009

Отчёт EAC об извлечении, выполненном 5. февраля 2013, 22:18

Brenda Boykin / All the Time in the World

Дисковод: PLEXTOR DVDR PX-880SA Adapter: 1 ID: 0

Режим чтения : Достоверность
Использование точного потока : Да
Отключение кэша аудио : Да
Использование указателей C2 : Нет

Коррекция смещения при чтении : 6
Способность читать области Lead-in и Lead-out : Нет
Заполнение пропущенных сэмплов тишиной : Да
Удаление блоков с тишиной в начале и конце : Нет
При вычислениях CRC использовались нулевые сэмплы : Да
Интерфейс : Установленный внешний ASPI-интерфейс

Выходной формат : Пользовательский кодировщик
Выбранный битрейт : 1024 kBit/s
Качество : Высокий
Добавление ID3-тэга : Нет
Утилита сжатия : C:\Program Files\Exact Audio Copy\FLAC\FLAC.EXE
Дополнительные параметры : -10 -V -T "ARTIST=%a" -T "TITLE=%t" -T "ALBUM=%g" -T "DATE=%y" -T "TRACKNUMBER=%n" -T "GENRE=%m" -T "COMMENT=%e" %s -o %d


TOC извлечённого CD

Трек | Старт | Длительность | Начальный сектор | Конечный сектор
––––––––––––––––––––––––––––––––––-
1 | 0:00.00 | 4:24.16 | 0 | 19815
2 | 4:24.16 | 4:36.11 | 19816 | 40526
3 | 9:00.27 | 4:06.26 | 40527 | 59002
4 | 13:06.53 | 3:47.03 | 59003 | 76030
5 | 16:53.56 | 5:09.21 | 76031 | 99226
6 | 22:03.02 | 4:32.33 | 99227 | 119659
7 | 26:35.35 | 4:41.72 | 119660 | 140806
8 | 31:17.32 | 4:20.61 | 140807 | 160367
9 | 35:38.18 | 4:05.19 | 160368 | 178761
10 | 39:43.37 | 4:00.03 | 178762 | 196764
11 | 43:43.40 | 3:58.61 | 196765 | 214675
12 | 47:42.26 | 4:17.70 | 214676 | 234020
13 | 52:00.21 | 3:57.09 | 234021 | 251804
14 | 55:57.30 | 4:57.00 | 251805 | 274079
15 | 60:54.30 | 3:59.18 | 274080 | 292022


Характеристики диапазона извлечения и сообщения об ошибках

Выбранный диапазон

Имя файла D:\Brenda Boykin - All the Time in the World(2012)(flac)\Brenda Boykin - All the Time in the World.wav

Пиковый уровень 100.0 %
Качество диапазона 100.0 %
CRC теста F08BB12C
CRC копии F08BB12C
Копирование… OK

Ошибок не произошло


AccurateRip: сводка

Трек 1 точное извлечение (доверие 1) [6B8460B5]
Трек 2 точное извлечение (доверие 1) [942AC00A]
Трек 3 точное извлечение (доверие 1) [1A67A4F4]
Трек 4 точное извлечение (доверие 1) [90F5AC40]
Трек 5 точное извлечение (доверие 1) [4AAFECCD]
Трек 6 точное извлечение (доверие 1) [F0166ABD]
Трек 7 точное извлечение (доверие 1) [0F2AD6CE]
Трек 8 точное извлечение (доверие 1) [C165E365]
Трек 9 точное извлечение (доверие 1) [973E20D8]
Трек 10 точное извлечение (доверие 1) [D50FFD9F]
Трек 11 точное извлечение (доверие 1) [A94D30CD]
Трек 12 точное извлечение (доверие 1) [954713CA]
Трек 13 точное извлечение (доверие 1) [1951469E]
Трек 14 точное извлечение (доверие 1) [64C55774]
Трек 15 точное извлечение (доверие 1) [468EA25C]

Все треки извлечены точно

Конец отчёта

foobar2000 1.1.18 / Dynamic Range Meter 1.1.1
log date: 2013-02-10 08:02:37

––––––––––––––––––––––––––––––––––––––––
Analyzed: Brenda Boykin / All the Time in the World
––––––––––––––––––––––––––––––––––––––––

DR Peak RMS Duration Track
––––––––––––––––––––––––––––––––––––––––
DR9 -0.20 dB -10.34 dB 4:24 01-Feel Me
DR9 -0.20 dB -10.41 dB 4:36 02-Mambo Jambo
DR11 -0.02 dB -13.00 dB 4:06 03-This Maybe Game
DR7 -0.20 dB -8.77 dB 3:47 04-Don't Take My Love Away
DR12 -0.21 dB -14.80 dB 5:09 05-Where Is It Written
DR7 -0.02 dB -9.09 dB 4:32 06-I'll Be With You
DR9 -0.02 dB -10.36 dB 4:42 07-Stone Mad
DR9 -0.30 dB -10.95 dB 4:21 08-El Ritmo
DR9 0.00 dB -10.29 dB 4:05 09-Pa-Pade Swing (Koko Chanel Club Mix)
DR8 -0.20 dB -10.28 dB 4:00 10-Dancing All Night
DR9 -0.02 dB -10.37 dB 3:59 11-All the Time in the World
DR8 -0.30 dB -9.64 dB 4:18 12-La Diva
DR9 -0.20 dB -9.84 dB 3:57 13-Ninety Nine 'n a Half
DR8 -0.02 dB -9.61 dB 4:57 14-U Don't Love Me (I Don't Care)
DR6 -4.21 dB -12.40 dB 3:59 15-And You Know How
––––––––––––––––––––––––––––––––––––––––

Number of tracks: 15
Official DR value: DR9

Samplerate: 44100 Hz
Channels: 2
Bits per sample: 16
Bitrate: 989 kbps
Codec: FLAC

Brenda Boykin (Feat. Bebo Best and James Taylor) - All the Time in the World (2012)

All thanks go to izia1956

Download Brenda Boykin (Feat. Bebo Best and James Taylor) - All the Time in the World (2012):