Subcategories

Brian Protheroe - Pinball (1974)

Posted By: v3122
Brian Protheroe - Pinball (1974)

Brian Protheroe - Pinball (1974)
EAC | Flac(Image) + Cue + Log & MP3 CBR 320Kbps
1996 | Basta, 30-90472 | ~ 234 or 94 Mb | Scans(jpg) -> 5.05 Mb
Pop Rock, Singer/Songwriter

It starts off jumpy and jazzy, but a pretty layer of English art-rock fog creeps into Brian Protheroe's pop as the album goes on. Protheroe's melodies are silky and disarmingly romantic at times, and producer Del Newman, whose previous credits include orchestral arrangements for records by the likes of Cat Stevens and Elton John, crafts a smokey atmosphere for it all. Fans of Al Stewart would like this.

The song "Pinball" was a top 40 hit in the UK. The rest of Protheroe's music has a cult following at best and is most easily found in used vinyl bins. Over the years, he's stayed busy mainly as an actor in the British theatre.

by JasonHernandez, rateyourmusic
Brian Protheroe - Pinball (1974):

Brian Protheroe - Pinball (1974)

Tracklist:

01. Clog Dancer (03:52)
02. Money Love (03:27)
03. The Moon Over Malibu (03:19)
04. Mickey Dollar Dreams (03:27)
05. Goodbye Surprise (02:32)
06. Pinball (03:10)
07. Kinotata (00:29)
08. Changing My Tune (02:51)
09. Monkey (03:39)
10. Lady Belladonna (03:57)
11. Fly Now (02:20)
12. Interview / Also In The Limelight (05:44)
13. Wrong Kinotata (00:43)

Converted to Image (CUETools 2.1.4)

EAC extraction logfile from 6. November 2008, 11:42 for CD
Brian Protheroe / Pinball

Used drive : PLDS DVD+-RW DH-16A6S Adapter: 1 ID: 0
Read mode : Secure with NO C2, accurate stream, disable cache
Read offset correction : 6
Overread into Lead-In and Lead-Out : No

Used output format : C:\Program Files\FLAC\flac.exe (User Defined Encoder)
192 kBit/s
Additional command line options : -8 -V -T "ARTIST=%a" -T "TITLE=%t" -T "ALBUM=%g" -T "DATE=%y" -T "TRACKNUMBER=%n" -T "GENRE=%m" -T "COMMENT=EAC FLAC -8" %s

Other options :
Fill up missing offset samples with silence : Yes
Delete leading and trailing silent blocks : No
Native Win32 interface for Win NT & 2000


Track 1
Filename C:\CD Extractions\01 - Clog Dancer.wav

Pre-gap length 0:00:02.00

Peak level 86.3 %
Track quality 100.0 %
Test CRC 34F244E5
Copy CRC 34F244E5
Copy OK

Track 2
Filename C:\CD Extractions\02 - Money Love.wav

Pre-gap length 0:00:01.00

Peak level 100.0 %
Track quality 100.0 %
Test CRC 40A565B1
Copy CRC 40A565B1
Copy OK

Track 3
Filename C:\CD Extractions\03 - The Moon Over Malibu.wav

Pre-gap length 0:00:00.98

Peak level 100.0 %
Track quality 100.0 %
Test CRC 19BA7D8A
Copy CRC 19BA7D8A
Copy OK

Track 4
Filename C:\CD Extractions\04 - Mickey Dollar Dreams.wav

Pre-gap length 0:00:01.60

Peak level 90.5 %
Track quality 100.0 %
Test CRC EBCE302E
Copy CRC EBCE302E
Copy OK

Track 5
Filename C:\CD Extractions\05 - Goodbye Surprise.wav

Pre-gap length 0:00:01.60

Peak level 100.0 %
Track quality 100.0 %
Test CRC 8BDC3309
Copy CRC 8BDC3309
Copy OK

Track 6
Filename C:\CD Extractions\06 - Pinball.wav

Pre-gap length 0:00:01.60

Peak level 100.0 %
Track quality 100.0 %
Test CRC 70211B16
Copy CRC 70211B16
Copy OK

Track 7
Filename C:\CD Extractions\07 - Kinotata.wav

Pre-gap length 0:00:01.00

Peak level 92.9 %
Track quality 100.0 %
Test CRC 964CC959
Copy CRC 964CC959
Copy OK

Track 8
Filename C:\CD Extractions\08 - Changing My Tune.wav

Pre-gap length 0:00:01.60

Peak level 96.5 %
Track quality 99.9 %
Test CRC 1554A267
Copy CRC 1554A267
Copy OK

Track 9
Filename C:\CD Extractions\09 - Monkey.wav

Pre-gap length 0:00:01.00

Peak level 96.6 %
Track quality 100.0 %
Test CRC 0DC9B6B4
Copy CRC 0DC9B6B4
Copy OK

Track 10
Filename C:\CD Extractions\10 - Lady Belladonna.wav

Pre-gap length 0:00:01.60

Peak level 90.5 %
Track quality 100.0 %
Test CRC 77EC4BBF
Copy CRC 77EC4BBF
Copy OK

Track 11
Filename C:\CD Extractions\11 - Fly Now.wav

Pre-gap length 0:00:01.00

Peak level 79.6 %
Track quality 100.0 %
Test CRC CA43C51D
Copy CRC CA43C51D
Copy OK

Track 12
Filename C:\CD Extractions\12 - Interview , Also In The Limelight.wav

Pre-gap length 0:00:01.58

Peak level 75.3 %
Track quality 100.0 %
Test CRC FE02B4D8
Copy CRC FE02B4D8
Copy OK

Track 13
Filename C:\CD Extractions\13 - Wrong Kinotata.wav

Pre-gap length 0:00:01.58

Peak level 100.0 %
Track quality 100.0 %
Test CRC DCE287C8
Copy CRC DCE287C8
Copy OK

No errors occured


End of status report

foobar2000 1.2.9 / Dynamic Range Meter 1.1.1
log date: 2017-07-17 15:56:04

––––––––––––––––––––––––––––––––––––––––
Analyzed: Brian Protheroe / Pinball
––––––––––––––––––––––––––––––––––––––––

DR Peak RMS Duration Track
––––––––––––––––––––––––––––––––––––––––
DR12 -1.28 dB -15.93 dB 3:54 01-Clog Dancer
DR13 0.00 dB -17.34 dB 3:29 02-Money Love
DR11 0.00 dB -14.12 dB 3:22 03-The Moon Over Malibu
DR13 -0.86 dB -18.27 dB 3:29 04-Mickey Dollar Dreams
DR13 0.00 dB -15.06 dB 2:30 05-Goodbye Surprise
DR10 0.00 dB -13.66 dB 3:13 06-Pinball
DR15 -0.64 dB -19.89 dB 0:32 07-Kinotata
DR11 -0.30 dB -15.10 dB 2:50 08-Changing My Tune
DR12 -0.30 dB -14.37 dB 3:41 09-Monkey
DR13 -0.86 dB -16.33 dB 3:59 10-Lady Belladonna
DR13 -1.98 dB -17.36 dB 2:23 11-Fly Now
DR14 -2.46 dB -20.96 dB 5:49 12-Interview / Also In The Limelight
DR15 0.00 dB -19.64 dB 0:36 13-Wrong Kinotata
––––––––––––––––––––––––––––––––––––––––

Number of tracks: 13
Official DR value: DR13

Samplerate: 44100 Hz
Channels: 2
Bits per sample: 16
Bitrate: 799 kbps
Codec: FLAC

[CUETools log; Date: 17.07.2017 15:55:54; Version: 2.1.4]
[CTDB TOCID: 2VuNjCj9SuYNP.Nn9WWiWC3Xwis-] found.
Track | CTDB Status
1 | (3/3) Accurately ripped
2 | (3/3) Accurately ripped
3 | (3/3) Accurately ripped
4 | (3/3) Accurately ripped
5 | (3/3) Accurately ripped
6 | (3/3) Accurately ripped
7 | (3/3) Accurately ripped
8 | (3/3) Accurately ripped
9 | (3/3) Accurately ripped
10 | (3/3) Accurately ripped
11 | (3/3) Accurately ripped
12 | (3/3) Accurately ripped
13 | (3/3) Accurately ripped
[AccurateRip ID: 0013b722-00c2b7e1-9309520d] found.
Track [ CRC | V2 ] Status
01 [993797ff|cc552994] (0+8/8) Accurately ripped
02 [570b3663|baef7f04] (0+8/8) Accurately ripped
03 [c9aac018|1afacb90] (0+8/8) Accurately ripped
04 [9ad42f83|f96bd6f1] (0+8/8) Accurately ripped
05 [ff646bd0|009e0744] (0+8/8) Accurately ripped
06 [f5fdc34a|f78596d9] (0+8/8) Accurately ripped
07 [69496139|a37b48dd] (0+8/8) Accurately ripped
08 [c4aa9d39|304943be] (0+8/8) Accurately ripped
09 [e45268ca|3fe2234e] (0+8/8) Accurately ripped
10 [afa93d08|96de40a9] (0+8/8) Accurately ripped
11 [4dbb5e23|15f6bd62] (0+8/8) Accurately ripped
12 [e5c45dea|2e871ac3] (0+8/8) Accurately ripped
13 [b884064b|7bdc2890] (0+8/8) Accurately ripped

Track Peak [ CRC32 ] [W/O NULL] [ LOG ]
– 100,0 [22AF0CCA] [BCA93DF2]
01 86,3 [34F244E5] [48EA0C90] CRC32
02 100,0 [40A565B1] [EEB100AA] CRC32
03 100,0 [19BA7D8A] [5B51115E] CRC32
04 90,5 [EBCE302E] [913EE4ED] CRC32
05 100,0 [8BDC3309] [BBE39D40] CRC32
06 100,0 [70211B16] [9506ABEE] CRC32
07 92,9 [964CC959] [28F59568] CRC32
08 96,5 [1554A267] [FFDE2B91] CRC32
09 96,5 [0DC9B6B4] [7044B267] CRC32
10 90,5 [77EC4BBF] [D51EA086] CRC32
11 79,6 [CA43C51D] [F2773426] CRC32
12 75,3 [FE02B4D8] [6D3E4F29] CRC32
13 100,0 [DCE287C8] [ADB64D71] CRC32

Brian Protheroe - Pinball (1974)

All thanks go to the original releaser

Download Brian Protheroe - Pinball (1974):