Subcategories

Brian Auger & The Trinity - Befour (1969) (24-bit remaster)

Posted By: uff
Brian Auger & The Trinity - Befour (1969) (24-bit remaster)

Brian Auger & The Trinity - Befour (1969) (24-bit remaster)
Rock | 1cd | EAC Rip | Flac + Cue + Log | covers
Disconforme | 24-bit remaster 2000 | 320Mb

Brian Auger and his band outdo themselves on this extraordinary album, which boasts playing that is both passionate and of virtuoso caliber, and encompasses just the right repertory. From the opening of the soaring rendition of "I Wanna Take You Higher" through the jazzy interpretation of Gabriel Fauré's Pavane, the Albinoni-based Adagio per Archi e Organo, the impassioned rendition of Traffic's "No Time to Live" (sung by lead guitarist Gary Boyle), and the smooth interpretation of Herbie Hancock's "Maiden Voyage" (featuring some elegant lead playing by Boyle before Auger's organ moves into the foreground), Befour delivers superb musicianship, crossing the lines between jazz and rock with touches of soul and even some lingering traces of psychedelia. The one fully experimental track, "Listen Here," which was cut in a single take of nine minutes and 22 seconds, is a hard, pounding piece driven by Boyle's jagged lead guitar and showing off the band augmented by three additional drummers (Mickey Waller, Barry Reeves, and Colin Allen) and an extra bassist (Roger Sutton) – it reminds one somewhat of the kinds of experiments that the Nice sometimes attempted a lot less successfully. "Just You and Me" is a worthy finale to the original album, a hard-rocking showcase for each of the players. [The 2000 reissue by Disconforme includes a live cut, "Rain Forest Talking," and a rough rehearsal take of Pavane, and is remastered in 24-bit digital audio.] (Allmusic)

Track listing
1 I Wanna Take You Higher 5:08
2 Pavane 3:49
3 No Time to Live 5:27
4 Maiden Voyage 5:02
5 Listen Here 9:25
6 Adagio per Archi e Organo 3:30
7 Just You, Just Me 6:26
8 Rain Forest Talking 4:06
9 Pavane 3:43

EAC extraction logfile from 9. August 2005, 13:41 for CD
Brian Auger & The Trinity / Befour

Used drive : _NEC DVD_RW ND-3520AW Adapter: 1 ID: 1
Read mode : Secure with NO C2, accurate stream, disable cache
Read offset correction : 48
Overread into Lead-In and Lead-Out : No

Used output format : Internal WAV Routines
44.100 Hz; 16 Bit; Stereo

Other options :
Fill up missing offset samples with silence : Yes
Delete leading and trailing silent blocks : No
Installed external ASPI interface


Track 1
Filename F:\wav\Brian Auger & The Trinity - Befour (1969) [FLAC]\01 - I Wanna Take You Higher.wav

Pre-gap length 0:00:02.00

Peak level 85.4 %
Track quality 100.0 %
Test CRC 4D7D6940
Copy CRC 4D7D6940
Copy OK

Track 2
Filename F:\wav\Brian Auger & The Trinity - Befour (1969) [FLAC]\02 - Pavane.wav

Pre-gap length 0:00:01.40

Peak level 88.3 %
Track quality 100.0 %
Test CRC CA1B5A09
Copy CRC CA1B5A09
Copy OK

Track 3
Filename F:\wav\Brian Auger & The Trinity - Befour (1969) [FLAC]\03 - No Time To Live.wav

Pre-gap length 0:00:02.63

Peak level 78.6 %
Track quality 99.9 %
Test CRC 0C17E610
Copy CRC 0C17E610
Copy OK

Track 4
Filename F:\wav\Brian Auger & The Trinity - Befour (1969) [FLAC]\04 - Maiden Voyage.wav

Pre-gap length 0:00:02.43

Peak level 92.9 %
Track quality 100.0 %
Test CRC 13C45447
Copy CRC 13C45447
Copy OK

Track 5
Filename F:\wav\Brian Auger & The Trinity - Befour (1969) [FLAC]\05 - Listen Here.wav

Pre-gap length 0:00:04.17

Peak level 97.9 %
Track quality 99.9 %
Test CRC 38C8DED0
Copy CRC 38C8DED0
Copy OK

Track 6
Filename F:\wav\Brian Auger & The Trinity - Befour (1969) [FLAC]\06 - Adagio Per Archi E Organo.wav

Pre-gap length 0:00:02.40

Peak level 65.8 %
Track quality 99.9 %
Test CRC DFFC211A
Copy CRC DFFC211A
Copy OK

Track 7
Filename F:\wav\Brian Auger & The Trinity - Befour (1969) [FLAC]\07 - Just You, Just Me.wav

Pre-gap length 0:00:02.33

Peak level 98.6 %
Track quality 99.9 %
Test CRC 6B48B98A
Copy CRC 6B48B98A
Copy OK

Track 8
Filename F:\wav\Brian Auger & The Trinity - Befour (1969) [FLAC]\08 - Rain Forest Talking.wav

Peak level 100.0 %
Track quality 100.0 %
Test CRC 56739D48
Copy CRC 56739D48
Copy OK

Track 9
Filename F:\wav\Brian Auger & The Trinity - Befour (1969) [FLAC]\09 - Pavane (demo version).wav

Pre-gap length 0:00:03.35

Peak level 83.0 %
Track quality 100.0 %
Test CRC B64F6C71
Copy CRC B64F6C71
Copy OK

No errors occured


End of status report



Thx to the original uploader