Subcategories

Brigitte Lesne, Discantus - Dame de Flors: Ecole Notre-Dame XII-XIII siecles (1996)

Posted By: ArlegZ
Brigitte Lesne, Discantus - Dame de Flors: Ecole Notre-Dame XII-XIII siecles (1996)

Brigitte Lesne, Discantus - Dame de Flors: École Notre-Dame XII-XIII siècles (1996)
EAC | FLAC | Image (Cue & Log) ~ 267 Mb | Total time: 59:11 | Scans included
Classical | Label: Opus 111 | # OPS 30-175 | Recorded: 1994

One is struck by the overwhelming majority of pieces in honour of the Virgin Mary in the extant sources of the School of Notre-Dame. Indeed, the rich and many-faceted devotion to Our Lady, which characterized the Middle Ages and reached its peak in the twelfth and thirteenth centuries, was itself paralleled by the secular devotion to the ideal Lady of chivalry sung by troubadour and trouvere alike.
Such devotion may well have contributed in no small measure to the development of the art of music, in particular of the ars antiqua with its musical forms: organum, conductus and motet. This is a gentle, unaffected programme of such pieces, some of them of almost childlike simplicity, others of ingenious complexity. The theme that unites them is Mary, seen as Star, Fountain, Maidservant, but above all, as Lady of Flowers, herself the mystical Flower watered by celestial dew, Rose, Lily, Blossom without a thorn. Discantus present her with imagination and sensitivity. An all-female ensemble of eight singers – might that not be a recipe for a bland ‘sameness’ in an hour-long Marian programme? However, Discantus achieve an amazing degree of variety by the simplest of means: by opposing vocal registers, by alternating solo and tutti, by varying the tempos and by delicate phrasing. The mood of each piece is carefully studied. Despite one slight imperfection of pitch, the listener’s ear is absolutely captivated by the sheer beauty and purity of the music.

Performer:
Discantus
Brigitte Lesne, direction

Track List:
01. Veris ad imperia
02. Ave, nobilis, venerabilis
03. Glorieuse deu amie
04. Flos in monte cernitur
05. Flos de spina rumpitur
06. Fons prelucus
07. Benedicamus domino
08. Tu decus es
09. Novum Ver Oritur
10. Flos de spina procreatur
11. Veri floris sub figura
12. Candida virginitas
13. Flos de spina procreatur No. 2
14. Salve, virgo virginim
15. Ave rosa novella
16. Nobili precinitur
17. A la clarté qui tout enlumina
18. O lilium convallium
19. O Maria, stella Maris
20. Stirps Iesse


Exact Audio Copy V1.3 from 2. September 2016

EAC extraction logfile from 1. November 2017, 2:44

Brigitte Lesne / Dame de Flors. Ecole Notre-Dame XII-XIII siecles

Used drive : LENOVO USB_SATA_Burner4 Adapter: 0 ID: 0

Read mode : Secure
Utilize accurate stream : Yes
Defeat audio cache : Yes
Make use of C2 pointers : No

Read offset correction : 6
Overread into Lead-In and Lead-Out : No
Fill up missing offset samples with silence : Yes
Delete leading and trailing silent blocks : No
Null samples used in CRC calculations : Yes
Used interface : Installed external ASPI interface

Used output format : User Defined Encoder
Selected bitrate : 1024 kBit/s
Quality : High
Add ID3 tag : No
Command line compressor : C:\Program Files (x86)\Exact Audio Copy\FLAC\FLAC.EXE
Additional command line options : -8 -V -T "TITLE=%title%" -T "ARTIST=%artist%" -T "ALBUMARTIST=%albumartist%" -T "ALBUM=%albumtitle%" -T "DATE=%year%" -T "TRACKNUMBER=%tracknr%" -T "TRACKTOTAL=%numtracks%" -T "GENRE=%genre%" -T "COMMENT=%comment%" -T "PERFORMER=%albuminterpret%" -T "COMPOSER=%composer%" %source% -o %dest%


TOC of the extracted CD

Track | Start | Length | Start sector | End sector
––––––––––––––––––––––––––––-
1 | 0:00.00 | 0:47.72 | 0 | 3596
2 | 0:47.72 | 3:47.30 | 3597 | 20651
3 | 4:35.27 | 1:09.70 | 20652 | 25896
4 | 5:45.22 | 3:00.15 | 25897 | 39411
5 | 8:45.37 | 1:45.15 | 39412 | 47301
6 | 10:30.52 | 4:49.60 | 47302 | 69036
7 | 15:20.37 | 2:51.08 | 69037 | 81869
8 | 18:11.45 | 1:54.47 | 81870 | 90466
9 | 20:06.17 | 2:04.63 | 90467 | 99829
10 | 22:11.05 | 3:57.62 | 99830 | 117666
11 | 26:08.67 | 3:52.45 | 117667 | 135111
12 | 30:01.37 | 3:13.53 | 135112 | 149639
13 | 33:15.15 | 6:51.60 | 149640 | 180524
14 | 40:07.00 | 1:13.40 | 180525 | 186039
15 | 41:20.40 | 1:35.15 | 186040 | 193179
16 | 42:55.55 | 2:11.30 | 193180 | 203034
17 | 45:07.10 | 0:48.62 | 203035 | 206696
18 | 45:55.72 | 1:08.43 | 206697 | 211839
19 | 47:04.40 | 2:12.25 | 211840 | 221764
20 | 49:16.65 | 9:55.27 | 221765 | 266416


Range status and errors

Selected range

Filename C:\EACRip\Dame de flors. Ecole Notre-Dame XII-XIII siecles (Discantus, Brigitte Lesne) (1996)\Dame de Flors. Ecole Notre-Dame XII-XIII siecles - Discantus.wav

Peak level 72.1 %
Extraction speed 1.8 X
Range quality 100.0 %
Test CRC D1208FC2
Copy CRC D1208FC2
Copy OK

No errors occurred


AccurateRip summary

Track 1 accurately ripped (confidence 7) [4AE0A35A] (AR v2)
Track 2 accurately ripped (confidence 7) [5F38C46D] (AR v2)
Track 3 accurately ripped (confidence 7) [6D315856] (AR v2)
Track 4 accurately ripped (confidence 7) [1D1ADCC7] (AR v2)
Track 5 accurately ripped (confidence 7) [7004B494] (AR v2)
Track 6 accurately ripped (confidence 7) [7018A6DC] (AR v2)
Track 7 accurately ripped (confidence 7) [B7B4D68C] (AR v2)
Track 8 accurately ripped (confidence 7) [A072BA70] (AR v2)
Track 9 accurately ripped (confidence 7) [1911C650] (AR v2)
Track 10 accurately ripped (confidence 7) [563A22A1] (AR v2)
Track 11 accurately ripped (confidence 7) [CF33E22A] (AR v2)
Track 12 accurately ripped (confidence 7) [8158088C] (AR v2)
Track 13 accurately ripped (confidence 7) [9A696B50] (AR v2)
Track 14 accurately ripped (confidence 7) [652CBBC3] (AR v2)
Track 15 accurately ripped (confidence 7) [614523BC] (AR v2)
Track 16 accurately ripped (confidence 7) [705B5BDC] (AR v2)
Track 17 accurately ripped (confidence 7) [5A48F26C] (AR v2)
Track 18 accurately ripped (confidence 7) [900F723F] (AR v2)
Track 19 accurately ripped (confidence 7) [80560C62] (AR v2)
Track 20 accurately ripped (confidence 7) [947BFD64] (AR v2)

All tracks accurately ripped

End of status report

–– CUETools DB Plugin V2.1.6

[CTDB TOCID: AiKZCbLzOJvMV_sQ_yMMhRqGi48-] found
Submit result: AiKZCbLzOJvMV_sQ_yMMhRqGi48- has been confirmed
Track | CTDB Status
1 | (9/9) Accurately ripped
2 | (9/9) Accurately ripped
3 | (9/9) Accurately ripped
4 | (9/9) Accurately ripped
5 | (9/9) Accurately ripped
6 | (9/9) Accurately ripped
7 | (9/9) Accurately ripped
8 | (9/9) Accurately ripped
9 | (9/9) Accurately ripped
10 | (9/9) Accurately ripped
11 | (9/9) Accurately ripped
12 | (9/9) Accurately ripped
13 | (9/9) Accurately ripped
14 | (9/9) Accurately ripped
15 | (9/9) Accurately ripped
16 | (9/9) Accurately ripped
17 | (9/9) Accurately ripped
18 | (9/9) Accurately ripped
19 | (9/9) Accurately ripped
20 | (9/9) Accurately ripped


==== Log checksum A75D01F62079380167118E12735D0017E7FD34DC5D9A3FF0FC4F44CD215C9AF8 ====

Brigitte Lesne, Discantus - Dame de Flors: Ecole Notre-Dame XII-XIII siecles (1996)

Thanks to the original releaser