Subcategories
Tags
Language
Tags

Broekhuis, Keller & Schönwälder feat. Spyra & Bill Fox - Space Cowboys @ Jelenia Góra (2007)

Posted By: gribovar
Broekhuis, Keller & Schönwälder feat. Spyra & Bill Fox - Space Cowboys @ Jelenia Góra (2007)

Broekhuis, Keller & Schönwälder feat. Spyra & Bill Fox - Space Cowboys @ Jelenia Góra (2007)
EAC Rip | FLAC (tracks+.cue+log) - 473 MB | MP3 CBR 320 kbps (LAME 3.93) - 180 MB | Covers included
Genre: Electronic, Berlin School | RAR 3% Rec. | Label: Ricochet Dream (RD023)

Berlin School retro style electronic music with long tracks with carefully composed sequences and ambient landscapes that is perfect for dreaming and reflection.
Bas Broekhuis, Detlef Keller, Mario Schönwälder, Wolfram Spyra & Bill Fox get together as the Space Cowboys in Jelenia Gora Poland in September 2004 for the Ricochet Gathering Electronic Music Festival. All musicians are from Germany except Bill Fox who traveled from USA. Spyra and Bill Fox are featured on the last two tracks. This is the first time all musicians played together without rehearsal so the music is live and improvised. The music is definitely like 1970's Tangerine Dream and Klaus Schulze and this release is limited to only 300 digipaks.
Tracklist:
01. Memories Of Yesterday Pt. 1
02. Londermolen #21 - The Live Mix
03. Memories Of Yesterday Pt. 2
04. Memories Of Yesterday Pt. 3

Total time: 01:15:57

Exact Audio Copy V0.99 prebeta 2 from 28. July 2007

EAC extraction logfile from 17. August 2007, 11:20

Broekhuis, Keller & Schцnwдlder / Space Cowboys @ Jelenia Gora

Used drive : PIONEER DVD-RW DVR-108 Adapter: 0 ID: 0

Read mode : Secure
Utilize accurate stream : Yes
Defeat audio cache : Yes
Make use of C2 pointers : No

Read offset correction : 48
Overread into Lead-In and Lead-Out : No
Fill up missing offset samples with silence : Yes
Delete leading and trailing silent blocks : No
Null samples used in CRC calculations : Yes
Used interface : Native Win32 interface for Win NT & 2000
Gap handling : Appended to previous track

Used output format : Internal WAV Routines
Sample format : 44.100 Hz; 16 Bit; Stereo


TOC of the extracted CD

Track | Start | Length | Start sector | End sector
––––––––––––––––––––––––––––-
1 | 0:00.00 | 17:35.01 | 0 | 79125
2 | 17:35.01 | 27:21.10 | 79126 | 202210
3 | 44:56.11 | 18:29.58 | 202211 | 285443
4 | 63:25.69 | 12:30.57 | 285444 | 341750


Track 1

Filename C:\NVIDIA\01 - Memories of Yesterday Pt.1.wav

Pre-gap length 0:00:02.00

Peak level 97.7 %
Track quality 100.0 %
Test CRC 55E27DA3
Copy CRC 55E27DA3
Track not present in AccurateRip database
Copy OK

Track 2

Filename C:\NVIDIA\02 - Londermolen #21.wav

Peak level 97.7 %
Track quality 100.0 %
Test CRC 49452466
Copy CRC 49452466
Track not present in AccurateRip database
Copy OK

Track 3

Filename C:\NVIDIA\03 - Memories of Yesterday Pt.2.wav

Peak level 100.0 %
Track quality 100.0 %
Test CRC 1067AA7F
Copy CRC 1067AA7F
Track not present in AccurateRip database
Copy OK

Track 4

Filename C:\NVIDIA\04 - Memories of Yesterday Pt.3.wav

Peak level 97.7 %
Track quality 100.0 %
Test CRC 0A4BFEAE
Copy CRC 0A4BFEAE
Track not present in AccurateRip database
Copy OK


None of the tracks are present in the AccurateRip database

No errors occurred

End of status report

[CUETools log; Date: 24.02.2018 2:36:12; Version: 2.1.4]
[CTDB TOCID: .p8WxeIK8WbbrO_yIQFoemfJtZo-] found.
Track | CTDB Status
1 | (4/4) Accurately ripped
2 | (4/4) Accurately ripped
3 | (4/4) Accurately ripped
4 | (4/4) Accurately ripped
[AccurateRip ID: 000ddcf4-00372ab9-3a11cc04] found.
Track [ CRC | V2 ] Status
01 [3745d478|5edcc57a] (1+0/1) Accurately ripped
02 [82734fe4|29e4d913] (1+0/1) Accurately ripped
03 [c078c9d7|2f0396d8] (1+0/1) Accurately ripped
04 [1b6fbe89|af0e7f14] (1+0/1) Accurately ripped

Track Peak [ CRC32 ] [W/O NULL] [ LOG ]
– 100,0 [C278B20E] [E42FEF2B]
01 97,7 [55E27DA3] [40B9D1F3] CRC32
02 97,7 [49452466] [3FA7C743] CRC32
03 100,0 [1067AA7F] [8C5F2F9D] CRC32
04 97,7 [0A4BFEAE] [57C27D6C] CRC32

Thanks to the original releaser