Subcategories

Bruce Dickinson - Accident Of Birth (1997) {Japan 1-st press}

Posted By: popsakov
Bruce Dickinson - Accident Of Birth (1997) {Japan 1-st press}

Bruce Dickinson - Accident Of Birth (1997)
EAC Rip | FLAC (Img) + Cue + Log ~ 440 Mb | MP3 CBR320 ~ 139 Mb
Scans Included (JPG, 300 dpi) ~ 64 Mb | RAR 5% Recovery
Hard Rock, Heavy Metal | Victor #VICP-60002

Bruce Dickinson is an English musician, airline pilot, and broadcaster. He is best known as the lead singer of the heavy metal band Iron Maiden and is renowned for his wide-ranging operatic vocal style and energetic stage presence. In 1979, he joined the New Wave of British Heavy Metal band Samson, with whom he gained some popularity under the stage name "Bruce Bruce" and performed on two studio records. He left Samson in 1981 to join Iron Maiden, replacing Paul Di'Anno, and debuted on their 1982 album The Number of the Beast. During his first tenure in the band, they issued a series of US and UK platinum and gold albums in the 1980s, resulting in Dickinson gaining worldwide fame, and becoming one of the most acclaimed heavy metal vocalists of all time. Dickinson quit Iron Maiden in 1993 in order to pursue his solo career, which saw him experiment with a wide variety of heavy metal and rock styles. He rejoined the band in 1999, along with guitarist Adrian Smith, with whom he has released five subsequent studio albums.

Accident of Birth is a heavy metal album released in 1997 by Bruce Dickinson. This is the second album made in collaboration with guitarist/producer Roy Z. In 2005, Accident of Birth was ranked number 338 in Rock Hard magazine's book of The 500 Greatest Rock & Metal Albums of All Time.
~ Wiki


Of all of Bruce Dickinson's solo albums, Accident of Birth sounds the most similar to Iron Maiden, which isn't surprising since former Maiden guitarist Adrian Smith co-wrote many of the songs and plays on the record. The album is better than many latter-day Maiden efforts, and though the songwriting is occasionally uneven, the best moments (including "Man of Sorrows") make it an intriguing album.
~ Stephen Thomas Erlewine, All Music
Bruce Dickinson - Accident Of Birth (1997) {Japan 1-st press}


***************

Bruce Dickinson - Accident Of Birth (1997) {Japan 1-st press}

Track List:

01. Freak [0:04:15.73]
02. Toltec 7 Arrival [0:00:37.57]
03. Starchildren [0:04:17.48]
04. Taking The Queen [0:04:49.72]
05. Darkside Of Aquarius [0:06:41.48]
06. Road To Hell [0:03:57.47]
07. Man Of Sorrows [0:05:20.33]
08. Accident Of Birth [0:04:23.55]
09. The Magician [0:03:54.50]
10. Welcome To The Pit [0:04:43.17]
11. The Ghost Of Cain [0:04:13.55]
12. Omega [0:06:23.73]
13. Arc Of Space [0:04:18.42]

Personnel:

Bruce Dickinson – Vocals
Adrian Smith – Guitar
Roy Z – Guitar
Eddie Casillas – Bass
David Ingraham – Drums

Additional musicians:
Silvia Tsai – Violin («Taking the Queen», «Man of Sorrows», «Arc of Space»)
Rebecca Yeh – Cello («Taking the Queen», «Man of Sorrows», «Arc of Space»)
Richard Baker – Piano («Man of Sorrows»)

Exact Audio Copy V1.1 from 23. June 2015

EAC extraction logfile from 20. February 2016, 12:13

Bruce Dickinson / Accident Of Birth [VICP-60002]

Used drive : PIONEER DVD-RW DVR-111L Adapter: 4 ID: 0

Read mode : Secure
Utilize accurate stream : Yes
Defeat audio cache : Yes
Make use of C2 pointers : No

Read offset correction : 48
Overread into Lead-In and Lead-Out : No
Fill up missing offset samples with silence : Yes
Delete leading and trailing silent blocks : No
Null samples used in CRC calculations : Yes
Used interface : Installed external ASPI interface

Used output format : User Defined Encoder
Selected bitrate : 128 kBit/s
Quality : High
Add ID3 tag : No
Command line compressor : C:\Program Files (x86)\Exact Audio Copy\wavpack-4.60.1\wavpack.exe
Additional command line options : -hm -w "Year=%year%" -w "Genre=%genre%" %source% %dest%


TOC of the extracted CD

Track | Start | Length | Start sector | End sector
––––––––––––––––––––––––––––-
1 | 0:00.37 | 4:15.73 | 37 | 19234
2 | 4:16.35 | 0:37.57 | 19235 | 22066
3 | 4:54.17 | 4:17.48 | 22067 | 41389
4 | 9:11.65 | 4:49.72 | 41390 | 63136
5 | 14:01.62 | 6:41.48 | 63137 | 93259
6 | 20:43.35 | 3:57.47 | 93260 | 111081
7 | 24:41.07 | 5:20.33 | 111082 | 135114
8 | 30:01.40 | 4:23.55 | 135115 | 154894
9 | 34:25.20 | 3:54.50 | 154895 | 172494
10 | 38:19.70 | 4:43.17 | 172495 | 193736
11 | 43:03.12 | 4:13.55 | 193737 | 212766
12 | 47:16.67 | 6:23.73 | 212767 | 241564
13 | 53:40.65 | 4:18.42 | 241565 | 260956


Range status and errors

Selected range

Filename G:\Rips by Alder\Bruce Dickinson - Accident Of Birth [VICP-60002].wav

Peak level 100.0 %
Extraction speed 7.0 X
Range quality 100.0 %
Test CRC 684D8FFC
Copy CRC 684D8FFC
Copy OK

No errors occurred


AccurateRip summary

Track 1 accurately ripped (confidence 11) [C624EF99] (AR v2)
Track 2 accurately ripped (confidence 11) [CBFAAEA6] (AR v2)
Track 3 accurately ripped (confidence 11) [06C78171] (AR v2)
Track 4 accurately ripped (confidence 11) [0A9B3427] (AR v2)
Track 5 accurately ripped (confidence 10) [C857FC7C] (AR v2)
Track 6 accurately ripped (confidence 10) [A716E3CE] (AR v2)
Track 7 accurately ripped (confidence 10) [58E3ADEE] (AR v2)
Track 8 accurately ripped (confidence 11) [E2954687] (AR v2)
Track 9 accurately ripped (confidence 11) [56EB6233] (AR v2)
Track 10 accurately ripped (confidence 11) [8B13BA09] (AR v2)
Track 11 accurately ripped (confidence 11) [12B5E9B2] (AR v2)
Track 12 accurately ripped (confidence 11) [6A13EDC1] (AR v2)
Track 13 accurately ripped (confidence 11) [4CBC3243] (AR v2)

All tracks accurately ripped

End of status report

–– CUETools DB Plugin V2.1.6

[CTDB TOCID: eAXL0GDvxn1xF.bpZZstXzF_iP4-] found
Submit result: eAXL0GDvxn1xF.bpZZstXzF_iP4- has been confirmed
Track | CTDB Status
1 | (9/9) Accurately ripped
2 | (9/9) Accurately ripped
3 | (9/9) Accurately ripped
4 | (9/9) Accurately ripped
5 | (9/9) Accurately ripped
6 | (9/9) Accurately ripped
7 | (9/9) Accurately ripped
8 | (9/9) Accurately ripped
9 | (9/9) Accurately ripped
10 | (9/9) Accurately ripped
11 | (9/9) Accurately ripped
12 | (9/9) Accurately ripped
13 | (9/9) Accurately ripped


==== Log checksum 242D03DA5697D58F93D7426818EA5156C98D562D956EE6F78C8DBE3026F50BBF ====

foobar2000 1.2.6 / Dynamic Range Meter 1.1.1
log date: 2016-02-22 12:12:11

––––––––––––––––––––––––––––––––––––––––
Analyzed: Bruce Dickinson / Accident Of Birth [VICP-60002]
––––––––––––––––––––––––––––––––––––––––

DR Peak RMS Duration Track
––––––––––––––––––––––––––––––––––––––––
DR6 -0.20 dB -7.16 dB 4:16 01-Freak
DR9 -0.20 dB -11.61 dB 0:38 02-Toltec 7 Arrival
DR6 -0.40 dB -7.56 dB 4:18 03-Starchildren
DR7 -0.30 dB -9.16 dB 4:50 04-Taking The Queen
DR7 -0.20 dB -8.56 dB 6:42 05-Darkside Of Aquarius
DR7 -0.20 dB -7.90 dB 3:58 06-Road To Hell
DR7 -0.20 dB -8.98 dB 5:20 07-Man Of Sorrows
DR6 -0.20 dB -7.57 dB 4:24 08-Accident Of Birth
DR6 0.00 dB -6.70 dB 3:55 09-The Magician
DR7 -0.20 dB -7.96 dB 4:43 10-Welcome To The Pit
DR6 -0.20 dB -7.68 dB 4:14 11-The Ghost Of Cain
DR6 -0.03 dB -7.41 dB 6:24 12-Omega
DR8 -0.20 dB -10.57 dB 4:19 13-Arc Of Space
––––––––––––––––––––––––––––––––––––––––

Number of tracks: 13
Official DR value: DR7

Samplerate: 44100 Hz
Channels: 2
Bits per sample: 16
Bitrate: 1011 kbps
Codec: FLAC
================================================================================

[CUETools log; Date: 22.02.2016 12:12:15; Version: 2.1.5]
Pregap length 00:00:37.
[CTDB TOCID: eAXL0GDvxn1xF.bpZZstXzF_iP4-] found.
Track | CTDB Status
1 | (10/10) Accurately ripped
2 | (10/10) Accurately ripped
3 | (10/10) Accurately ripped
4 | (10/10) Accurately ripped
5 | (10/10) Accurately ripped
6 | (10/10) Accurately ripped
7 | (10/10) Accurately ripped
8 | (10/10) Accurately ripped
9 | (10/10) Accurately ripped
10 | (10/10) Accurately ripped
11 | (10/10) Accurately ripped
12 | (10/10) Accurately ripped
13 | (10/10) Accurately ripped
[AccurateRip ID: 001a458b-010c922a-ad0d970d] found.
Track [ CRC | V2 ] Status
01 [38f7fa51|c624ef99] (05+11/16) Accurately ripped
02 [708afae3|cbfaaea6] (05+11/16) Accurately ripped
03 [2e96b59e|06c78171] (05+11/16) Accurately ripped
04 [88722322|0a9b3427] (05+11/16) Accurately ripped
05 [57194da7|c857fc7c] (05+10/15) Accurately ripped
06 [9839240b|a716e3ce] (05+10/15) Accurately ripped
07 [6110f405|58e3adee] (05+10/15) Accurately ripped
08 [55b7b565|e2954687] (05+11/16) Accurately ripped
09 [b487c158|56eb6233] (05+11/16) Accurately ripped
10 [22527874|8b13ba09] (05+11/16) Accurately ripped
11 [c56a1fa7|12b5e9b2] (05+11/16) Accurately ripped
12 [701f5134|6a13edc1] (05+11/16) Accurately ripped
13 [36e5ca37|4cbc3243] (05+11/16) Accurately ripped

Track Peak [ CRC32 ] [W/O NULL] [ LOG ]
– 99,9 [684D8FFC] [33F46138] CRC32
01 97,7 [155D10B3] [8E733E8D]
02 97,7 [CF540DCF] [346C5F4D]
03 95,5 [4D3A6128] [E1649F00]
04 96,6 [FE61F795] [7B27B811]
05 97,7 [89063413] [51B958A0]
06 97,7 [F6975EF8] [EE63FB20]
07 97,7 [0EE10D79] [E1CE4EB2]
08 97,7 [D16668E6] [654263B2]
09 99,9 [77A149D2] [2369C2D1]
10 97,7 [894A8D43] [4A696E1E]
11 97,7 [5647CAD8] [323D7EBF]
12 99,6 [FE155DBC] [D39DE611]
13 97,7 [4173F47F] [B7380308]

Bruce Dickinson - Accident Of Birth (1997) {Japan 1-st press}

All thanks go to Alder

Visit my blog!

Download:
Nitroflare: FLAC-part 1 | FLAC-part 2 | Scans | mp3