Subcategories

Bruce Springsteen - The Essential Bruce Springsteen (2003) 3 CD Box Set [Re-Up]

Posted By: Designol
Bruce Springsteen - The Essential Bruce Springsteen (2003) 3 CD Box Set [Re-Up]

Bruce Springsteen - The Essential Bruce Springsteen (2003) 3 CD Box Set
EAC | FLAC | Tracks (Cue&Log) ~ 1.36 Gb (incl 5%) | Mp3 (CBR320) ~ 515 Mb (incl 5%) | Scans included
Rock, Heartland Rock, Roots Rock, Rock & Roll | Label: Columbia | # 513700 9 | Time: 03:21:04

The Essential Bruce Springsteen is a compilation album by Bruce Springsteen, released on 11 November 2003. Per liner notes comments by Springsteen, the collection was intended as an introduction to his music for new fans who attended shows on The Rising Tour; hence, it includes songs from every Springsteen album since his debut. The album was available as a 2-disc set and, later, as a limited edition 3-disc set; for the latter, the third disc contained a selection of rarities and previously unreleased recordings.

In the liner notes to his volume of Columbia's Essential series, Bruce Springsteen immediately lays out the problem with hits collections: "In any body of work there are obvious high points. The rest depends on who's doing the listening. Where you were, when it was, who you were with when a particular song or album cut the deepest." All artists have this problem, but Springsteen has it more than most, since he not only has a deep and varied body of work, but he has a passionate, dedicated fan base. Within that following, there are listeners who prefer his big-hearted, sprawling early work, those who love the cinematic grandeur of Born to Run, those who love his stark, intimate acoustic ballads, and those who adore his pile-driving rockers. He's had hits in all of these styles, and he's had concert and album rock radio staples in all those styles – all of these tunes for his basic canon, the "obvious high points" – but he's such a strong songwriter and record-maker that this leaves behind songs that many other artists would be thrilled to call their best work, whether it's the epic street poetry of "It's Hard to Be a Saint in the City" or the old-time rock & roll throwaway of "Pink Cadillac." Neither of those tunes are on the double-disc, 30-track Essential Bruce Springsteen, but any two-disc set can't hold all of Springsteen's great songs. It can only offer a representative sampling, which means there will be lots of terrific tracks and fan favorites absent – Springsteen admits this, citing "Growin' Up," "Racing in the Street," "Backstreets," and "My City of Ruins" as MIA, while others could make just as convincing an argument for "My Hometown," "Tenth Avenue Freeze-Out," "Fade Away," "I'm on Fire," "Prove It All Night," "Adam Raised a Cain," and the list goes on. The strength of The Essential is that you never notice these songs are missing. Unlike the previous Bruce compilation, the misguided, haphazardly selected Greatest Hits, The Essential contains all the big songs – not just the obvious hits of "Hungry Heart," "Born to Run," "Born in the U.S.A.," and "Glory Days," but selections from his first two albums that were ignored completely the previous time out – and it also contains just the right amount of latter-day material from the acclaimed The Rising, plus "American Skin (41 Shots)" and "Land of Hope and Dreams," two songs previously only available on Live in New York City. It adds up to an ideal introduction to Springsteen's music, capturing all sides of his musical output while being a hell of a good listen.

While the two main discs are for neophytes and casual fans, the third "bonus" disc is for the hardcore – the kind of fans who will argue about the song selection on the previous two discs, and would be more interested in unreleased material than hits. This third disc is a clearing-house for items that should have made it to his previous rarities collection, Tracks, but didn't. This includes previously unreleased cuts, B-sides, contributions to soundtracks and benefit albums, covers, and an alternate, "country-blues" acoustic version of "Countin' on a Miracle" from The Rising. The disc follows a roughly chronological sequence and basically divides into early-'80s material and mid-'90s material. The '80s material has the edge due to the variety and strength of the material: the rampaging rocker "From Small Things (Big Things One Day Come)," a song Bruce gave to Dave Edmunds and has never released before now; the spare, tough "The Big Payback," a B-side; the searching "None but the Brave," cut during the Born in the U.S.A. sessions; the evocative "County Fair," cut after Nebraska; a cover of Jimmy Cliff's "Trapped," cut on the River tour; a wonderfully raucous live "Held Up Without a Gun," a variation on "You Can Look but You Better Not Touch" with topical lyrics previously released as a B-side. These are fantastic performances, and while there are also very good cuts of a more recent vintage – such as the Joe Grushecky collaboration "Code of Silence," his title song from Tim Robbins' Dead Man Walking, and a fun version of "Viva Las Vegas" – these '80s songs are the heart of the collection. It's an unexpected gift to have them officially released as a bonus disc to a hits collection, and for the hardcore, it's worth buying two discs of songs you already have just get these rarities. And it helps make The Essential Bruce Springsteen really live up to its title.

Review by Stephen Thomas Erlewine, Allmusic.com

Bruce Springsteen - The Essential Bruce Springsteen (2003) 3 CD Box Set [Re-Up]



Tracklist:

CD1:

01. Blinded by the Light (05:04)
02. For You (04:40)
03. Spirit in the Night (05:00)
04. 4th of July, Asbury Park (Sandy) (05:37)
05. Rosalita (Come Out Tonight) (07:04)
06. Thunder Road (04:51)
07. Born to Run (04:32)
08. Jungleland (09:36)
09. Badlands (04:04)
10. Darkness on the Edge of Town (04:31)
11. The Promised Land (04:31)
12. The River (05:00)
13. Hungry Heart (03:20)
14. Nebraska (04:29)
15. Atlantic City (03:56)

CD2:

01. Born In The U.S.A. (04:42)
02. Glory Days (04:17)
03. Dancing In The Dark (04:03)
04. Tunnel Of Love (05:12)
05. Brilliant Disguise (04:15)
06. Human Touch (06:31)
07. Living Proof (04:48)
08. Lucky Town (03:28)
09. Streets Of Philadelphia (03:18)
10. The Ghost Of Tom Joad (04:23)
11. The Rising (04:49)
12. Mary's Place (06:01)
13. Lonesome Day (04:07)
14. American Skin (41 Shots) (07:52)
15. Land Of Hope And Dreams (09:22)

CD3:

01. From Small Things (Big Things One Day Come) (02:42)
02. The Big Payback (01:58)
03. Held Up Without a Gun (Live) (01:21)
04. Trapped (Live) (05:10)
05. None but the Brave (05:35)
06. Missing (05:04)
07. Lift Me Up (05:16)
08. Viva Las Vegas (03:10)
09. County Fair (04:50)
10. Code of Silence (Live) (04:33)
11. Dead Man Walkin' (02:43)
12. Countin' On a Miracle (Acoustic) (05:00)


Exact Audio Copy V0.99 prebeta 5 from 4. May 2009

EAC extraction logfile from 6. May 2010, 14:23

Bruce Springsteen / The Essential Bruce Springsteen (CD 1 of 3)

Used drive : PLEXTOR DVDR PX-716A Adapter: 4 ID: 0

Read mode : Secure
Utilize accurate stream : Yes
Defeat audio cache : Yes
Make use of C2 pointers : No

Read offset correction : 30
Overread into Lead-In and Lead-Out : No
Fill up missing offset samples with silence : Yes
Delete leading and trailing silent blocks : No
Null samples used in CRC calculations : Yes
Used interface : Native Win32 interface for Win NT & 2000
Gap handling : Appended to previous track

Used output format : User Defined Encoder
Selected bitrate : 1024 kBit/s
Quality : High
Add ID3 tag : No
Command line compressor : C:\Program Files (x86)\Exact Audio Copy\FLAC\FLAC.EXE
Additional command line options : -6 -V -T "ARTIST=%a" -T "TITLE=%t" -T "ALBUM=%g" -T "DATE=%y" -T "TRACKNUMBER=%n" -T "GENRE=%m" -T "COMMENT=%e" %s -o %d


TOC of the extracted CD

Track | Start | Length | Start sector | End sector
––––––––––––––––––––––––––––-
1 | 0:00.00 | 5:04.55 | 0 | 22854
2 | 5:04.55 | 4:40.50 | 22855 | 43904
3 | 9:45.30 | 5:00.10 | 43905 | 66414
4 | 14:45.40 | 5:37.37 | 66415 | 91726
5 | 20:23.02 | 7:04.00 | 91727 | 123526
6 | 27:27.02 | 4:51.23 | 123527 | 145374
7 | 32:18.25 | 4:32.70 | 145375 | 165844
8 | 36:51.20 | 9:36.37 | 165845 | 209081
9 | 46:27.57 | 4:04.60 | 209082 | 227441
10 | 50:32.42 | 4:31.03 | 227442 | 247769
11 | 55:03.45 | 4:31.17 | 247770 | 268111
12 | 59:34.62 | 5:00.58 | 268112 | 290669
13 | 64:35.45 | 3:20.45 | 290670 | 305714
14 | 67:56.15 | 4:29.35 | 305715 | 325924
15 | 72:25.50 | 3:56.62 | 325925 | 343686


Track 1

Filename C:\Users\Admin\Documents\EAC Rips\01. Bruce Springsteen - Blinded by the Light.wav

Pre-gap length 0:00:02.00

Peak level 98.8 %
Track quality 100.0 %
Test CRC DE77210D
Copy CRC DE77210D
Accurately ripped (confidence 116) [3FE2FB9E]
Copy OK

Track 2

Filename C:\Users\Admin\Documents\EAC Rips\02. Bruce Springsteen - For You.wav

Pre-gap length 0:00:01.33

Peak level 96.5 %
Track quality 100.0 %
Test CRC E1B82D10
Copy CRC E1B82D10
Accurately ripped (confidence 114) [07802CA2]
Copy OK

Track 3

Filename C:\Users\Admin\Documents\EAC Rips\03. Bruce Springsteen - Spirit in the Night.wav

Peak level 98.8 %
Track quality 100.0 %
Test CRC EBD57639
Copy CRC EBD57639
Accurately ripped (confidence 114) [0DAA56E8]
Copy OK

Track 4

Filename C:\Users\Admin\Documents\EAC Rips\04. Bruce Springsteen - 4th of July, Asbury Park (Sandy).wav

Pre-gap length 0:00:02.40

Peak level 99.4 %
Track quality 100.0 %
Test CRC 080266DC
Copy CRC 080266DC
Accurately ripped (confidence 113) [FAAA038E]
Copy OK

Track 5

Filename C:\Users\Admin\Documents\EAC Rips\05. Bruce Springsteen - Rosalita (Come Out Tonight).wav

Pre-gap length 0:00:02.40

Peak level 88.0 %
Track quality 100.0 %
Test CRC 63A3E245
Copy CRC 63A3E245
Accurately ripped (confidence 113) [8D1D6318]
Copy OK

Track 6

Filename C:\Users\Admin\Documents\EAC Rips\06. Bruce Springsteen - Thunder Road.wav

Pre-gap length 0:00:02.25

Peak level 97.8 %
Track quality 100.0 %
Test CRC 26BEDD54
Copy CRC 26BEDD54
Accurately ripped (confidence 111) [076F0E67]
Copy OK

Track 7

Filename C:\Users\Admin\Documents\EAC Rips\07. Bruce Springsteen - Born to Run.wav

Pre-gap length 0:00:02.53

Peak level 97.4 %
Track quality 99.9 %
Test CRC A9092171
Copy CRC A9092171
Accurately ripped (confidence 114) [29726E23]
Copy OK

Track 8

Filename C:\Users\Admin\Documents\EAC Rips\08. Bruce Springsteen - Jungleland.wav

Pre-gap length 0:00:02.28

Peak level 98.8 %
Track quality 100.0 %
Test CRC E1312AF4
Copy CRC E1312AF4
Accurately ripped (confidence 109) [3632ABB2]
Copy OK

Track 9

Filename C:\Users\Admin\Documents\EAC Rips\09. Bruce Springsteen - Badlands.wav

Pre-gap length 0:00:01.35

Peak level 100.0 %
Track quality 100.0 %
Test CRC EC5D5587
Copy CRC EC5D5587
Accurately ripped (confidence 109) [628B29D0]
Copy OK

Track 10

Filename C:\Users\Admin\Documents\EAC Rips\10. Bruce Springsteen - Darkness on the Edge of Town.wav

Pre-gap length 0:00:02.30

Peak level 98.8 %
Track quality 100.0 %
Test CRC 2F43FC28
Copy CRC 2F43FC28
Accurately ripped (confidence 111) [D2C1C6B8]
Copy OK

Track 11

Filename C:\Users\Admin\Documents\EAC Rips\11. Bruce Springsteen - The Promised Land.wav

Pre-gap length 0:00:02.30

Peak level 99.4 %
Track quality 100.0 %
Test CRC 411CCF99
Copy CRC 411CCF99
Accurately ripped (confidence 109) [D182910D]
Copy OK

Track 12

Filename C:\Users\Admin\Documents\EAC Rips\12. Bruce Springsteen - The River.wav

Pre-gap length 0:00:02.22

Peak level 97.7 %
Track quality 100.0 %
Test CRC 6034A642
Copy CRC 6034A642
Accurately ripped (confidence 108) [FCC97FC1]
Copy OK

Track 13

Filename C:\Users\Admin\Documents\EAC Rips\13. Bruce Springsteen - Hungry Heart.wav

Pre-gap length 0:00:00.68

Peak level 97.7 %
Track quality 100.0 %
Test CRC 669FF74E
Copy CRC 669FF74E
Accurately ripped (confidence 111) [C310FECF]
Copy OK

Track 14

Filename C:\Users\Admin\Documents\EAC Rips\14. Bruce Springsteen - Nebraska.wav

Pre-gap length 0:00:01.70

Peak level 64.7 %
Track quality 100.0 %
Test CRC 3EF25E3D
Copy CRC 3EF25E3D
Accurately ripped (confidence 107) [33858D0C]
Copy OK

Track 15

Filename C:\Users\Admin\Documents\EAC Rips\15. Bruce Springsteen - Atlantic City.wav

Pre-gap length 0:00:02.53

Peak level 91.3 %
Track quality 100.0 %
Test CRC 885494E2
Copy CRC 885494E2
Accurately ripped (confidence 107) [79C11A95]
Copy OK


All tracks accurately ripped

No errors occurred

End of status report

foobar2000 1.2 / Dynamic Range Meter 1.1.1
log date: 2016-07-29 21:18:01

––––––––––––––––––––––––––––––––––––––––
Analyzed: Bruce Springsteen / The Essential Bruce Springsteen (CD 1 of 3)
––––––––––––––––––––––––––––––––––––––––

DR Peak RMS Duration Track
––––––––––––––––––––––––––––––––––––––––
DR10 -0.10 dB -12.39 dB 5:05 01-Blinded by the Light
DR9 -0.30 dB -11.02 dB 4:41 02-For You
DR9 -0.10 dB -11.34 dB 5:00 03-Spirit in the Night
DR11 -0.04 dB -14.20 dB 5:37 04-4th of July, Asbury Park (Sandy)
DR8 -1.10 dB -10.84 dB 7:04 05-Rosalita (Come Out Tonight)
DR9 -0.19 dB -12.31 dB 4:51 06-Thunder Road
DR9 -0.22 dB -11.49 dB 4:33 07-Born to Run
DR11 -0.10 dB -14.70 dB 9:36 08-Jungleland
DR12 0.00 dB -13.82 dB 4:05 09-Badlands
DR12 -0.10 dB -14.83 dB 4:31 10-Darkness on the Edge of Town
DR10 -0.04 dB -11.61 dB 4:31 11-The Promised Land
DR13 -0.20 dB -15.74 dB 5:01 12-The River
DR13 -0.20 dB -14.95 dB 3:21 13-Hungry Heart
DR12 -3.77 dB -20.16 dB 4:29 14-Nebraska
DR12 -0.78 dB -15.56 dB 3:57 15-Atlantic City
––––––––––––––––––––––––––––––––––––––––

Number of tracks: 15
Official DR value: DR11

Samplerate: 44100 Hz
Channels: 2
Bits per sample: 16
Bitrate: 877 kbps
Codec: FLAC
================================================================================


Exact Audio Copy V0.99 prebeta 5 from 4. May 2009

EAC extraction logfile from 6. May 2010, 15:55

Bruce Springsteen / The Essential Bruce Springsteen, Disc 2

Used drive : PLEXTOR DVDR PX-716A Adapter: 4 ID: 0

Read mode : Secure
Utilize accurate stream : Yes
Defeat audio cache : Yes
Make use of C2 pointers : No

Read offset correction : 30
Overread into Lead-In and Lead-Out : No
Fill up missing offset samples with silence : Yes
Delete leading and trailing silent blocks : No
Null samples used in CRC calculations : Yes
Used interface : Native Win32 interface for Win NT & 2000
Gap handling : Appended to previous track

Used output format : User Defined Encoder
Selected bitrate : 1024 kBit/s
Quality : High
Add ID3 tag : No
Command line compressor : C:\Program Files (x86)\Exact Audio Copy\FLAC\FLAC.EXE
Additional command line options : -6 -V -T "ARTIST=%a" -T "TITLE=%t" -T "ALBUM=%g" -T "DATE=%y" -T "TRACKNUMBER=%n" -T "GENRE=%m" -T "COMMENT=%e" %s -o %d


TOC of the extracted CD

Track | Start | Length | Start sector | End sector
––––––––––––––––––––––––––––-
1 | 0:00.00 | 4:42.02 | 0 | 21151
2 | 4:42.02 | 4:17.18 | 21152 | 40444
3 | 8:59.20 | 4:03.65 | 40445 | 58734
4 | 13:03.10 | 5:12.40 | 58735 | 82174
5 | 18:15.50 | 4:15.55 | 82175 | 101354
6 | 22:31.30 | 6:31.02 | 101355 | 130681
7 | 29:02.32 | 4:48.03 | 130682 | 152284
8 | 33:50.35 | 3:28.57 | 152285 | 167941
9 | 37:19.17 | 3:18.05 | 167942 | 182796
10 | 40:37.22 | 4:23.58 | 182797 | 202579
11 | 45:01.05 | 4:49.62 | 202580 | 224316
12 | 49:50.67 | 6:01.28 | 224317 | 251419
13 | 55:52.20 | 4:07.30 | 251420 | 269974
14 | 59:59.50 | 7:52.62 | 269975 | 305436
15 | 67:52.37 | 9:22.33 | 305437 | 347619


Track 1

Filename C:\Users\Admin\Documents\EAC Rips\01. Bruce Springsteen - Born In The U.S.A..wav

Pre-gap length 0:00:02.00

Peak level 97.7 %
Track quality 100.0 %
Test CRC 2566618B
Copy CRC 2566618B
Accurately ripped (confidence 97) [D0BFB2AC]
Copy OK

Track 2

Filename C:\Users\Admin\Documents\EAC Rips\02. Bruce Springsteen - Glory Days.wav

Pre-gap length 0:00:02.50

Peak level 97.7 %
Track quality 100.0 %
Test CRC 24F83EAE
Copy CRC 24F83EAE
Accurately ripped (confidence 95) [D6762A39]
Copy OK

Track 3

Filename C:\Users\Admin\Documents\EAC Rips\03. Bruce Springsteen - Dancing In The Dark.wav

Pre-gap length 0:00:02.13

Peak level 97.7 %
Track quality 100.0 %
Test CRC FF32F577
Copy CRC FF32F577
Accurately ripped (confidence 94) [0CD07405]
Copy OK

Track 4

Filename C:\Users\Admin\Documents\EAC Rips\04. Bruce Springsteen - Tunnel Of Love.wav

Pre-gap length 0:00:01.25

Peak level 99.4 %
Track quality 100.0 %
Test CRC 2D4696E6
Copy CRC 2D4696E6
Accurately ripped (confidence 94) [491F0C53]
Copy OK

Track 5

Filename C:\Users\Admin\Documents\EAC Rips\05. Bruce Springsteen - Brilliant Disguise.wav

Pre-gap length 0:00:02.15

Peak level 97.7 %
Track quality 100.0 %
Test CRC C5DF133E
Copy CRC C5DF133E
Accurately ripped (confidence 95) [4CE38E9C]
Copy OK

Track 6

Filename C:\Users\Admin\Documents\EAC Rips\06. Bruce Springsteen - Human Touch.wav

Pre-gap length 0:00:00.45

Peak level 100.0 %
Track quality 100.0 %
Test CRC 76CD2AA4
Copy CRC 76CD2AA4
Accurately ripped (confidence 93) [00BF255A]
Copy OK

Track 7

Filename C:\Users\Admin\Documents\EAC Rips\07. Bruce Springsteen - Living Proof.wav

Pre-gap length 0:00:02.30

Peak level 99.4 %
Track quality 100.0 %
Test CRC 6892B535
Copy CRC 6892B535
Accurately ripped (confidence 92) [557AA87F]
Copy OK

Track 8

Filename C:\Users\Admin\Documents\EAC Rips\08. Bruce Springsteen - Lucky Town.wav

Pre-gap length 0:00:02.45

Peak level 99.5 %
Track quality 100.0 %
Test CRC 666DE201
Copy CRC 666DE201
Accurately ripped (confidence 94) [7CAB5F27]
Copy OK

Track 9

Filename C:\Users\Admin\Documents\EAC Rips\09. Bruce Springsteen - Streets Of Philadelphia.wav

Pre-gap length 0:00:03.00

Peak level 95.3 %
Track quality 100.0 %
Test CRC 3A73CE4A
Copy CRC 3A73CE4A
Accurately ripped (confidence 95) [A958CC4B]
Copy OK

Track 10

Filename C:\Users\Admin\Documents\EAC Rips\10. Bruce Springsteen - The Ghost Of Tom Joad.wav

Pre-gap length 0:00:02.20

Peak level 96.1 %
Track quality 100.0 %
Test CRC 840942DF
Copy CRC 840942DF
Accurately ripped (confidence 94) [1C7DAFF2]
Copy OK

Track 11

Filename C:\Users\Admin\Documents\EAC Rips\11. Bruce Springsteen - The Rising.wav

Pre-gap length 0:00:02.53

Peak level 96.8 %
Track quality 100.0 %
Test CRC C0DF6538
Copy CRC C0DF6538
Accurately ripped (confidence 93) [62A7AFCA]
Copy OK

Track 12

Filename C:\Users\Admin\Documents\EAC Rips\12. Bruce Springsteen - Mary's Place.wav

Pre-gap length 0:00:02.35

Peak level 97.8 %
Track quality 100.0 %
Test CRC A7A61268
Copy CRC A7A61268
Accurately ripped (confidence 92) [DBFF869B]
Copy OK

Track 13

Filename C:\Users\Admin\Documents\EAC Rips\13. Bruce Springsteen - Lonesome Day.wav

Pre-gap length 0:00:02.13

Peak level 96.8 %
Track quality 99.9 %
Test CRC D9A0C046
Copy CRC D9A0C046
Accurately ripped (confidence 93) [7B25D084]
Copy OK

Track 14

Filename C:\Users\Admin\Documents\EAC Rips\14. Bruce Springsteen - American Skin (41 Shots).wav

Pre-gap length 0:00:01.58

Peak level 100.0 %
Track quality 100.0 %
Test CRC 34AE603B
Copy CRC 34AE603B
Accurately ripped (confidence 94) [79C633A3]
Copy OK

Track 15

Filename C:\Users\Admin\Documents\EAC Rips\15. Bruce Springsteen - Land Of Hope And Dreams.wav

Pre-gap length 0:00:02.42

Peak level 100.0 %
Track quality 100.0 %
Test CRC 61825C49
Copy CRC 61825C49
Accurately ripped (confidence 92) [9CC2EEDA]
Copy OK


All tracks accurately ripped

No errors occurred

End of status report

foobar2000 1.2 / Dynamic Range Meter 1.1.1
log date: 2016-07-29 21:18:32

––––––––––––––––––––––––––––––––––––––––
Analyzed: Bruce Springsteen / The Essential Bruce Springsteen, Disc 2
––––––––––––––––––––––––––––––––––––––––

DR Peak RMS Duration Track
––––––––––––––––––––––––––––––––––––––––
DR10 -0.20 dB -11.59 dB 4:42 01-Born In The U.S.A.
DR10 -0.20 dB -11.56 dB 4:17 02-Glory Days
DR11 -0.20 dB -12.22 dB 4:04 03-Dancing In The Dark
DR10 -0.04 dB -11.72 dB 5:13 04-Tunnel Of Love
DR11 -0.20 dB -13.09 dB 4:16 05-Brilliant Disguise
DR13 0.00 dB -14.19 dB 6:31 06-Human Touch
DR9 -0.04 dB -10.98 dB 4:48 07-Living Proof
DR9 -0.04 dB -10.25 dB 3:29 08-Lucky Town
DR10 -0.42 dB -12.54 dB 3:18 09-Streets Of Philadelphia
DR11 -0.34 dB -14.80 dB 4:24 10-The Ghost Of Tom Joad
DR7 -0.28 dB -9.96 dB 4:50 11-The Rising
DR8 -0.19 dB -10.60 dB 6:01 12-Mary's Place
DR8 -0.28 dB -9.14 dB 4:07 13-Lonesome Day
DR7 0.00 dB -10.45 dB 7:53 14-American Skin (41 Shots)
DR8 0.00 dB -9.68 dB 9:22 15-Land Of Hope And Dreams
––––––––––––––––––––––––––––––––––––––––

Number of tracks: 15
Official DR value: DR9

Samplerate: 44100 Hz
Channels: 2
Bits per sample: 16
Bitrate: 964 kbps
Codec: FLAC
================================================================================


Exact Audio Copy V0.99 prebeta 5 from 4. May 2009

EAC extraction logfile from 6. May 2010, 18:16

Bruce Springsteen / The Essential Bruce Springsteen (Bonus CD)

Used drive : PLEXTOR DVDR PX-716A Adapter: 4 ID: 0

Read mode : Secure
Utilize accurate stream : Yes
Defeat audio cache : Yes
Make use of C2 pointers : No

Read offset correction : 30
Overread into Lead-In and Lead-Out : No
Fill up missing offset samples with silence : Yes
Delete leading and trailing silent blocks : No
Null samples used in CRC calculations : Yes
Used interface : Native Win32 interface for Win NT & 2000
Gap handling : Appended to previous track

Used output format : User Defined Encoder
Selected bitrate : 1024 kBit/s
Quality : High
Add ID3 tag : No
Command line compressor : C:\Program Files (x86)\Exact Audio Copy\FLAC\FLAC.EXE
Additional command line options : -6 -V -T "ARTIST=%a" -T "TITLE=%t" -T "ALBUM=%g" -T "DATE=%y" -T "TRACKNUMBER=%n" -T "GENRE=%m" -T "COMMENT=%e" %s -o %d


TOC of the extracted CD

Track | Start | Length | Start sector | End sector
––––––––––––––––––––––––––––-
1 | 0:00.00 | 2:42.20 | 0 | 12169
2 | 2:42.20 | 1:58.67 | 12170 | 21086
3 | 4:41.12 | 1:21.03 | 21087 | 27164
4 | 6:02.15 | 5:10.00 | 27165 | 50414
5 | 11:12.15 | 5:35.20 | 50415 | 75559
6 | 16:47.35 | 5:04.25 | 75560 | 98384
7 | 21:51.60 | 5:16.10 | 98385 | 122094
8 | 27:07.70 | 3:10.25 | 122095 | 136369
9 | 30:18.20 | 4:50.72 | 136370 | 158191
10 | 35:09.17 | 4:33.15 | 158192 | 178681
11 | 39:42.32 | 2:43.58 | 178682 | 190964
12 | 42:26.15 | 5:00.62 | 190965 | 213526


Track 1

Filename C:\Users\Admin\Documents\EAC Rips\01. Bruce Springsteen - From Small Things (Big Things One Day Come).wav

Pre-gap length 0:00:02.00

Peak level 98.8 %
Track quality 100.0 %
Test CRC 28D9497B
Copy CRC 28D9497B
Accurately ripped (confidence 47) [113B92B8]
Copy OK

Track 2

Filename C:\Users\Admin\Documents\EAC Rips\02. Bruce Springsteen - The Big Payback.wav

Pre-gap length 0:00:01.65

Peak level 94.0 %
Track quality 99.9 %
Test CRC D876FFB1
Copy CRC D876FFB1
Accurately ripped (confidence 48) [311ABA6A]
Copy OK

Track 3

Filename C:\Users\Admin\Documents\EAC Rips\03. Bruce Springsteen - Held Up Without a Gun (Live).wav

Pre-gap length 0:00:01.32

Peak level 98.3 %
Track quality 99.8 %
Test CRC C18D55D1
Copy CRC C18D55D1
Accurately ripped (confidence 47) [1100CBDC]
Copy OK

Track 4

Filename C:\Users\Admin\Documents\EAC Rips\04. Bruce Springsteen - Trapped (Live).wav

Pre-gap length 0:00:02.50

Peak level 100.0 %
Track quality 100.0 %
Test CRC 6BDF8445
Copy CRC 6BDF8445
Accurately ripped (confidence 48) [3132B338]
Copy OK

Track 5

Filename C:\Users\Admin\Documents\EAC Rips\05. Bruce Springsteen - None but the Brave.wav

Pre-gap length 0:00:01.65

Peak level 98.8 %
Track quality 100.0 %
Test CRC 66F73EBB
Copy CRC 66F73EBB
Accurately ripped (confidence 48) [C3ADC22B]
Copy OK

Track 6

Filename C:\Users\Admin\Documents\EAC Rips\06. Bruce Springsteen - Missing.wav

Pre-gap length 0:00:00.20

Peak level 98.8 %
Track quality 100.0 %
Test CRC 8DAA2DE8
Copy CRC 8DAA2DE8
Accurately ripped (confidence 48) [A2E77E78]
Copy OK

Track 7

Filename C:\Users\Admin\Documents\EAC Rips\07. Bruce Springsteen - Lift Me Up.wav

Pre-gap length 0:00:00.45

Peak level 98.8 %
Track quality 99.9 %
Test CRC 397FD1D4
Copy CRC 397FD1D4
Accurately ripped (confidence 48) [9C4C8A30]
Copy OK

Track 8

Filename C:\Users\Admin\Documents\EAC Rips\08. Bruce Springsteen - Viva Las Vegas.wav

Pre-gap length 0:00:01.60

Peak level 98.8 %
Track quality 100.0 %
Test CRC 3B191A93
Copy CRC 3B191A93
Accurately ripped (confidence 49) [591AFEEE]
Copy OK

Track 9

Filename C:\Users\Admin\Documents\EAC Rips\09. Bruce Springsteen - County Fair.wav

Pre-gap length 0:00:01.43

Peak level 98.8 %
Track quality 100.0 %
Test CRC 3798CECB
Copy CRC 3798CECB
Accurately ripped (confidence 48) [EF70C5F1]
Copy OK

Track 10

Filename C:\Users\Admin\Documents\EAC Rips\10. Bruce Springsteen - Code of Silence (Live).wav

Pre-gap length 0:00:02.00

Peak level 98.8 %
Track quality 100.0 %
Test CRC 15DA4125
Copy CRC 15DA4125
Accurately ripped (confidence 49) [5478972B]
Copy OK

Track 11

Filename C:\Users\Admin\Documents\EAC Rips\11. Bruce Springsteen - Dead Man Walkin'.wav

Pre-gap length 0:00:02.20

Peak level 98.8 %
Track quality 100.0 %
Test CRC 26DC7494
Copy CRC 26DC7494
Accurately ripped (confidence 48) [12D1C509]
Copy OK

Track 12

Filename C:\Users\Admin\Documents\EAC Rips\12. Bruce Springsteen - Countin' On a Miracle (Acoustic).wav

Pre-gap length 0:00:02.55

Peak level 78.2 %
Track quality 99.9 %
Test CRC A4E581C0
Copy CRC A4E581C0
Accurately ripped (confidence 45) [E1603F4C]
Copy OK


All tracks accurately ripped

No errors occurred

End of status report

foobar2000 1.2 / Dynamic Range Meter 1.1.1
log date: 2016-07-29 21:18:52

––––––––––––––––––––––––––––––––––––––––
Analyzed: Bruce Springsteen / The Essential Bruce Springsteen (Bonus CD)
––––––––––––––––––––––––––––––––––––––––

DR Peak RMS Duration Track
––––––––––––––––––––––––––––––––––––––––
DR9 -0.10 dB -10.51 dB 2:42 01-From Small Things (Big Things One Day Come)
DR11 -0.53 dB -14.44 dB 1:59 02-The Big Payback
DR8 -0.15 dB -9.14 dB 1:21 03-Held Up Without a Gun (Live)
DR6 0.00 dB -9.86 dB 5:10 04-Trapped (Live)
DR9 -0.10 dB -10.39 dB 5:35 05-None but the Brave
DR6 -0.10 dB -8.71 dB 5:04 06-Missing
DR6 -0.10 dB -8.20 dB 5:16 07-Lift Me Up
DR9 -0.10 dB -10.54 dB 3:10 08-Viva Las Vegas
DR8 -0.10 dB -10.80 dB 4:51 09-County Fair
DR7 -0.10 dB -8.80 dB 4:33 10-Code of Silence (Live)
DR11 -0.10 dB -15.33 dB 2:44 11-Dead Man Walkin'
DR16 -2.13 dB -21.52 dB 5:01 12-Countin' On a Miracle (Acoustic)
––––––––––––––––––––––––––––––––––––––––

Number of tracks: 12
Official DR value: DR9

Samplerate: 44100 Hz
Channels: 2
Bits per sample: 16
Bitrate: 631 kbps
Codec: FLAC
================================================================================

Bruce Springsteen - The Essential Bruce Springsteen (2003) 3 CD Box Set [Re-Up]

All thanks to original releaser

More interesting music in My Blog