Subcategories

Bruce Springsteen - The Collection 1973-84 (2010) [8CD Box Set] Repost

Posted By: v3122
Bruce Springsteen - The Collection 1973-84 (2010) [8CD Box Set] Repost

Bruce Springsteen - The Collection 1973-84 (2010)
EAC | Flac(Image) + Cue + Log & MP3 CBR 320Kbps
Columbia / Legacy, 88697747712 | ~ 2074 or 902 Mb | Scans(png) -> 692 Mb
Heartland Rock / Folk Rock

This eight-disc box set includes the first seven albums by Bruce Springsteen & the E Street Band, from 1973's Greetings from Asbury Park, N.J. through 1984's Born in the U.S.A. (The River, having been a double album, is on two of the discs here). The individual CDs are packaged in LP mini sleeves. While The River, Greetings from Asbury Park, and Born to Run were originally released on LP with gatefold sleeves, only The River gets that treatment here. Also troubling is that there are no individual booklets, just one that comes inside the set that details credits and photographs of the front covers. It is unclear whether or not these are indeed remastered versions or simply the existing masters repackaged, and there is no bonus material. The price tag is the most attractive thing about the box, which usually retails for between $40 and $45. While Born to Run and Darkness on the Edge of Town have been given deluxe packaging with loads of extras, the rest of these titles were only released in Japan as remasters.

by Thom Jurek, allmusic
Bruce Springsteen - The Collection 1973-84 (2010) [8CD Box Set] Repost

Bruce Springsteen - The Collection 1973-84 (2010):

Bruce Springsteen - The Collection 1973-84 (2010) [8CD Box Set] Repost

Tracklist CD1 - Greetings From Asbury Park, N.J. (1973):

01. Blinded By The Light
02. Growin' Up
03. Mary Queen Of Arkansas
04. Does This Bus Stop At 82nd Street
05. Lost In The Flood
06. The Angel
07. For You
08. Spirit In The Night
09. It's Hard To Be A Saint In The City

Exact Audio Copy V1.0 beta 1 from 15. November 2010

EAC extraction logfile from 13. May 2011, 23:48

Bruce Springsteen / Greetings From Asbury Park, N.J.

Used drive : HL-DT-STDVDRAM GSA-H60N Adapter: 2 ID: 0

Read mode : Secure
Utilize accurate stream : Yes
Defeat audio cache : Yes
Make use of C2 pointers : No

Read offset correction : 667
Overread into Lead-In and Lead-Out : No
Fill up missing offset samples with silence : Yes
Delete leading and trailing silent blocks : No
Null samples used in CRC calculations : Yes
Used interface : Native Win32 interface for Win NT & 2000

Used output format : Internal WAV Routines
Sample format : 44.100 Hz; 16 Bit; Stereo


TOC of the extracted CD

Track | Start | Length | Start sector | End sector
––––––––––––––––––––––––––––-
1 | 0:00.00 | 5:04.13 | 0 | 22812
2 | 5:04.13 | 3:05.17 | 22813 | 36704
3 | 8:09.30 | 5:21.48 | 36705 | 60827
4 | 13:31.03 | 2:05.07 | 60828 | 70209
5 | 15:36.10 | 5:18.25 | 70210 | 94084
6 | 20:54.35 | 3:24.55 | 94085 | 109439
7 | 24:19.15 | 4:40.00 | 109440 | 130439
8 | 28:59.15 | 5:00.25 | 130440 | 152964
9 | 33:59.40 | 3:11.68 | 152965 | 167357


Range status and errors

Selected range

Filename C:\Documents and Settings\Администратор\Рабочий стол\Rip by ALLexxess\2010 Bruce Springsteen Collection 1973 -1984 (8CD Box Set Sony Music)\1973 Greetings From Asbury Park, N.J\Bruce Springsteen - Greetings From Asbury Park, N.

Peak level 75.4 %
Extraction speed 0.4 X
Range quality 100.0 %
Test CRC 7A8BA659
Copy CRC 7A8BA659
Copy OK

No errors occurred


AccurateRip summary

Track 1 accurately ripped (confidence 23) [C237E99C]
Track 2 accurately ripped (confidence 23) [EBBB73FA]
Track 3 accurately ripped (confidence 23) [EDD3FE4B]
Track 4 accurately ripped (confidence 23) [29321E7F]
Track 5 accurately ripped (confidence 23) [677C2908]
Track 6 accurately ripped (confidence 23) [9064D4AA]
Track 7 accurately ripped (confidence 23) [99BD546B]
Track 8 accurately ripped (confidence 23) [6FD60E23]
Track 9 accurately ripped (confidence 23) [C2C93D21]

All tracks accurately ripped

End of status report

==== Log checksum AE358BF998F6CFCA4A7A7B438BF9D43B8793193A19C008EF26AB2A770BBB5589 ====


[CUETools log; Date: 13.06.2018 20:43:10; Version: 2.1.5]
[CTDB TOCID: 3IB6CWjVlrIejyf08GYUJz_UxNI-] found.
Track | CTDB Status
1 | (373/382) Accurately ripped
2 | (373/382) Accurately ripped
3 | (373/382) Accurately ripped
4 | (373/382) Accurately ripped
5 | (332/382) Accurately ripped, or (41/382) differs in 1 samples @03:36:61
6 | (373/382) Accurately ripped
7 | (373/382) Accurately ripped
8 | (372/382) Accurately ripped
9 | (374/382) Accurately ripped
[AccurateRip ID: 000ce42c-005e370f-6708b709] found.
Track [ CRC | V2 ] Status
01 [c237e99c|a2375031] (093+200/341) Accurately ripped
02 [ebbb73fa|100db03e] (092+200/340) Accurately ripped
03 [edd3fe4b|c1b2fab0] (092+200/340) Accurately ripped
04 [29321e7f|3510d7ef] (092+200/339) Accurately ripped
05 [677c2908|27323f11] (092+200/338) Accurately ripped
06 [9064d4aa|0ab37d58] (092+200/340) Accurately ripped
07 [99bd546b|d47d2766] (092+200/340) Accurately ripped
08 [6fd60e23|efca165a] (092+200/341) Accurately ripped
09 [c2c93d21|b10e9c31] (088+200/338) Accurately ripped

Track Peak [ CRC32 ] [W/O NULL] [ LOG ]
– 75,4 [7A8BA659] [7D821404] CRC32
01 70,9 [3A830E71] [4A309340]
02 69,9 [C69D4651] [A8AB8129]
03 74,9 [1E3B362D] [0A103DE4]
04 68,2 [1F098E8E] [1B7E9FF2]
05 71,6 [819220C1] [9F27A9D4]
06 62,3 [97A9309D] [2D1172B6]
07 75,4 [7CB51A83] [AA48ECDC]
08 70,5 [891075ED] [C08AB088]
09 71,9 [81823B93] [52FF480C]


Bruce Springsteen - The Collection 1973-84 (2010) [8CD Box Set] Repost

Tracklist CD2 - The Wild, The Innocent & The E Street Shuffle (1973):

01. The E Street Shuffle
02. 4th Of July Asbury Park (Sandy)
03. Kitty's Back
04. Wild Billy's Circus Store
05. Incident On 57th Street
06. Rosalita (Come Out Tonight)
07. New York City Serenade

Exact Audio Copy V1.0 beta 1 from 15. November 2010

EAC extraction logfile from 14. May 2011, 1:12

Bruce Springsteen / The Wild, The Innocent & The E Street Shuffle

Used drive : HL-DT-STDVDRAM GSA-H60N Adapter: 2 ID: 0

Read mode : Secure
Utilize accurate stream : Yes
Defeat audio cache : Yes
Make use of C2 pointers : No

Read offset correction : 667
Overread into Lead-In and Lead-Out : No
Fill up missing offset samples with silence : Yes
Delete leading and trailing silent blocks : No
Null samples used in CRC calculations : Yes
Used interface : Native Win32 interface for Win NT & 2000

Used output format : Internal WAV Routines
Sample format : 44.100 Hz; 16 Bit; Stereo


TOC of the extracted CD

Track | Start | Length | Start sector | End sector
––––––––––––––––––––––––––––-
1 | 0:00.00 | 4:30.60 | 0 | 20309
2 | 4:30.60 | 5:36.72 | 20310 | 45581
3 | 10:07.57 | 7:09.23 | 45582 | 77779
4 | 17:17.05 | 4:47.72 | 77780 | 99376
5 | 22:05.02 | 7:44.68 | 99377 | 134244
6 | 29:49.70 | 7:04.67 | 134245 | 166111
7 | 36:54.62 | 9:55.18 | 166112 | 210754


Range status and errors

Selected range

Filename C:\Documents and Settings\Администратор\Рабочий стол\Rip by ALLexxess\2010 Bruce Springsteen Collection 1973 -1984 (8CD Box Set Sony Music)\1973 The Wild, The Innocent & The E Street Shuffle\Bruce Springsteen - The Wild, The In

Peak level 100.0 %
Extraction speed 1.2 X
Range quality 100.0 %
Test CRC 35215A4E
Copy CRC 35215A4E
Copy OK

No errors occurred


AccurateRip summary

Track 1 accurately ripped (confidence 23) [3E6AFEA3]
Track 2 accurately ripped (confidence 23) [BCEA2B06]
Track 3 accurately ripped (confidence 23) [C67E6ED3]
Track 4 accurately ripped (confidence 23) [4CE42BE9]
Track 5 accurately ripped (confidence 23) [679793CD]
Track 6 accurately ripped (confidence 23) [3C017221]
Track 7 accurately ripped (confidence 23) [75F5253B]

All tracks accurately ripped

End of status report

==== Log checksum 0271844339424404FC5C59464F61E8DC887AF29745D734439670131F22EEB50C ====


[CUETools log; Date: 13.06.2018 20:43:47; Version: 2.1.5]
[CTDB TOCID: YBItLhzf4jKKWfpVAYjlkWiubPc-] found.
Track | CTDB Status
1 | (327/327) Accurately ripped
2 | (326/327) Accurately ripped
3 | (326/327) Accurately ripped
4 | (325/327) Accurately ripped
5 | (326/327) Accurately ripped
6 | (327/327) Accurately ripped
7 | (320/327) Accurately ripped, or (3/327) differs in 9089 samples @09:54:69-09:55:02
[AccurateRip ID: 000b81f1-0046cbb2-530afa07] found.
Track [ CRC | V2 ] Status
01 [3e6afea3|9a2206bc] (089+200/289) Accurately ripped
02 [bcea2b06|53fa96cc] (089+200/289) Accurately ripped
03 [c67e6ed3|ad2f70cd] (089+200/289) Accurately ripped
04 [4ce42be9|22b60402] (089+200/289) Accurately ripped
05 [679793cd|fe92db3e] (089+200/289) Accurately ripped
06 [3c017221|7712266b] (089+200/289) Accurately ripped
07 [75f5253b|f5f35cc0] (089+200/291) Accurately ripped

Track Peak [ CRC32 ] [W/O NULL] [ LOG ]
– 100,0 [35215A4E] [AA7AA0C9] CRC32
01 100,0 [58B807BB] [23949A46]
02 100,0 [5AAA92AE] [174003AC]
03 100,0 [4AEA89E5] [98D3B74D]
04 100,0 [8CC7B1C8] [587EBC85]
05 94,5 [32C85325] [833FB6DE]
06 100,0 [A73DB284] [953883F0]
07 89,1 [07C9A358] [8366C8B7]


Bruce Springsteen - The Collection 1973-84 (2010) [8CD Box Set] Repost

Tracklist CD3 - Born To Run (1975):

01. Thunder Road
02. Tenth Avenue Freeze-Out
03. Night
04. Backstreets
05. Born To Run
06. She's The One
07. Meeting Across The River
08. Jungleland

Exact Audio Copy V1.0 beta 1 from 15. November 2010

EAC extraction logfile from 14. May 2011, 11:02

Bruce Springsteen / Born To Run

Used drive : HL-DT-STDVDRAM GSA-H60N Adapter: 2 ID: 0

Read mode : Secure
Utilize accurate stream : Yes
Defeat audio cache : Yes
Make use of C2 pointers : No

Read offset correction : 667
Overread into Lead-In and Lead-Out : No
Fill up missing offset samples with silence : Yes
Delete leading and trailing silent blocks : No
Null samples used in CRC calculations : Yes
Used interface : Native Win32 interface for Win NT & 2000

Used output format : Internal WAV Routines
Sample format : 44.100 Hz; 16 Bit; Stereo


TOC of the extracted CD

Track | Start | Length | Start sector | End sector
––––––––––––––––––––––––––––-
1 | 0:00.00 | 4:50.12 | 0 | 21761
2 | 4:50.12 | 3:11.50 | 21762 | 36136
3 | 8:01.62 | 3:01.58 | 36137 | 49769
4 | 11:03.45 | 6:30.40 | 49770 | 79059
5 | 17:34.10 | 4:30.22 | 79060 | 99331
6 | 22:04.32 | 4:30.60 | 99332 | 119641
7 | 26:35.17 | 3:19.05 | 119642 | 134571
8 | 29:54.22 | 9:33.08 | 134572 | 177554


Range status and errors

Selected range

Filename C:\Documents and Settings\Администратор\Рабочий стол\Rip by ALLexxess\2010 Bruce Springsteen Collection 1973 -1984 (8CD Box Set Sony Music)\1975 Born To Run\Bruce Springsteen - Born To Run.wav

Peak level 99.9 %
Extraction speed 1.3 X
Range quality 100.0 %
Test CRC C1C74867
Copy CRC C1C74867
Copy OK

No errors occurred


AccurateRip summary

Track 1 accurately ripped (confidence 19) [EAF04418]
Track 2 accurately ripped (confidence 19) [3864047F]
Track 3 accurately ripped (confidence 19) [0BCE7633]
Track 4 accurately ripped (confidence 19) [CFEFCBEB]
Track 5 accurately ripped (confidence 19) [050FEA96]
Track 6 accurately ripped (confidence 19) [1FD73C04]
Track 7 accurately ripped (confidence 19) [DDBE6492]
Track 8 accurately ripped (confidence 19) [5E96EDDB]

All tracks accurately ripped

End of status report

==== Log checksum FB1B6F9B3E0C34E1BFC4A8DC3A17FE41757D45573EDBA90E2BAF766EE98089FA ====


[CUETools log; Date: 13.06.2018 20:44:15; Version: 2.1.5]
[CTDB TOCID: Qsjx21UoUsfHAYx_UftkFtZDzbI-] found.
Track | CTDB Status
1 | (415/418) Accurately ripped
2 | (414/418) Accurately ripped
3 | (414/418) Accurately ripped
4 | (417/418) Accurately ripped
5 | (416/418) Accurately ripped
6 | (417/418) Accurately ripped
7 | (417/418) Accurately ripped
8 | (414/418) Accurately ripped
[AccurateRip ID: 000af406-004a1265-74093f08] found.
Track [ CRC | V2 ] Status
01 [eaf04418|d6447eaa] (080+200/372) Accurately ripped
02 [3864047f|5b99adc7] (080+200/371) Accurately ripped
03 [0bce7633|7f04443e] (080+200/371) Accurately ripped
04 [cfefcbeb|7c28cf5a] (080+200/370) Accurately ripped
05 [050fea96|f72fb605] (081+200/371) Accurately ripped
06 [1fd73c04|265ccece] (080+200/371) Accurately ripped
07 [ddbe6492|7d4fa2bf] (080+200/371) Accurately ripped
08 [5e96eddb|d61d8a11] (076+200/365) Accurately ripped
Offsetted by -36:
01 [4003d840] (023/372) Accurately ripped
02 [3e7b827f] (022/371) Accurately ripped
03 [5c479e7b] (022/371) Accurately ripped
04 [c0f480d7] (022/370) Accurately ripped
05 [0ba2dc3a] (022/371) Accurately ripped
06 [5ce66d88] (022/371) Accurately ripped
07 [4396242e] (022/371) Accurately ripped
08 [ebc5e47d] (021/365) Accurately ripped
Offsetted by 6:
01 [876d00bc] (000/372) No match (V2 was not tested)
02 [8cb56f7f] (000/371) No match (V2 was not tested)
03 [a90f9a27] (000/371) No match (V2 was not tested)
04 [d26f0319] (000/370) No match (V2 was not tested)
05 [d94cc250] (000/371) No match (V2 was not tested)
06 [6aff5e6e] (000/371) No match (V2 was not tested)
07 [4cc519f8] (000/371) No match (V2 was not tested)
08 [60072d23] (000/365) No match (V2 was not tested)

Track Peak [ CRC32 ] [W/O NULL] [ LOG ]
– 99,9 [C1C74867] [EBA4825E] CRC32
01 93,5 [B2886EA4] [7B434185]
02 99,9 [F0099690] [20DF37EC]
03 86,4 [5AA99ADC] [642BEB27]
04 88,2 [75614363] [8C316EC6]
05 94,6 [A81EBC37] [9DC157D1]
06 86,3 [C3197F92] [081A10D0]
07 51,9 [5A454B13] [281CB290]
08 82,6 [955B7268] [BB330C78]


Bruce Springsteen - The Collection 1973-84 (2010) [8CD Box Set] Repost

Tracklist CD4 - Darkness On The Edge Of Town (1978):

01. Badlands
02. Adam Raised A Cain
03. Something In The Night
04. Candy's Room
05. Racing In The Street
06. The Promised Land
07. Factory
08. Streets Of Fire
09. Prove It All Night
10. Darkness On The Edge Of Town

Exact Audio Copy V1.0 beta 1 from 15. November 2010

EAC extraction logfile from 14. May 2011, 11:38

Bruce Springsteen / Darkness On The Edge Of Town

Used drive : HL-DT-STDVDRAM GSA-H60N Adapter: 2 ID: 0

Read mode : Secure
Utilize accurate stream : Yes
Defeat audio cache : Yes
Make use of C2 pointers : No

Read offset correction : 667
Overread into Lead-In and Lead-Out : No
Fill up missing offset samples with silence : Yes
Delete leading and trailing silent blocks : No
Null samples used in CRC calculations : Yes
Used interface : Native Win32 interface for Win NT & 2000

Used output format : Internal WAV Routines
Sample format : 44.100 Hz; 16 Bit; Stereo


TOC of the extracted CD

Track | Start | Length | Start sector | End sector
––––––––––––––––––––––––––––-
1 | 0:00.00 | 4:03.53 | 0 | 18277
2 | 4:03.53 | 4:34.50 | 18278 | 38877
3 | 8:38.28 | 5:14.11 | 38878 | 62438
4 | 13:52.39 | 2:48.35 | 62439 | 75073
5 | 16:40.74 | 6:54.67 | 75074 | 106190
6 | 23:35.66 | 4:28.74 | 106191 | 126364
7 | 28:04.65 | 2:19.66 | 126365 | 136855
8 | 30:24.56 | 4:03.41 | 136856 | 155121
9 | 34:28.22 | 4:01.15 | 155122 | 173211
10 | 38:29.37 | 4:28.43 | 173212 | 193354


Range status and errors

Selected range

Filename C:\Documents and Settings\Администратор\Рабочий стол\Rip by ALLexxess\2010 Bruce Springsteen Collection 1973 -1984 (8CD Box Set Sony Music)\1978 Darkness On The Edge Of Town\Bruce Springsteen - Darkness On The Edge Of Town.wav

Peak level 100.0 %
Extraction speed 0.6 X
Range quality 100.0 %
Test CRC 091299A8
Copy CRC 091299A8
Copy OK

No errors occurred


AccurateRip summary

Track 1 accurately ripped (confidence 8) [D61112F3]
Track 2 accurately ripped (confidence 7) [FF6453F9]
Track 3 accurately ripped (confidence 7) [65D4E038]
Track 4 accurately ripped (confidence 7) [DB6509A5]
Track 5 accurately ripped (confidence 7) [68759AF3]
Track 6 accurately ripped (confidence 7) [C0CA979E]
Track 7 accurately ripped (confidence 7) [7A9C7FE4]
Track 8 accurately ripped (confidence 7) [26E4EEC6]
Track 9 accurately ripped (confidence 7) [46796515]
Track 10 accurately ripped (confidence 7) [9C40C570]

All tracks accurately ripped

End of status report

==== Log checksum B747DE9218AC6B975DB3A3C912D4675F558B9078A8B2CAD19E9E41F633C9ED0F ====


[CUETools log; Date: 13.06.2018 20:44:43; Version: 2.1.5]
CDDBId mismatch: 680A130A vs 690A120A
[CTDB TOCID: pi44tPsUsSfDMXB6sd0vVNazGMU-] found.
Track | CTDB Status
1 | (386/426) Accurately ripped
2 | (383/426) Accurately ripped
3 | (386/426) Accurately ripped
4 | (387/426) Accurately ripped
5 | (387/426) Accurately ripped
6 | (387/426) Accurately ripped
7 | (383/426) Accurately ripped, or (2/426) differs in 10 samples @00:01:10
8 | (386/426) Accurately ripped
9 | (386/426) Accurately ripped
10 | (376/426) Accurately ripped
[AccurateRip ID: 0010914a-0083fd05-690a120a] found.
Track [ CRC | V2 ] Status
01 [d61112f3|02fd386f] (052+111/263) Accurately ripped
02 [ff6453f9|7e853b38] (052+110/263) Accurately ripped
03 [65d4e038|5493d487] (052+110/261) Accurately ripped
04 [db6509a5|be0fb5a5] (052+111/262) Accurately ripped
05 [68759af3|b937b020] (052+111/262) Accurately ripped
06 [c0ca979e|e1cc26f0] (052+110/263) Accurately ripped
07 [7a9c7fe4|4fbc9fe4] (052+106/261) Accurately ripped
08 [26e4eec6|83d1ce72] (052+109/260) Accurately ripped
09 [46796515|cd8946a2] (052+109/263) Accurately ripped
10 [9c40c570|7403a186] (052+106/254) Accurately ripped
Offsetted by -646:
01 [479b0f4b] (031/263) Accurately ripped
02 [8c437f93] (032/263) Accurately ripped
03 [e5f9cb98] (031/261) Accurately ripped
04 [ff922c1f] (031/262) Accurately ripped
05 [4bd840f3] (031/262) Accurately ripped
06 [baeaba5c] (032/263) Accurately ripped
07 [a70e54d9] (031/261) Accurately ripped
08 [bc6a91f8] (031/260) Accurately ripped
09 [62920d44] (032/263) Accurately ripped
10 [6d381841] (031/254) Accurately ripped

Track Peak [ CRC32 ] [W/O NULL] [ LOG ]
– 100,0 [091299A8] [3BD4AAE0] CRC32
01 100,0 [FC5CD80E] [68C93541]
02 100,0 [9A67ECD4] [9EE4F4F9]
03 100,0 [0266951C] [D154CD37]
04 100,0 [8075AC44] [045D7FC3]
05 100,0 [2DB94B8B] [8A87D428]
06 100,0 [C9204773] [60054841]
07 100,0 [9ABEF441] [FDCB4437]
08 100,0 [D88BBED5] [A4E99994]
09 100,0 [62BD56FD] [F235EE57]
10 100,0 [5F8282AA] [F46A241C]


Bruce Springsteen - The Collection 1973-84 (2010) [8CD Box Set] Repost

Tracklist CD5 - The River (1980) CD1:

01. The Ties That Bind
02. Sherry Darling
03. Jackson Cage
04. Two Hearts
05. Independence Day
06. Hungry Heart
07. Out In The Street
08. Crush On You
09. You Can Look (But You Better Not Touch)
10. I Wanna Marry You
11. The River

Exact Audio Copy V1.0 beta 1 from 15. November 2010

EAC extraction logfile from 14. May 2011, 12:19

Bruce Springsteen / The River CD1

Used drive : HL-DT-STDVDRAM GSA-H60N Adapter: 2 ID: 0

Read mode : Secure
Utilize accurate stream : Yes
Defeat audio cache : Yes
Make use of C2 pointers : No

Read offset correction : 667
Overread into Lead-In and Lead-Out : No
Fill up missing offset samples with silence : Yes
Delete leading and trailing silent blocks : No
Null samples used in CRC calculations : Yes
Used interface : Native Win32 interface for Win NT & 2000

Used output format : Internal WAV Routines
Sample format : 44.100 Hz; 16 Bit; Stereo


TOC of the extracted CD

Track | Start | Length | Start sector | End sector
––––––––––––––––––––––––––––-
1 | 0:00.00 | 3:34.05 | 0 | 16054
2 | 3:34.05 | 4:03.13 | 16055 | 34292
3 | 7:37.18 | 3:04.02 | 34293 | 48094
4 | 10:41.20 | 2:46.20 | 48095 | 60564
5 | 13:27.40 | 4:50.45 | 60565 | 82359
6 | 18:18.10 | 3:19.33 | 82360 | 97317
7 | 21:37.43 | 4:17.47 | 97318 | 116639
8 | 25:55.15 | 3:10.50 | 116640 | 130939
9 | 29:05.65 | 2:37.68 | 130940 | 142782
10 | 31:43.58 | 3:30.55 | 142783 | 158587
11 | 35:14.38 | 5:01.02 | 158588 | 181164


Range status and errors

Selected range

Filename C:\Documents and Settings\Администратор\Рабочий стол\Rip by ALLexxess\2010 Bruce Springsteen Collection 1973 -1984 (8CD Box Set Sony Music)\1980 The River 2CD Set\CD1\Bruce Springsteen - The River CD1.wav

Peak level 100.0 %
Extraction speed 0.7 X
Range quality 100.0 %
Test CRC 8E3A5E6A
Copy CRC 8E3A5E6A
Copy OK

No errors occurred


AccurateRip summary

Track 1 accurately ripped (confidence 20) [C0C5330B]
Track 2 accurately ripped (confidence 21) [9CFD913E]
Track 3 accurately ripped (confidence 20) [2F225B28]
Track 4 accurately ripped (confidence 20) [55577C7B]
Track 5 accurately ripped (confidence 21) [834C3399]
Track 6 accurately ripped (confidence 21) [E6458ACC]
Track 7 accurately ripped (confidence 20) [5EFE9E1D]
Track 8 accurately ripped (confidence 20) [CF248516]
Track 9 accurately ripped (confidence 21) [93F4D46A]
Track 10 accurately ripped (confidence 21) [64F50AFE]
Track 11 accurately ripped (confidence 21) [48BBD14E]

All tracks accurately ripped

End of status report

==== Log checksum 057F65BB2B41B7770C13919AFF1A2B58DB920A104561C5BF43AF9E2BC91E655F ====


[CUETools log; Date: 13.06.2018 20:45:14; Version: 2.1.5]
[CTDB TOCID: mq8AVs.7zxVCfyf4mCAl4868A.I-] found.
Track | CTDB Status
1 | (330/332) Accurately ripped
2 | (329/332) Accurately ripped
3 | (329/332) Accurately ripped
4 | (330/332) Accurately ripped
5 | (330/332) Accurately ripped
6 | (330/332) Accurately ripped
7 | (328/332) Accurately ripped
8 | (328/332) Accurately ripped
9 | (330/332) Accurately ripped
10 | (328/332) Accurately ripped
11 | (330/332) Accurately ripped
[AccurateRip ID: 00104f02-008d594f-90096f0b] found.
Track [ CRC | V2 ] Status
01 [c0c5330b|d1c80660] (091+200/299) Accurately ripped
02 [9cfd913e|f0182821] (091+200/299) Accurately ripped
03 [2f225b28|259a9cdd] (091+200/299) Accurately ripped
04 [55577c7b|97ecac00] (091+200/299) Accurately ripped
05 [834c3399|04bca839] (091+200/299) Accurately ripped
06 [e6458acc|07d53161] (092+200/300) Accurately ripped
07 [5efe9e1d|fd982b70] (091+200/299) Accurately ripped
08 [cf248516|3043e7aa] (091+200/299) Accurately ripped
09 [93f4d46a|1559a473] (091+200/299) Accurately ripped
10 [64f50afe|47d9a594] (091+200/299) Accurately ripped
11 [48bbd14e|cf82a1d3] (091+200/299) Accurately ripped
Offsetted by -36:
01 [5f923277] (000/299) No match (V2 was not tested)
02 [07d49aee] (000/299) No match (V2 was not tested)
03 [c747fc42] (000/299) No match (V2 was not tested)
04 [b9f078b9] (000/299) No match (V2 was not tested)
05 [df1f0e4d] (000/299) No match (V2 was not tested)
06 [68267140] (000/300) No match (V2 was not tested)
07 [f30ffa3f] (000/299) No match (V2 was not tested)
08 [8fb06ac8] (000/299) No match (V2 was not tested)
09 [b882972a] (000/299) No match (V2 was not tested)
10 [188daeaa] (000/299) No match (V2 was not tested)
11 [cbbd8712] (000/299) No match (V2 was not tested)

Track Peak [ CRC32 ] [W/O NULL] [ LOG ]
– 100,0 [8E3A5E6A] [93C908D5] CRC32
01 100,0 [3CACB1CD] [04709B39]
02 100,0 [ACC684B2] [1AF24F61]
03 84,8 [AF4A1A4F] [55B7952D]
04 95,7 [E06221D9] [3944F074]
05 67,1 [C63A834D] [C3F77EB9]
06 99,4 [4E65EEDD] [29F6DE76]
07 66,7 [65FF0399] [24D5CD67]
08 65,0 [FFE83022] [B9298310]
09 74,1 [1A3D2A7E] [783D2140]
10 69,5 [9BCAB68A] [03613704]
11 71,6 [AADE5F74] [10A85587]


Tracklist CD6 - The River (1980) CD2:

01. Point Blank
02. Cadillac Ranch
03. I'm A Rocker
04. Fade Away
05. Stolen Car
06. Ramrod
07. The Price You Pay
08. Drive All Night
09. Wreck On The Highway

Exact Audio Copy V1.0 beta 1 from 15. November 2010

EAC extraction logfile from 14. May 2011, 13:11

Bruce Springsteen / The River CD2

Used drive : HL-DT-STDVDRAM GSA-H60N Adapter: 2 ID: 0

Read mode : Secure
Utilize accurate stream : Yes
Defeat audio cache : Yes
Make use of C2 pointers : No

Read offset correction : 667
Overread into Lead-In and Lead-Out : No
Fill up missing offset samples with silence : Yes
Delete leading and trailing silent blocks : No
Null samples used in CRC calculations : Yes
Used interface : Native Win32 interface for Win NT & 2000

Used output format : Internal WAV Routines
Sample format : 44.100 Hz; 16 Bit; Stereo


TOC of the extracted CD

Track | Start | Length | Start sector | End sector
––––––––––––––––––––––––––––-
1 | 0:00.00 | 6:06.25 | 0 | 27474
2 | 6:06.25 | 3:03.17 | 27475 | 41216
3 | 9:09.42 | 3:36.53 | 41217 | 57469
4 | 12:46.20 | 4:46.10 | 57470 | 78929
5 | 17:32.30 | 3:54.32 | 78930 | 96511
6 | 21:26.62 | 4:05.48 | 96512 | 114934
7 | 25:32.35 | 5:29.65 | 114935 | 139674
8 | 31:02.25 | 8:33.30 | 139675 | 178179
9 | 39:35.55 | 3:53.62 | 178180 | 195716


Range status and errors

Selected range

Filename C:\Documents and Settings\Администратор\Рабочий стол\Rip by ALLexxess\2010 Bruce Springsteen Collection 1973 -1984 (8CD Box Set Sony Music)\1980 The River 2CD Set\CD2\Bruce Springsteen - The River CD2.wav

Peak level 100.0 %
Extraction speed 0.5 X
Range quality 100.0 %
Test CRC 18CF9080
Copy CRC 18CF9080
Copy OK

No errors occurred


AccurateRip summary

Track 1 accurately ripped (confidence 20) [58DEEEAE]
Track 2 accurately ripped (confidence 20) [1C195CA4]
Track 3 accurately ripped (confidence 20) [BF55F6DB]
Track 4 accurately ripped (confidence 21) [F6A53620]
Track 5 accurately ripped (confidence 21) [6ADAE2F7]
Track 6 accurately ripped (confidence 20) [EFF302E0]
Track 7 accurately ripped (confidence 20) [A1891EE6]
Track 8 accurately ripped (confidence 20) [5AB3EDAB]
Track 9 accurately ripped (confidence 21) [56D14D7E]

All tracks accurately ripped

End of status report

==== Log checksum B95C18991BCB8AAF2422F083C955647DD522846172AED1D94A33B6B8C261C3A8 ====


[CUETools log; Date: 13.06.2018 20:45:40; Version: 2.1.5]
[CTDB TOCID: BiAj8yDRswSfwY9__7bWaciNIqw-] found.
Track | CTDB Status
1 | (421/427) Accurately ripped
2 | (422/427) Accurately ripped
3 | (422/427) Accurately ripped
4 | (420/427) Accurately ripped
5 | (420/427) Accurately ripped
6 | (421/427) Accurately ripped
7 | (421/427) Accurately ripped
8 | (421/427) Accurately ripped
9 | (416/427) Accurately ripped
[AccurateRip ID: 000e313f-0068c02b-830a3109] found.
Track [ CRC | V2 ] Status
01 [58deeeae|924ad397] (090+200/420) Accurately ripped
02 [1c195ca4|19b3b790] (091+200/418) Accurately ripped
03 [bf55f6db|344fb098] (091+200/417) Accurately ripped
04 [f6a53620|8dd36e78] (091+200/418) Accurately ripped
05 [6adae2f7|84a0ab9a] (091+200/420) Accurately ripped
06 [eff302e0|c22e12f3] (091+200/419) Accurately ripped
07 [a1891ee6|34589da3] (092+200/420) Accurately ripped
08 [5ab3edab|3e7982e2] (092+200/422) Accurately ripped
09 [56d14d7e|22ec4938] (092+200/419) Accurately ripped
Offsetted by 2275:
01 [f05189a9] (009/420) Accurately ripped
02 [7b29adb8] (009/418) Accurately ripped
03 [68d6bcef] (009/417) Accurately ripped
04 [c3bda456] (009/418) Accurately ripped
05 [d51816dc] (009/420) Accurately ripped
06 [11fa6821] (009/419) Accurately ripped
07 [8cbb179c] (009/420) Accurately ripped
08 [4ab6d2d7] (009/422) Accurately ripped
09 [a22b57f9] (009/419) Accurately ripped

Track Peak [ CRC32 ] [W/O NULL] [ LOG ]
– 100,0 [18CF9080] [A7B67E02] CRC32
01 100,0 [F7E5A82A] [E9686CBB]
02 100,0 [8CF7A9C4] [79191E3F]
03 89,5 [7017AF0A] [FDB4B6DF]
04 82,7 [60833FE6] [43AE767D]
05 38,1 [E50B7F2D] [7E302968]
06 100,0 [FC48A651] [28161393]
07 100,0 [70B10E22] [76E897CB]
08 94,3 [7FD64C6C] [3F67EB87]
09 57,5 [F7ED934E] [8EDB6068]


Bruce Springsteen - The Collection 1973-84 (2010) [8CD Box Set] Repost

Tracklist CD7 - Nebraska (1982):

01. Nebraska
02. Atlantic City
03. Mansion On The Hill
04. Johnny 99
05. Highway Patrolman
06. State Trooper
07. Used Cars
08. Open All Night
09. My Father's House
10. Reason To Believe

Exact Audio Copy V1.0 beta 1 from 15. November 2010

EAC extraction logfile from 14. May 2011, 19:56

Bruce Springsteen / Nebraska

Used drive : HL-DT-STDVDRAM GSA-H60N Adapter: 2 ID: 0

Read mode : Secure
Utilize accurate stream : Yes
Defeat audio cache : Yes
Make use of C2 pointers : No

Read offset correction : 667
Overread into Lead-In and Lead-Out : No
Fill up missing offset samples with silence : Yes
Delete leading and trailing silent blocks : No
Null samples used in CRC calculations : Yes
Used interface : Native Win32 interface for Win NT & 2000

Used output format : Internal WAV Routines
Sample format : 44.100 Hz; 16 Bit; Stereo


TOC of the extracted CD

Track | Start | Length | Start sector | End sector
––––––––––––––––––––––––––––-
1 | 0:00.00 | 4:32.00 | 0 | 20399
2 | 4:32.00 | 4:00.00 | 20400 | 38399
3 | 8:32.00 | 4:09.00 | 38400 | 57074
4 | 12:41.00 | 3:43.00 | 57075 | 73799
5 | 16:24.00 | 5:41.00 | 73800 | 99374
6 | 22:05.00 | 3:17.00 | 99375 | 114149
7 | 25:22.00 | 3:11.00 | 114150 | 128474
8 | 28:33.00 | 2:58.00 | 128475 | 141824
9 | 31:31.00 | 5:08.00 | 141825 | 164924
10 | 36:39.00 | 4:08.00 | 164925 | 183524


Range status and errors

Selected range

Filename C:\Documents and Settings\Администратор\Рабочий стол\Rip by ALLexxess\2010 Bruce Springsteen Collection 1973 -1984 (8CD Box Set Sony Music)\1982 Nebraska\Bruce Springsteen - Nebraska.wav

Peak level 62.0 %
Extraction speed 0.5 X
Range quality 99.9 %
Test CRC 47389939
Copy CRC 47389939
Copy OK

No errors occurred


AccurateRip summary

Track 1 accurately ripped (confidence 21) [B5C839E6]
Track 2 accurately ripped (confidence 21) [407AEC8B]
Track 3 accurately ripped (confidence 21) [46FDEB35]
Track 4 accurately ripped (confidence 21) [91B161E3]
Track 5 accurately ripped (confidence 21) [39047637]
Track 6 accurately ripped (confidence 21) [317DA1A1]
Track 7 accurately ripped (confidence 21) [B17B7A4F]
Track 8 accurately ripped (confidence 21) [1AB1424E]
Track 9 accurately ripped (confidence 21) [55DC9743]
Track 10 accurately ripped (confidence 22) [BDFDF977]

All tracks accurately ripped

End of status report

==== Log checksum 059C08BF27857E614734FCFA3D9BDC38F6C96D2EDFE529B2867CB555FC6C4444 ====


[CUETools log; Date: 13.06.2018 20:46:00; Version: 2.1.5]
[CTDB TOCID: wNBMLRi0MdHK4rZHa9Nya1qvF2I-] found.
Track | CTDB Status
1 | (321/325) Accurately ripped
2 | (322/325) Accurately ripped
3 | (321/325) Accurately ripped
4 | (321/325) Accurately ripped
5 | (322/325) Accurately ripped
6 | (322/325) Accurately ripped
7 | (322/325) Accurately ripped
8 | (322/325) Accurately ripped
9 | (322/325) Accurately ripped
10 | (323/325) Accurately ripped
[AccurateRip ID: 000f97fe-007bea13-81098f0a] found.
Track [ CRC | V2 ] Status
01 [b5c839e6|f559d498] (087+200/289) Accurately ripped
02 [407aec8b|f55d8080] (087+200/289) Accurately ripped
03 [46fdeb35|569f5152] (087+200/289) Accurately ripped
04 [91b161e3|ca716ebd] (087+200/289) Accurately ripped
05 [39047637|267d249b] (085+200/287) Accurately ripped
06 [317da1a1|0bf127ed] (087+200/289) Accurately ripped
07 [b17b7a4f|cbce5a71] (086+200/288) Accurately ripped
08 [1ab1424e|948850e2] (086+200/288) Accurately ripped
09 [55dc9743|f05abd97] (086+200/288) Accurately ripped
10 [bdfdf977|0cc99284] (084+200/288) Accurately ripped
Offsetted by -48:
01 [bb698fad] (000/289) No match (V2 was not tested)
02 [5c322265] (000/289) No match (V2 was not tested)
03 [08c5d872] (000/289) No match (V2 was not tested)
04 [d6490dd5] (000/289) No match (V2 was not tested)
05 [81da1e81] (000/287) No match (V2 was not tested)
06 [b6fa6eab] (000/289) No match (V2 was not tested)
07 [e942fc80] (000/288) No match (V2 was not tested)
08 [5e34ff03] (000/288) No match (V2 was not tested)
09 [029f7082] (000/288) No match (V2 was not tested)
10 [765a62a9] (000/288) No match (V2 was not tested)
Offsetted by -36:
01 [be3f5b70] (000/289) No match (V2 was not tested)
02 [4e87346c] (000/289) No match (V2 was not tested)
03 [3279239d] (000/289) No match (V2 was not tested)
04 [07ee75b8] (000/289) No match (V2 was not tested)
05 [4b40125e] (000/287) No match (V2 was not tested)
06 [43a54523] (000/289) No match (V2 was not tested)
07 [aa1e3d20] (000/288) No match (V2 was not tested)
08 [f7bb7895] (000/288) No match (V2 was not tested)
09 [1fc39544] (000/288) No match (V2 was not tested)
10 [3853a25b] (000/288) No match (V2 was not tested)

Track Peak [ CRC32 ] [W/O NULL] [ LOG ]
– 62,0 [47389939] [450145A3] CRC32
01 39,1 [056869BB] [9F154A37]
02 60,3 [1DDD6311] [7C362372]
03 61,0 [7ABC24C7] [C99045E0]
04 57,0 [AEC1A8AE] [1B8D1479]
05 41,6 [04E61830] [772F0B25]
06 62,0 [F11CD507] [6E99BA14]
07 35,3 [EDB4FAFE] [CD2AD3B7]
08 36,6 [86701FC1] [9E4842EE]
09 52,3 [77FD1E71] [FFAC5848]
10 41,3 [248562D5] [706D764B]


Bruce Springsteen - The Collection 1973-84 (2010) [8CD Box Set] Repost

Tracklist CD8 - Born In The U.S.A. (1984):

01. Born In The U.S.A.
02. Cover Me
03. Darlington County
04. Working On The Highway
05. Downbound Train
06. I'm On Fire
07. No Surrender
08. Bobby Jean
09. I'm Goin' Down
10. Glory Days
11. Dancing In The Dark
12. My Home Town

Exact Audio Copy V1.0 beta 1 from 15. November 2010

EAC extraction logfile from 14. May 2011, 21:19

Bruce Springsteen / Born In The U.S.A.

Used drive : HL-DT-STDVDRAM GSA-H60N Adapter: 2 ID: 0

Read mode : Secure
Utilize accurate stream : Yes
Defeat audio cache : Yes
Make use of C2 pointers : No

Read offset correction : 667
Overread into Lead-In and Lead-Out : No
Fill up missing offset samples with silence : Yes
Delete leading and trailing silent blocks : No
Null samples used in CRC calculations : Yes
Used interface : Native Win32 interface for Win NT & 2000

Used output format : Internal WAV Routines
Sample format : 44.100 Hz; 16 Bit; Stereo


TOC of the extracted CD

Track | Start | Length | Start sector | End sector
––––––––––––––––––––––––––––-
1 | 0:00.00 | 4:38.62 | 0 | 20911
2 | 4:38.62 | 3:29.34 | 20912 | 36620
3 | 8:08.21 | 4:49.54 | 36621 | 58349
4 | 12:58.00 | 3:16.00 | 58350 | 73049
5 | 16:14.00 | 3:37.55 | 73050 | 89379
6 | 19:51.55 | 2:41.20 | 89380 | 101474
7 | 22:33.00 | 4:02.58 | 101475 | 119682
8 | 26:35.58 | 3:48.17 | 119683 | 136799
9 | 30:24.00 | 3:31.00 | 136800 | 152624
10 | 33:55.00 | 4:19.20 | 152625 | 172069
11 | 38:14.20 | 4:04.55 | 172070 | 190424
12 | 42:19.00 | 4:35.00 | 190425 | 211049


Range status and errors

Selected range

Filename C:\Documents and Settings\Администратор\Рабочий стол\Rip by ALLexxess\2010 Bruce Springsteen Collection 1973 -1984 (8CD Box Set Sony Music)\1984 Born In The U.S.A\Bruce Springsteen - Born In The USA.wav

Peak level 95.6 %
Extraction speed 0.5 X
Range quality 100.0 %
Test CRC 43E84FBF
Copy CRC 43E84FBF
Copy OK

No errors occurred


AccurateRip summary

Track 1 accurately ripped (confidence 24) [D877A685]
Track 2 accurately ripped (confidence 25) [8C091B7F]
Track 3 accurately ripped (confidence 24) [7AE35BA7]
Track 4 accurately ripped (confidence 24) [9CC9814F]
Track 5 accurately ripped (confidence 25) [84EFCD09]
Track 6 accurately ripped (confidence 25) [22FF8089]
Track 7 accurately ripped (confidence 24) [78B93A8F]
Track 8 accurately ripped (confidence 24) [4E5104F4]
Track 9 accurately ripped (confidence 24) [03570906]
Track 10 accurately ripped (confidence 24) [10B9CD01]
Track 11 accurately ripped (confidence 24) [5BDF47EE]
Track 12 accurately ripped (confidence 25) [AEFE1329]

All tracks accurately ripped

End of status report

==== Log checksum 2323E6ED5C5402CD09C09E530685834EE79DAD34F213C1F57DBBC46D40750D5C ====


[CUETools log; Date: 13.06.2018 20:46:22; Version: 2.1.5]
[CTDB TOCID: .JqLyxy96hAc8QFjFMbhV.tJkH8-] found.
Track | CTDB Status
1 | (340/341) Accurately ripped
2 | (337/341) Accurately ripped
3 | (337/341) Accurately ripped
4 | (337/341) Accurately ripped
5 | (337/341) Accurately ripped
6 | (338/341) Accurately ripped
7 | (337/341) Accurately ripped
8 | (338/341) Accurately ripped
9 | (338/341) Accurately ripped
10 | (337/341) Accurately ripped
11 | (338/341) Accurately ripped
12 | (338/341) Accurately ripped
[AccurateRip ID: 0014ca09-00c0c521-ac0afe0c] found.
Track [ CRC | V2 ] Status
01 [d877a685|36fb171b] (086+200/290) Accurately ripped
02 [8c091b7f|602ac057] (087+200/289) Accurately ripped
03 [7ae35ba7|b1b5d73d] (087+200/289) Accurately ripped
04 [9cc9814f|c6ea6f20] (087+200/289) Accurately ripped
05 [84efcd09|0941539e] (087+200/289) Accurately ripped
06 [22ff8089|e34a9a8c] (087+200/289) Accurately ripped
07 [78b93a8f|bc93fc7e] (087+200/289) Accurately ripped
08 [4e5104f4|3368cc7c] (087+200/289) Accurately ripped
09 [03570906|649795fd] (087+200/289) Accurately ripped
10 [10b9cd01|908f4450] (088+200/290) Accurately ripped
11 [5bdf47ee|07251b92] (088+200/290) Accurately ripped
12 [aefe1329|523ec725] (085+200/289) Accurately ripped
Offsetted by -25:
01 [1815541f] (000/290) No match (V2 was not tested)
02 [dbf4f68c] (000/289) No match
03 [5986310c] (000/289) No match
04 [08ba9283] (000/289) No match
05 [f82e25d2] (000/289) No match
06 [49cbcfe1] (000/289) No match
07 [c312c2db] (000/289) No match
08 [6a302733] (000/289) No match
09 [e5b3b5c3] (000/289) No match
10 [f7dde4ee] (000/290) No match
11 [3ac192c7] (000/290) No match
12 [c731b0e3] (000/289) No match
Offsetted by 18:
01 [985a6f00] (000/290) No match (V2 was not tested)
02 [f6f8ca26] (000/289) No match (V2 was not tested)
03 [9572345c] (000/289) No match (V2 was not tested)
04 [a77a1816] (000/289) No match (V2 was not tested)
05 [159558d7] (000/289) No match (V2 was not tested)
06 [cbeaac78] (000/289) No match (V2 was not tested)
07 [deda5264] (000/289) No match (V2 was not tested)
08 [f1c6af70] (000/289) No match (V2 was not tested)
09 [f8323a4d] (000/289) No match (V2 was not tested)
10 [41a6dd72] (000/290) No match (V2 was not tested)
11 [07907a91] (000/290) No match (V2 was not tested)
12 [eed309be] (000/289) No match (V2 was not tested)

Track Peak [ CRC32 ] [W/O NULL] [ LOG ]
– 95,6 [43E84FBF] [D7CE5F0C] CRC32
01 92,2 [5A08AC0A] [CDE0C27F]
02 95,6 [FAE5DD11] [D71B2133]
03 92,1 [75A528FE] [F68992A1]
04 82,8 [CD1D0CD3] [9AAC6458]
05 92,5 [43C6FB4E] [BC495025]
06 52,5 [2044C33D] [73A62C60]
07 88,7 [1C34592B] [9DED3203]
08 75,8 [2B71D61E] [D39695BE]
09 87,3 [38835493] [EA27A31D]
10 79,3 [5D157B12] [D810EB18]
11 86,4 [3D634A0C] [A3656D3E]
12 68,6 [78CE0D56] [911D3C27]


Bruce Springsteen - The Collection 1973-84 (2010) [8CD Box Set] Repost

All thanks go to ALLexxess

Bruce Springsteen or Bruce Springsteen in my Blog

Download Bruce Springsteen - The Collection 1973-84 (2010):