Subcategories

Anton Bruckner - Symphony No 3 - Simone Young

Posted By: DentonW
Anton Bruckner - Symphony No 3 - Simone Young

Anton Bruckner - Symphony No 3 in d minor (Original Version) - Simone Young [SACD]
EAC (FLAC, IMG+CUE, LOG) | Complete Scans 300/600 dpi | 1CD, 298 MB + 37 MB (.rar 3% recovery) | FS & RS
Classical | Label: Oehms Classics OC 624, Germany 2007 | (live recording)



Anton Bruckner: Symphony No 3 in d minor 'Urfassung' (Original Version 1873)
Hamburg Philharmonic, conducted by Simone Young
recorded live at Laeiszhalle, Hamburg, on 14-16th of October 2006.

01. Gemaessigt, misterioso [25:26]
02. Adagio. Feierlich [19:20]
03. Scherzo. Ziemlich schnell [06:40]
04. Finale. Allegro [17:09]

Exact Audio Copy V1.0 beta 2 from 29. April 2011

EAC extraction logfile from 8. August 2011, 22:35

Anton Bruckner / Symphony No 3

Used drive : ATAPI DVD A DH16A6S Adapter: 1 ID: 1

Read mode : Secure
Utilize accurate stream : Yes
Defeat audio cache : No
Make use of C2 pointers : Yes

Read offset correction : 6
Overread into Lead-In and Lead-Out : No
Fill up missing offset samples with silence : Yes
Delete leading and trailing silent blocks : No
Null samples used in CRC calculations : No
Used interface : Native Win32 interface for Win NT & 2000

Used output format : User Defined Encoder
Selected bitrate : 896 kBit/s
Quality : High
Add ID3 tag : No
Command line compressor : D:\Exact Audio Copy\FLAC\FLAC.EXE
Additional command line options : -5 -V -T "ARTIST=%artist%" -T "TITLE=%title%" -T "ALBUM=%albumtitle%" -T "DATE=%year%" -T "TRACKNUMBER=%tracknr%" -T "GENRE=%genre%" -T "COMMENT=%comment%" -T "BAND=%albuminterpret%" -T "COMPOSER=%composer%" %haslyrics%–ta


TOC of the extracted CD

Track | Start | Length | Start sector | End sector
––––––––––––––––––––––––––––-
1 | 0:00.00 | 25:26.10 | 0 | 114459
2 | 25:26.10 | 19:20.00 | 114460 | 201459
3 | 44:46.10 | 6:40.47 | 201460 | 231506
4 | 51:26.57 | 17:09.73 | 231507 | 308754


Range status and errors

Selected range

Filename D:\Uploads\Simone Young\OC624\Anton Bruckner - Symphony No 3.wav

Peak level 97.7 %
Extraction speed 11.9 X
Range quality 100.0 %
Copy CRC 61C25F7A
Copy OK

No errors occurred


AccurateRip summary

Track 1 accurately ripped (confidence 7) [7149344E] (AR v1)
Track 2 accurately ripped (confidence 7) [34962D6C] (AR v1)
Track 3 accurately ripped (confidence 7) [8AF385FA] (AR v1)
Track 4 accurately ripped (confidence 6) [5E43C362] (AR v1)

All tracks accurately ripped

End of status report

==== Log checksum 4C04E40B0B24726E2AA0E0F0D1E3E6F05211AD477FC216F2F10922F8928DEE8E ====


The SACD inlet has additionally been altered to CD jewel case format using free GIMP 2.6 software.


Download links

FILESONIC
CD part 1
CD part 2
Scans

RAPIDSHARE
CD part 1
CD part 2
Scans