Subcategories

Bruckner: Symphony No 1 In C Minor - Janowski, Suisse Romande Orchestra (2012)

Posted By: peotuvave
Bruckner: Symphony No 1 In C Minor - Janowski, Suisse Romande Orchestra (2012)

Bruckner: Symphony No 1 In C Minor - Janowski, Suisse Romande Orchestra (2012)
X Lossless Decoder | Flac (Tracks + cue + log) | 1 CD | Full Scans | 213 MB
Genre: Classical | Label: Pentatone | Catalog Number: 5186447

This is the latest release in the very successful Janowski Bruckner cycle. The previous releases have received rave reviews. Rob Cowan wrote in the Gramophone (Symphony No.7); “This is yet another significant step towards what I am convinced will eventually turn out to be one of the finest recorded Bruckner cycles of the 21st century.”

Composer: Anton Bruckner
Conductor: Marek Janowski
Orchestra/Ensemble: Suisse Romande Orchestra

Reviews: PentaTone's line of hybrid multichannel SACDs are among the finest recordings available, and audiophiles are regularly tempted by these offerings, even if the selections are not always the most familiar. This 2012 release of Anton Bruckner's Symphony No. 1 in C minor may not have the instant appeal of better known orchestral showpieces, such as Stravinsky's Le Sacre du printemps or Rimsky-Korsakov's Scheherazade, but the music sounds remarkably colorful and nuanced in this subtle performance and must be counted as a sonic success. A seasoned Brucknerian, Marek Janowski previously has presented lucid interpretations of the Fifth, Sixth, Seventh, Eighth, and Ninth symphonies for PentaTone, and his output is impressive on both musical and technical levels. Trained in the German repertory, Janowski has a deep feeling for this overlooked symphony, and under his direction, the Orchestre de la Suisse Romande plays with particular zeal and convincing assurance. Yet Janowski is also aware that every note must come through, so he takes extraordinary pains to draw the most delicate distinctions and colors, even at the softest dynamics. While this isn't Bruckner's best-loved symphony, here it sounds like it should be better appreciated, and that's a sign of the craft and integrity that have gone into this first-rate recording.

Tracklisting:

1. Symphony no 1 in C minor, WAB 101 by Anton Bruckner
Conductor: Marek Janowski
Orchestra/Ensemble: Suisse Romande Orchestra
Period: Romantic
Written: 1865/1891; Linz, Austria

X Lossless Decoder version 20130127 (142.3)

XLD extraction logfile from 2013-02-01 16:54:52 +0100

Anton Bruckner / Symphony No. 1 (Marek Janowski)

Used drive : HL-DT-ST DVDRW GA11NR (revision KR06)
Media type : Pressed CD

Ripper mode : XLD Secure Ripper
Disable audio cache : OK for the drive with a cache less than 1375KiB
Make use of C2 pointers : NO
Read offset correction : 667
Max retry count : 20
Gap status : Analyzed, Appended

TOC of the extracted CD
Track | Start | Length | Start sector | End sector
––––––––––––––––––––––––––––-
1 | 00:00:00 | 11:59:40 | 0 | 53964
2 | 11:59:40 | 12:40:73 | 53965 | 111037
3 | 24:40:38 | 08:24:57 | 111038 | 148894
4 | 33:05:20 | 14:00:20 | 148895 | 211914

List of alternate offset correction values
# | Absolute | Relative | Confidence
–––––––––––––––––––––
1 | 103 | -564 | 1

AccurateRip Summary (DiscID: 000805f5-001ffc48-340b0904)
Track 01 : OK (v1, confidence 1/1, with different offset)
Track 02 : OK (v1, confidence 1/1, with different offset)
Track 03 : OK (v1, confidence 1/1, with different offset)
Track 04 : OK (v1, confidence 1/1, with different offset)
->All tracks accurately ripped.

All Tracks
Album gain : -1.68 dB
Peak : 1.000000
Statistics
Read error : 0
Jitter error (maybe fixed) : 0
Retry sector count : 0
Damaged sector count : 0

Track 01
Filename : /Users/dehors/Music/Anton Bruckner - Symphony No. 1 in C minor [Marek Janowski] (2012) [FLAC]/01 - Symphony No. 1 in C minor - I. Allegro.flac
Pre-gap length : 00:02:00

Track gain : -1.48 dB
Peak : 1.000000
CRC32 hash (test run) : 4FE27094
CRC32 hash : 4FE27094
CRC32 hash (skip zero) : DD77820D
AccurateRip v1 signature : DE59C601 (8015B94D w/correction)
AccurateRip v2 signature : 0804C8A2
->Accurately ripped with different offset (v1, confidence 1/1, offset -564)
Statistics
Read error : 0
Jitter error (maybe fixed) : 0
Retry sector count : 0
Damaged sector count : 0

Track 02
Filename : /Users/dehors/Music/Anton Bruckner - Symphony No. 1 in C minor [Marek Janowski] (2012) [FLAC]/02 - Symphony No. 1 in C minor - II. Adagio.flac

Track gain : 0.73 dB
Peak : 0.745850
CRC32 hash (test run) : CBA13EA5
CRC32 hash : CBA13EA5
CRC32 hash (skip zero) : 9BA1472D
AccurateRip v1 signature : D4AE4F08 (926C876B w/correction)
AccurateRip v2 signature : 5B88BB16
->Accurately ripped with different offset (v1, confidence 1/1, offset -564)
Statistics
Read error : 0
Jitter error (maybe fixed) : 0
Retry sector count : 0
Damaged sector count : 0

Track 03
Filename : /Users/dehors/Music/Anton Bruckner - Symphony No. 1 in C minor [Marek Janowski] (2012) [FLAC]/03 - Symphony No. 1 in C minor - III. Scherzo. Schnell - Trio. Langsamer.flac

Track gain : -1.14 dB
Peak : 0.826660
CRC32 hash (test run) : 43AFA880
CRC32 hash : 43AFA880
CRC32 hash (skip zero) : 4915D20A
AccurateRip v1 signature : 2E52F87B (12A3B48E w/correction)
AccurateRip v2 signature : 36CD5AE9
->Accurately ripped with different offset (v1, confidence 1/1, offset -564)
Statistics
Read error : 0
Jitter error (maybe fixed) : 0
Retry sector count : 0
Damaged sector count : 0

Track 04
Filename : /Users/dehors/Music/Anton Bruckner - Symphony No. 1 in C minor [Marek Janowski] (2012) [FLAC]/04 - Symphony No. 1 in C minor - IV. Finale. Bewegt, feurig.flac

Track gain : -2.89 dB
Peak : 1.000000
CRC32 hash (test run) : FC3E9A3A
CRC32 hash : FC3E9A3A
CRC32 hash (skip zero) : 53918E0E
AccurateRip v1 signature : 9C9DE4D4 (EE721066 w/correction)
AccurateRip v2 signature : AB88566E
->Accurately ripped with different offset (v1, confidence 1/1, offset -564)
Statistics
Read error : 0
Jitter error (maybe fixed) : 0
Retry sector count : 0
Damaged sector count : 0

No errors occurred

End of status report


Thanks to the original releaser

Download:

Filepost | Uploaded