Subcategories

Bruno Maderna - The Last Concert - Alfred Brendel

Posted By: DentonW
Bruno Maderna - The Last Concert - Alfred Brendel

Bruno Maderna - The Last Concert - Bartok, Schoenberg: Piano Concertos - Alfred Brendel, piano
EAC (FLAC, IMG+CUE, LOG) | Scans 300/600 dpi | 1CD, 276 MB + 19,5 MB (.rar 3% rec.) | FS & RS
Classical | Stradivarius STR 10071, Italy 1993 | (live recording)



Bruno Maderna - The Last Concert
Royal Festival Hall, London, BBC Symphony Orchestra, piano: Alfred Brendel
Conversation with George Stone and Alan Stout (abridged version) from WEFM Radio of Chicago on January 23, 1970.

01. Bela Bartok / Piano Concerto 1 - 1 Allegro moderato [09:37]
02. Bela Bartok / Piano Concerto 1 - 2 Andante [09:05]
03. Bela Bartok / Piano Concerto 1 - 3 Allegro molto [07:31]
04. Arnold Schoenberg / Piano Concerto op 42 [20:44]
05. A conversation with Bruno Maderna [25:05]

Exact Audio Copy V1.0 beta 2 from 29. April 2011

EAC extraction logfile from 9. August 2011, 21:31

Bartok - Schoenberg / Bruno Maderna - The Last Concert

Used drive : ATAPI DVD A DH16A6S Adapter: 1 ID: 1

Read mode : Secure
Utilize accurate stream : Yes
Defeat audio cache : No
Make use of C2 pointers : Yes

Read offset correction : 6
Overread into Lead-In and Lead-Out : No
Fill up missing offset samples with silence : Yes
Delete leading and trailing silent blocks : No
Null samples used in CRC calculations : No
Used interface : Native Win32 interface for Win NT & 2000

Used output format : User Defined Encoder
Selected bitrate : 896 kBit/s
Quality : High
Add ID3 tag : No
Command line compressor : D:\Exact Audio Copy\flac.exe
Additional command line options : -5 -V -T "ARTIST=%artist%" -T "TITLE=%title%" -T "ALBUM=%albumtitle%" -T "DATE=%year%" -T "TRACKNUMBER=%tracknr%" -T "GENRE=%genre%" -T "COMMENT=%comment%" -T "BAND=%albuminterpret%" -T "COMPOSER=%composer%" %haslyrics%–ta


TOC of the extracted CD

Track | Start | Length | Start sector | End sector
––––––––––––––––––––––––––––-
1 | 0:00.32 | 9:37.30 | 32 | 43336
2 | 9:37.62 | 9:05.00 | 43337 | 84211
3 | 18:42.62 | 7:31.63 | 84212 | 118099
4 | 26:14.50 | 20:44.15 | 118100 | 211414
5 | 46:58.65 | 25:05.42 | 211415 | 324331


Range status and errors

Selected range

Filename D:\Uploads\Alfred Brendel\STR10071\Bruno Maderna - The Last Concert.wav

Peak level 76.9 %
Extraction speed 11.9 X
Range quality 100.0 %
Copy CRC 7E8BF8AD
Copy OK

No errors occurred


AccurateRip summary

Track 1 accurately ripped (confidence 1) [0C86EAFB] (AR v1)
Track 2 accurately ripped (confidence 1) [27C1A2DF] (AR v1)
Track 3 accurately ripped (confidence 1) [6321C3AC] (AR v1)
Track 4 accurately ripped (confidence 1) [3C83CAF3] (AR v1)
Track 5 accurately ripped (confidence 1) [1BFC4F44] (AR v1)

All tracks accurately ripped

End of status report

==== Log checksum 40D00D1B126A08F837FCB4A262BF7A53F9F0D04880BE81106FD7E80F41C28EAF ====


Until today many listeners of classical music still won't believe that Alfred Brendel has ever played (or even recorded) works by Bartok (e.g. the Sonata for two Pianos with Charlotte Zelka) or some other 'modern' composers, except perhaps Schoenberg. Unfortunately this suspicions got more or less confirmed by Brendel's former record label Turnabout/Vox, because his early Bartok recording has not been included in the CD re-releases so far. In fact, however, he never recorded any of the Bartok concertos, and since the early 1970s he has nevermore played these works in concert. This live recording represents a rare document of his discography.


Download links

FILESONIC
CD part 1
CD part 2
Scans

RAPIDSHARE
CD part 1
CD part 2
Scans