Subcategories

Bryan Adams - On A Day Like Today (1998) [Japan 1st Press]

Posted By: Andi_Deris
Bryan Adams - On A Day Like Today (1998) [Japan 1st Press]

Bryan Adams - On A Day Like Today (1998) [Japan 1st Press]
EAC Rip | FLAC: Image+Cue+Log | 425 Mb | MP3 CBR 320 kbps | 155 Mb | Scans | 94 Mb | Time: 59:01
Polydor K.K. | POCM-1266
Soft Rock, Pop Rock

ON A DAY LIKE TODAY is the eighth studio album by Canadian singer-songwriter Bryan Adams, released in 1998. Bryan recruited producer Bob Rock for this album. Bryan wanted to produce a hit album after critics panned his last studio album. "On a Day Like Today" was the first single released. It reached #13 in the UK and #1 on the Canadian Singles Chart. "When You're Gone", the second single, was a smash hit reaching #3 on the UK Chart and was in the Top 10 for ten weeks. It reached #11 in Canada. "Cloud Number Nine" reached #6 in the UK and #7 in Canada.

Bryan Adams - On A Day Like Today (1998) [Japan 1st Press]




Track Listing

01. How Do Ya Feel Tonight (04:47)
02. C'mon C'mon C'mon (03:36)
03. Getaway (03:47)
04. On A Day Like Today (03:29)
05. Fearless (03:52)
06. I'm A Liar (04:16)
07. Cloud Number Nine (03:46)
08. When You're Gone (with Melanie C.) (03:25)
09. Inside Out (04:43)
10. If I Had You (04:03)
11. Before The Night Is Over (03:49)
12. I Don't Wanna Live Forever (03:14)
13. Where Angels Fear To Tread (03:48)
14. Lie To Me (Bonus track) (04:38)
15. Hey Baby (Bonus track for Japan) (03:48)

Produced by Bryan Adams, Bob Rock, Phil Thornalley, Phil Western

Personnel

• Bryan Adams - guitars, piano, vocals
• Mickey Curry - drums
• Keith Scott - bass, guitar
• Phil Thornalley - guitar, bass, string arrangements
• Dave Pickell - piano, organ
• Danny Cummings - percussion
• Melanie C - vocals on "When You're Gone"

Exact Audio Copy V1.0 beta 3 from 29. August 2011

EAC extraction logfile from 19. October 2014, 1:47

Bryan Adams / On A Day Like Today

Used drive : SlimtypeDVD A DS8A5SH Adapter: 0 ID: 1

Read mode : Secure
Utilize accurate stream : Yes
Defeat audio cache : Yes
Make use of C2 pointers : No

Read offset correction : 6
Overread into Lead-In and Lead-Out : No
Fill up missing offset samples with silence : Yes
Delete leading and trailing silent blocks : No
Null samples used in CRC calculations : Yes
Used interface : Native Win32 interface for Win NT & 2000

Used output format : User Defined Encoder
Selected bitrate : 320 kBit/s
Quality : High
Add ID3 tag : No
Command line compressor : C:\Program Files (x86)\Exact Audio Copy\Flac\flac.exe
Additional command line options : -V -8 -T "Date=%year%" -T "Genre=%genre%" %source%


TOC of the extracted CD

Track | Start | Length | Start sector | End sector
––––––––––––––––––––––––––––-
1 | 0:00.00 | 4:46.37 | 0 | 21486
2 | 4:46.37 | 3:36.18 | 21487 | 37704
3 | 8:22.55 | 3:47.07 | 37705 | 54736
4 | 12:09.62 | 3:28.55 | 54737 | 70391
5 | 15:38.42 | 3:52.03 | 70392 | 87794
6 | 19:30.45 | 4:16.15 | 87795 | 107009
7 | 23:46.60 | 3:45.42 | 107010 | 123926
8 | 27:32.27 | 3:24.68 | 123927 | 139294
9 | 30:57.20 | 4:43.07 | 139295 | 160526
10 | 35:40.27 | 4:03.05 | 160527 | 178756
11 | 39:43.32 | 3:48.40 | 178757 | 195896
12 | 43:31.72 | 3:14.25 | 195897 | 210471
13 | 46:46.22 | 3:47.60 | 210472 | 227556
14 | 50:34.07 | 4:37.63 | 227557 | 248394
15 | 55:11.70 | 3:47.47 | 248395 | 265466


Range status and errors

Selected range

Filename D:\My Music\Bryan Adams - 1998 On A Day Like Today\Bryan Adams - On A Day Like Today.wav

Peak level 100.0 %
Extraction speed 4.5 X
Range quality 100.0 %
Test CRC E1112B7F
Copy CRC E1112B7F
Copy OK

No errors occurred


AccurateRip summary

Track 1 accurately ripped (confidence 2) [4D4A12CA] (AR v1)
Track 2 accurately ripped (confidence 2) [A70D7205] (AR v1)
Track 3 accurately ripped (confidence 2) [B00960DB] (AR v1)
Track 4 accurately ripped (confidence 2) [7C43012D] (AR v1)
Track 5 accurately ripped (confidence 2) [5388ACE4] (AR v1)
Track 6 accurately ripped (confidence 2) [A3057EFF] (AR v1)
Track 7 accurately ripped (confidence 2) [F78646AB] (AR v1)
Track 8 accurately ripped (confidence 2) [845CEB6A] (AR v1)
Track 9 accurately ripped (confidence 2) [62635B3C] (AR v1)
Track 10 accurately ripped (confidence 2) [A378FDA3] (AR v1)
Track 11 accurately ripped (confidence 2) [6EE4B98A] (AR v1)
Track 12 accurately ripped (confidence 2) [5BC3FDD8] (AR v1)
Track 13 accurately ripped (confidence 2) [48376166] (AR v1)
Track 14 accurately ripped (confidence 2) [6601F6C0] (AR v1)
Track 15 accurately ripped (confidence 2) [0C8B0861] (AR v1)

All tracks accurately ripped

End of status report

==== Log checksum FCC563EECC3D02662F8D9A0A90D4504F7CBE6F1DBC85D4D95A05DCD6C7F96134 ====


Many thanks to the original uploader: kolushew

–––––––––
Nitroflare