Subcategories

Bryan Adams - Room Service (2004) [Japan 1st Press]

Posted By: Andi_Deris
Bryan Adams - Room Service (2004) [Japan 1st Press]

Bryan Adams - Room Service (2004) [Japan 1st Press]
EAC Rip | FLAC: Image+Cue+Log | 314 Mb | MP3 CBR 320 kbps | 118 Mb | Scans | 123 Mb | Time: 39:21
Universal Music | UICP-1058
Soft Rock, Pop Rock

ROOM SERVICE is the tenth studio album by Canadian singer-songwriter Bryan Adams. The album was released by Polydor Records on September 10, 2004. Room Service was the first release of new Adams material since the soundtrack album Spirit: Stallion of the Cimarron in 2002 and the first studio album in six years since On a Day Like Today. Adams produced the album and co-wrote the songs with various co-writers, the themes of the songs being varied between street life, touring, truth, love and relationships.

Bryan Adams - Room Service (2004) [Japan 1st Press]




Track Listing

01. East Side Story (03:22)
02. This Side Of Paradise (03:51)
03. Not Romeo Not Juliet (03:39)
04. Flying (04:04)
05. She's A Little Too Good For Me (02:37)
06. Open Road (03:28)
07. Room Service (02:54)
08. I Was Only Dreamin' (02:32)
09. Right Back Where I Started From (03:42)
10. Nowhere Fast (03:49)
11. Why Do You Have To Be So Hard To Love (02:58)
12. Blessing In Disguise (Bonus track for Japan) (02:25)

Produced by Bryan Adams

Personnel

• Bryan Adams - guitar, dobro, harmonica, piano and bass
• Keith Scott - guitars
• Mickey Curry - drums
• Norm Fisher - bass
• Gary Breit - piano and organ

*****
• Phil Thornalley - additional production, guitars and keyboards
• Yoad Nevo - additional production, programming, percussion, guitars
• Declan Masterson - Irish whistle on "Flying"
• Maurice Seezer - accordion and piano on "Flying"
• Gavin Greenway - string arrangement on "Flying"
• Michael Kamen - string arrangement and oboe on "I Was Only Dreaming"
• Ben Dobie, Avril Mackintosh, and Olle Romo - protocols editing
• The Pointless Brothers - background vocals on "Flying"

Exact Audio Copy V1.0 beta 3 from 29. August 2011

EAC extraction logfile from 19. October 2014, 16:32

Bryan Adams / Room Service

Used drive : SlimtypeDVD A DS8A5SH Adapter: 0 ID: 1

Read mode : Secure
Utilize accurate stream : Yes
Defeat audio cache : Yes
Make use of C2 pointers : No

Read offset correction : 6
Overread into Lead-In and Lead-Out : No
Fill up missing offset samples with silence : Yes
Delete leading and trailing silent blocks : No
Null samples used in CRC calculations : Yes
Used interface : Native Win32 interface for Win NT & 2000

Used output format : User Defined Encoder
Selected bitrate : 320 kBit/s
Quality : High
Add ID3 tag : No
Command line compressor : C:\Program Files (x86)\Exact Audio Copy\Flac\flac.exe
Additional command line options : -V -8 -T "Date=%year%" -T "Genre=%genre%" %source%


TOC of the extracted CD

Track | Start | Length | Start sector | End sector
––––––––––––––––––––––––––––-
1 | 0:00.00 | 3:22.30 | 0 | 15179
2 | 3:22.30 | 3:50.52 | 15180 | 32481
3 | 7:13.07 | 3:38.40 | 32482 | 48871
4 | 10:51.47 | 4:04.08 | 48872 | 67179
5 | 14:55.55 | 2:37.25 | 67180 | 78979
6 | 17:33.05 | 3:28.17 | 78980 | 94596
7 | 21:01.22 | 2:53.45 | 94597 | 107616
8 | 23:54.67 | 2:32.08 | 107617 | 119024
9 | 26:27.00 | 3:41.35 | 119025 | 135634
10 | 30:08.35 | 3:48.70 | 135635 | 152804
11 | 33:57.30 | 2:57.57 | 152805 | 166136
12 | 36:55.12 | 2:24.73 | 166137 | 177009


Range status and errors

Selected range

Filename D:\My Music\Bryan Adams - 2004 Room Service\Bryan Adams - Room Service.wav

Peak level 98.8 %
Extraction speed 1.6 X
Range quality 100.0 %
Test CRC 3125B94E
Copy CRC 3125B94E
Copy OK

No errors occurred


AccurateRip summary

Track 1 accurately ripped (confidence 20) [C1F5B843] (AR v2)
Track 2 accurately ripped (confidence 20) [DFCE2CA2] (AR v2)
Track 3 accurately ripped (confidence 20) [1258B5EC] (AR v2)
Track 4 accurately ripped (confidence 20) [3C838506] (AR v2)
Track 5 accurately ripped (confidence 20) [E9E8AC55] (AR v2)
Track 6 accurately ripped (confidence 20) [192E13A0] (AR v2)
Track 7 accurately ripped (confidence 19) [8F384C54] (AR v2)
Track 8 accurately ripped (confidence 20) [A39FF827] (AR v2)
Track 9 accurately ripped (confidence 20) [F4042B63] (AR v2)
Track 10 accurately ripped (confidence 20) [6AF93A3A] (AR v2)
Track 11 accurately ripped (confidence 20) [6B282DBE] (AR v2)
Track 12 accurately ripped (confidence 20) [89756AC2] (AR v2)

All tracks accurately ripped

End of status report

==== Log checksum D4019BA553D7C8DCD98F5457B6CB7B98A4E6BCE283F9B3A9A49275780205666D ====


Many thanks to the original uploader: kolushew

–––––––––
Nitroflare