Subcategories

Bryan Adams - Spirit: Stallion Of The Cimarron (2002) [Japan 1st Press]

Posted By: Andi_Deris
Bryan Adams - Spirit: Stallion Of The Cimarron (2002) [Japan 1st Press]

Bryan Adams - Spirit: Stallion Of The Cimarron (2002) [Japan 1st Press]
EAC Rip | FLAC: Image+Cue+Log | 440 Mb | MP3 CBR 320 kbps | 176 Mb | Scans | 79 Mb | Time: 01:06:58
Universal Music | UICA-1008
Soft Rock, Pop Rock, Soundtrack, Modern Classical

SPIRIT: STALLION OF THE CHIMARRON is a soundtrack album and the ninth studio album by Bryan Adams and Hans Zimmer to the animated feature of the same name. The album was released on May 4, 2002 and includes the European hit, "Here I Am".

Bryan Adams - Spirit: Stallion Of The Cimarron (2002) [Japan 1st Press]




Track Listing

01. Here I Am (End Title) (04:45)
02. I Will Always Return (03:59)
03. You Can't Take Me (02:57)
04. Get Off My Back (02:50)
05. Brothers Under The Sun (03:58)
06. Don't Let Go (with Sarah McLachlan) (04:02)
07. This Is Where I Belong (02:21)
08. Hea I Am (04:32)
09. Sound The Bugle (03:55)
10. Run Free (06:22)
11. Homeland (Main Title) (03:42)
12. Rain (02:51)
13. The Long Road Back (07:11)
14. Nothing I've Ever Known (03:52)
15. I Will Always Return (Finale) (02:47)

Bonus tracks for Japan
16. Where Do I Go From Here? (03:04)
17. You Can't Take Me (Alternate Version) (03:50)

Produced by Bryan Adams, Hans Zimmer, Jay Rifkin, Gavin Greenaway, Steve Jablonsky, Matt Mahaffey, Patrick Leonard, Jimmy Jam and Terry Lewis

Musicians

• Bass, Acoustic and Electric Guitar: BA
• Guitar: KEITH SCOTT
• Drums: MICKEY CURRY
• Acoustic and Electric Guitar: HECTOR PEREIRA
• Electric Guitar: DAVEY JOHNSTONE
• 12 String Guitar: DAVID CHANNING
• Electric Cello: MARTIN TILLMAN
• Fiddle: CRAIG EASTMAN
• Background Vocals: POINTLESS BROTHERS
• Keyboards and Programming: GAVIN GREENAWAY, PAT LEONARD, STEVE JABLONSKY, HANS ZIMMER, MEL WESSON

Exact Audio Copy V1.0 beta 3 from 29. August 2011

EAC extraction logfile from 19. October 2014, 13:29

Bryan Adams / Spirit - Stallion Of The Cimarron

Used drive : SlimtypeDVD A DS8A5SH Adapter: 0 ID: 1

Read mode : Secure
Utilize accurate stream : Yes
Defeat audio cache : Yes
Make use of C2 pointers : No

Read offset correction : 6
Overread into Lead-In and Lead-Out : No
Fill up missing offset samples with silence : Yes
Delete leading and trailing silent blocks : No
Null samples used in CRC calculations : Yes
Used interface : Native Win32 interface for Win NT & 2000

Used output format : User Defined Encoder
Selected bitrate : 320 kBit/s
Quality : High
Add ID3 tag : No
Command line compressor : C:\Program Files (x86)\Exact Audio Copy\Flac\flac.exe
Additional command line options : -V -8 -T "Date=%year%" -T "Genre=%genre%" %source%


TOC of the extracted CD

Track | Start | Length | Start sector | End sector
––––––––––––––––––––––––––––-
1 | 0:00.00 | 4:44.67 | 0 | 21366
2 | 4:44.67 | 3:58.38 | 21367 | 39254
3 | 8:43.30 | 2:56.37 | 39255 | 52491
4 | 11:39.67 | 2:50.15 | 52492 | 65256
5 | 14:30.07 | 3:57.68 | 65257 | 83099
6 | 18:28.00 | 4:02.30 | 83100 | 101279
7 | 22:30.30 | 2:21.10 | 101280 | 111864
8 | 24:51.40 | 4:32.10 | 111865 | 132274
9 | 29:23.50 | 3:54.45 | 132275 | 149869
10 | 33:18.20 | 6:21.40 | 149870 | 178484
11 | 39:39.60 | 3:41.62 | 178485 | 195121
12 | 43:21.47 | 2:50.38 | 195122 | 207909
13 | 46:12.10 | 7:11.17 | 207910 | 240251
14 | 53:23.27 | 3:52.10 | 240252 | 257661
15 | 57:15.37 | 2:47.13 | 257662 | 270199
16 | 60:02.50 | 3:04.25 | 270200 | 284024
17 | 63:07.00 | 3:50.12 | 284025 | 301286


Range status and errors

Selected range

Filename D:\My Music\Bryan Adams - 2002 Spirit - Stallion Of The Cimarron\Bryan Adams - Spirit - Stallion Of The Cimarron.wav

Peak level 100.0 %
Extraction speed 1.9 X
Range quality 100.0 %
Test CRC 2E2E8C4C
Copy CRC 2E2E8C4C
Copy OK

No errors occurred


AccurateRip summary

Track 1 accurately ripped (confidence 1) [B3A08BD0] (AR v2)
Track 2 accurately ripped (confidence 1) [FFEDC714] (AR v2)
Track 3 accurately ripped (confidence 1) [9446691D] (AR v2)
Track 4 accurately ripped (confidence 1) [44194B43] (AR v2)
Track 5 accurately ripped (confidence 1) [CA0EB64A] (AR v2)
Track 6 accurately ripped (confidence 1) [4E4CC9EE] (AR v2)
Track 7 accurately ripped (confidence 1) [2DDE5410] (AR v2)
Track 8 accurately ripped (confidence 1) [630271DC] (AR v2)
Track 9 accurately ripped (confidence 1) [BE55BB95] (AR v2)
Track 10 accurately ripped (confidence 1) [7C034C01] (AR v2)
Track 11 accurately ripped (confidence 1) [37114A7D] (AR v2)
Track 12 accurately ripped (confidence 1) [D8105901] (AR v2)
Track 13 accurately ripped (confidence 1) [1763BA08] (AR v2)
Track 14 accurately ripped (confidence 1) [C24DE0D4] (AR v2)
Track 15 accurately ripped (confidence 1) [3265B84F] (AR v2)
Track 16 accurately ripped (confidence 1) [A76AC08E] (AR v2)
Track 17 accurately ripped (confidence 1) [6D9AE1AB] (AR v2)

All tracks accurately ripped

End of status report

==== Log checksum 0A08860DD31DA87DD6C7274A7084E697AB5BC872AFE6A4E783A25EA73AB89D3B ====


Many thanks to the original uploader: kolushew

–––––––––
Nitroflare