Subcategories

Bryan Adams - Waking Up The Neighbours (1991) [Japan 1st Press, 1992] 2CD Album Set

Posted By: Andi_Deris
Bryan Adams - Waking Up The Neighbours (1991) [Japan 1st Press, 1992] 2CD Album Set

Bryan Adams - Waking Up The Neighbours (1991) [Japan 1st Press, 1992] 2CD Album Set
EAC Rip | FLAC: Image+Cue+Log | 766 Mb | MP3 CBR 320 kbps | 271 Mb | Scans | 77 Mb | Time: 01:14:53 + 27:13
Polydor K.K. | POCM-9001/2
Soft Rock, Pop Rock

"Waking Up The Neighbours" is the sixth studio album by Canadian singer/songwriter Bryan Adams released in 1991. The album was recorded at Battery Studios in London, and at The Warehouse Studio in Vancouver, mixed at Mayfair Studios in London, and mastered by Bob Ludwig at Masterdisk in New York City. "(Everything I Do) I Do It for You" was number one on the British charts for a record-breaking 16 weeks. The album sold more than 16 million copies worldwide.

Bryan Adams - Waking Up The Neighbours (1991) [Japan 1st Press, 1992] 2CD Album Set




Bryan Adams - Waking Up The Neighbours (1991) [Japan 1st Press, 1992] 2CD Album Set


Disc 1: Waking Up The Neighbours

01. Is Your Mama Gonna Miss Ya? (04:41)
02. Hey Honey - I'm Packin' You In! (04:00)
03. Can't Stop This Thing We Started (04:29)
04. Thought I'd Died And Gone To Heaven (05:48)
05. Not Guilty (04:12)
06. Vanishing (05:03)
07. House Arrest (03:58)
08. Do I Have To Say The Words? (06:11)
09. There Will Never Be Another Tonight (04:40)
10. All I Want Is You (05:20)
11. Depend On Me (05:07)
12. (Everything I Do) I Do For You (06:34)
13. If You Wanna Leave Me (Can I Come Too?) (04:43)
14. Touch The Hand (04:05)
15. Don't Drop That Bomb On Me (06:00)

Bryan Adams - Waking Up The Neighbours (1991) [Japan 1st Press, 1992] 2CD Album Set


Disc 2: The Live Volume

01. Can't Stop This Thing We Started (Live in Le Mobile, Big Valley, Canada) (05:02)
02. House Arrest (Live in Le Mobile, Big Valley, Canada) (04:58)
03. (Everything I Do) I Do It For You (Live in Le Mobile, Big Valley, Canada) (07:34)
04. There Will Never Be Another Tonight (Live in Le Mobile, Big Valley, Canada) (05:35)
05. C'mon Everybody (Live in Advision, Cardiff, Wales) (04:04)

Produced by Robert John "Mutt" Lange and Bryan Adams

Personnel

«WAKING UP THE NEIGHBOURS»
• Bryan Adams - rhythm guitar, vocals
• Keith Scott - lead guitar
• Tommy Mandel - Hammond organ
• Dave Taylor - bass
• Mickey Curry - drums

*****
• Larry Klein - bass
• Phil Nicholas - keyboards and programming
• Robbie King - Hammond organ
• Bill Payne - piano and Hammond organ
• Ed Shearmur - keyboards
• The Tuck Back Twins - background vocals

«THE LIVE VOLUME»
• Bryan Adams - rhythm guitar, vocals
• Keith Scott - lead guitar
• Mickey Curry - drums
• Dave Taylor - bass
• Tommy Mandel - keyboards

Exact Audio Copy V1.0 beta 3 from 29. August 2011

EAC extraction logfile from 15. October 2014, 19:55

Bryan Adams / Waking Up The Neighbours

Used drive : SlimtypeDVD A DS8A5SH Adapter: 0 ID: 1

Read mode : Secure
Utilize accurate stream : Yes
Defeat audio cache : Yes
Make use of C2 pointers : No

Read offset correction : 6
Overread into Lead-In and Lead-Out : No
Fill up missing offset samples with silence : Yes
Delete leading and trailing silent blocks : No
Null samples used in CRC calculations : Yes
Used interface : Native Win32 interface for Win NT & 2000

Used output format : User Defined Encoder
Selected bitrate : 320 kBit/s
Quality : High
Add ID3 tag : No
Command line compressor : C:\Program Files (x86)\Exact Audio Copy\Flac\flac.exe
Additional command line options : -V -8 -T "Date=%year%" -T "Genre=%genre%" %source%


TOC of the extracted CD

Track | Start | Length | Start sector | End sector
––––––––––––––––––––––––––––-
1 | 0:00.37 | 4:40.62 | 37 | 21098
2 | 4:41.24 | 3:59.40 | 21099 | 39063
3 | 8:40.64 | 4:29.00 | 39064 | 59238
4 | 13:09.64 | 5:48.33 | 59239 | 85371
5 | 18:58.22 | 4:12.00 | 85372 | 104271
6 | 23:10.22 | 5:03.27 | 104272 | 127023
7 | 28:13.49 | 3:57.40 | 127024 | 144838
8 | 32:11.14 | 6:11.10 | 144839 | 172673
9 | 38:22.24 | 4:40.20 | 172674 | 193693
10 | 43:02.44 | 5:20.20 | 193694 | 217713
11 | 48:22.64 | 5:07.23 | 217714 | 240761
12 | 53:30.12 | 6:34.15 | 240762 | 270326
13 | 60:04.27 | 4:42.65 | 270327 | 291541
14 | 64:47.17 | 4:05.15 | 291542 | 309931
15 | 68:52.32 | 6:00.30 | 309932 | 336961


Range status and errors

Selected range

Filename D:\My Music\Bryan Adams - 1991 Waking Up The Neighbours\CD1\Bryan Adams - Waking Up The Neighbours.wav

Peak level 97.3 %
Extraction speed 2.2 X
Range quality 100.0 %
Test CRC 8D78F1A2
Copy CRC 8D78F1A2
Copy OK

No errors occurred


AccurateRip summary

Track 1 accurately ripped (confidence 4) [D9AD8C00] (AR v2)
Track 2 accurately ripped (confidence 4) [F6232C4C] (AR v2)
Track 3 accurately ripped (confidence 4) [F99AE129] (AR v2)
Track 4 accurately ripped (confidence 4) [B9EB8C99] (AR v2)
Track 5 accurately ripped (confidence 4) [E464DD15] (AR v2)
Track 6 accurately ripped (confidence 4) [359B8A27] (AR v2)
Track 7 accurately ripped (confidence 4) [EB825834] (AR v2)
Track 8 accurately ripped (confidence 4) [7046DD7E] (AR v2)
Track 9 accurately ripped (confidence 4) [719EE4A1] (AR v2)
Track 10 accurately ripped (confidence 4) [6FB21FD1] (AR v2)
Track 11 accurately ripped (confidence 3) [E8F1D801] (AR v2)
Track 12 accurately ripped (confidence 4) [0DCC17E8] (AR v2)
Track 13 accurately ripped (confidence 4) [C0302BC6] (AR v2)
Track 14 accurately ripped (confidence 4) [93A8BC70] (AR v2)
Track 15 accurately ripped (confidence 4) [95E9A355] (AR v2)

All tracks accurately ripped

End of status report

==== Log checksum ADBEFCD79EED62DA81E655BD68F10ADBCDFB1AF2B63C576FB6F5C832A5F076A8 ====

Exact Audio Copy V1.0 beta 3 from 29. August 2011

EAC extraction logfile from 16. December 2014, 21:52

Bryan Adams / The Live Volume

Used drive : SlimtypeDVD A DS8A5SH Adapter: 0 ID: 1

Read mode : Secure
Utilize accurate stream : Yes
Defeat audio cache : Yes
Make use of C2 pointers : No

Read offset correction : 6
Overread into Lead-In and Lead-Out : No
Fill up missing offset samples with silence : Yes
Delete leading and trailing silent blocks : No
Null samples used in CRC calculations : Yes
Used interface : Native Win32 interface for Win NT & 2000

Used output format : User Defined Encoder
Selected bitrate : 320 kBit/s
Quality : High
Add ID3 tag : No
Command line compressor : C:\Program Files (x86)\Exact Audio Copy\Flac\flac.exe
Additional command line options : -V -8 -T "Date=%year%" -T "Genre=%genre%" %source%


TOC of the extracted CD

Track | Start | Length | Start sector | End sector
––––––––––––––––––––––––––––-
1 | 0:00.37 | 5:02.20 | 37 | 22706
2 | 5:02.57 | 4:57.67 | 22707 | 45048
3 | 10:00.49 | 7:34.15 | 45049 | 79113
4 | 17:34.64 | 5:35.00 | 79114 | 104238
5 | 23:09.64 | 4:03.48 | 104239 | 122511


Range status and errors

Selected range

Filename D:\My Music\Bryan Adams - 1992 The Live Volume\Bryan Adams - The Live Volume.wav

Peak level 100.0 %
Extraction speed 2.4 X
Range quality 100.0 %
Test CRC 61CC75CA
Copy CRC 61CC75CA
Copy OK

No errors occurred


AccurateRip summary

Track 1 accurately ripped (confidence 1) [4969C650] (AR v2)
Track 2 accurately ripped (confidence 1) [281E04AA] (AR v2)
Track 3 accurately ripped (confidence 1) [612B794D] (AR v2)
Track 4 accurately ripped (confidence 1) [B288AA48] (AR v2)
Track 5 accurately ripped (confidence 1) [D50D0EC9] (AR v2)

All tracks accurately ripped

End of status report

==== Log checksum E326E778E4DEC1A66687A46494DDA448A4130AC800B1C8DF7182FD4EDB892990 ====


Many thanks to the original uploader: kolushew

–––––––––
Nitroflare