Subcategories

Bryan Ferry - Boys And Girls (1985) [Virgin VJCP-23191, Japan]

Posted By: v3122
Bryan Ferry - Boys And Girls (1985) [Virgin VJCP-23191, Japan]

Bryan Ferry - Boys And Girls (1985)
EAC | Flac(Image) + Cue + Log & MP3 CBR 320Kbps
Virgin, VJCP-23191 | ~ 231 or 91 Mb | Scans(jpg) -> 57 Mb
Rock, Pop Rock, Downtempo, Synth-pop

Having at last laid Roxy to bed with its final, intoxicatingly elegant albums, Ferry continued its end-days spirit with his own return to solo work. Dedicated to Ferry's father, Boys and Girls is deservedly most famous for its smash single "Slave to Love." With a gentle samba-derived rhythm leading into the steadier rock pace of the song, it's '80s Ferry at his finest, easy listening without being hopelessly soporific. As a whole, Boys and Girls fully established the clean, cool vision of Ferry on his own to the general public. Instead of ragged rock explosions, emotional extremes, and all that made his '70s work so compelling in and out of Roxy, Ferry here is the suave, debonair if secretly moody and melancholic lover, with music to match. Co-producer Rhett Davies, continuing his role from the latter Roxy albums, picks up where Avalon left off right from the slinky opening grooves of "Sensation." The range of people on the album is an intriguing mix, from latterday Roxy members like Andy Newmark and Alan Spenner to avid Roxy disciples like Chic's Nile Rodgers. Everyone is subordinated to Ferry's overall vision, and as a result there's not as much full variety on Boys and Girls as might be thought or hoped. The album's biggest flaw is indeed that it's almost too smooth, with not even the hint of threat or edge that Ferry once readily made his own. As something that's a high cut above the usual mid-'80s yuppie smarm music, though, Boys and Girls remains an enjoyable keeper that has aged well.

by Ned Raggett, allmusic
Bryan Ferry - Boys And Girls (1985) [Virgin VJCP-23191, Japan]


Bryan Ferry - Boys And Girls (1985):

Bryan Ferry - Boys And Girls (1985) [Virgin VJCP-23191, Japan]

Tracklist:

1. Sensation
2. Slave To Love
3. Don't Stop The Dance
4. A Waste Land
5. Windswept
6. The Chosen One
7. Valentine
8. Stone Woman
9. Boys And Girls

Exact Audio Copy V1.2 from 12. August 2016

EAC extraction logfile from 3. January 2017, 18:39

Bryan Ferry / Boys And Girls

Used drive : MATSHITADVD-RAM UJ8A0AS Adapter: 1 ID: 0

Read mode : Secure
Utilize accurate stream : Yes
Defeat audio cache : Yes
Make use of C2 pointers : No

Read offset correction : 102
Overread into Lead-In and Lead-Out : No
Fill up missing offset samples with silence : Yes
Delete leading and trailing silent blocks : No
Null samples used in CRC calculations : Yes
Used interface : Native Win32 interface for Win NT & 2000

Used output format : Internal WAV Routines
Sample format : 44.100 Hz; 16 Bit; Stereo


TOC of the extracted CD

Track | Start | Length | Start sector | End sector
––––––––––––––––––––––––––––-
1 | 0:00.00 | 5:05.15 | 0 | 22889
2 | 5:05.15 | 4:26.42 | 22890 | 42881
3 | 9:31.57 | 4:19.38 | 42882 | 62344
4 | 13:51.20 | 1:02.17 | 62345 | 67011
5 | 14:53.37 | 4:32.40 | 67012 | 87451
6 | 19:26.02 | 4:52.00 | 87452 | 109351
7 | 24:18.02 | 3:46.58 | 109352 | 126359
8 | 28:04.60 | 5:12.65 | 126360 | 149824
9 | 33:17.50 | 5:08.57 | 149825 | 172981


Range status and errors

Selected range

Filename F:\Alexharvey\Bryan Ferry - Boys And Girls.wav

Peak level 100.0 %
Extraction speed 2.2 X
Range quality 99.9 %
Test CRC 55760B6E
Copy CRC 55760B6E
Copy OK

No errors occurred


AccurateRip summary

Track 1 cannot be verified as accurate (confidence 3) [1FBFC5C7], AccurateRip returned [44858262] (AR v2)
Track 2 cannot be verified as accurate (confidence 3) [2094D7D1], AccurateRip returned [92952B6F] (AR v2)
Track 3 cannot be verified as accurate (confidence 3) [E68350EC], AccurateRip returned [3ECAF7CD] (AR v2)
Track 4 cannot be verified as accurate (confidence 3) [8B8FF0D5], AccurateRip returned [7898A986] (AR v2)
Track 5 cannot be verified as accurate (confidence 3) [B00548C0], AccurateRip returned [ACC1A2D0] (AR v2)
Track 6 cannot be verified as accurate (confidence 3) [C140D056], AccurateRip returned [F77E5EEC] (AR v2)
Track 7 cannot be verified as accurate (confidence 3) [1C96689B], AccurateRip returned [09075CBA] (AR v2)
Track 8 cannot be verified as accurate (confidence 3) [8F87DF54], AccurateRip returned [F2527E95] (AR v2)
Track 9 cannot be verified as accurate (confidence 3) [8613A2C7], AccurateRip returned [7C704A4F] (AR v2)

No tracks could be verified as accurate
You may have a different pressing from the one(s) in the database

End of status report

–– CUETools DB Plugin V2.1.6

[CTDB TOCID: 8UWpjk21MyfmQza0Infm0c1qWVY-] found
Submit result: 8UWpjk21MyfmQza0Infm0c1qWVY- has been confirmed
Track | CTDB Status
1 | (10/10) Accurately ripped
2 | (10/10) Accurately ripped
3 | (10/10) Accurately ripped
4 | (10/10) Accurately ripped
5 | (10/10) Accurately ripped
6 | (10/10) Accurately ripped
7 | (10/10) Accurately ripped
8 | (10/10) Accurately ripped
9 | (10/10) Accurately ripped


==== Log checksum 90173C630DEB45DA0821106D61AECABD8948D5C39A1ECCC8E697099CCD1C2E13 ====

foobar2000 1.2.9 / Dynamic Range Meter 1.1.1
log date: 2017-01-04 11:08:10

––––––––––––––––––––––––––––––––––––––––
Analyzed: Bryan Ferry / Boys And Girls
––––––––––––––––––––––––––––––––––––––––

DR Peak RMS Duration Track
––––––––––––––––––––––––––––––––––––––––
DR15 0.00 dB -18.67 dB 5:05 01-Sensation
DR15 -1.23 dB -18.23 dB 4:27 02-Slave To Love
DR15 -0.78 dB -17.31 dB 4:20 03-Don't Stop The Dance
DR11 -6.56 dB -23.36 dB 1:02 04-A Waste Land
DR14 -1.71 dB -18.29 dB 4:33 05-Windswept
DR15 -0.11 dB -16.88 dB 4:52 06-The Chosen One
DR14 -0.32 dB -16.48 dB 3:47 07-Valentine
DR14 -2.22 dB -17.74 dB 5:13 08-Stone Woman
DR14 -1.76 dB -19.09 dB 5:09 09-Boys And Girls
––––––––––––––––––––––––––––––––––––––––

Number of tracks: 9
Official DR value: DR14

Samplerate: 44100 Hz
Channels: 2
Bits per sample: 16
Bitrate: 817 kbps
Codec: FLAC

[CUETools log; Date: 03.01.2017 19:25:12; Version: 2.1.6]
[CTDB TOCID: 8UWpjk21MyfmQza0Infm0c1qWVY-] found.
Track | CTDB Status
1 | (11/11) Accurately ripped
2 | (11/11) Accurately ripped
3 | (11/11) Accurately ripped
4 | (11/11) Accurately ripped
5 | (11/11) Accurately ripped
6 | (11/11) Accurately ripped
7 | (11/11) Accurately ripped
8 | (11/11) Accurately ripped
9 | (11/11) Accurately ripped
[AccurateRip ID: 000cd58c-005da938-8b090209] found.
Track [ CRC | V2 ] Status
01 [3a1b3381|1fbfc5c7] (0+0/5) No match
02 [6b35ea22|2094d7d1] (0+0/5) No match
03 [bbf5a56d|e68350ec] (0+0/5) No match
04 [720965c2|8b8ff0d5] (0+0/5) No match
05 [ee7923bb|b00548c0] (0+0/5) No match
06 [8d7243ca|c140d056] (0+0/5) No match
07 [c72585c2|1c96689b] (0+0/5) No match
08 [7e388bde|8f87df54] (0+0/5) No match
09 [39c93ced|8613a2c7] (0+0/5) No match
Offsetted by 283:
01 [48679aea] (0/5) No match (V2 was not tested)
02 [bc469a8c] (0/5) No match (V2 was not tested)
03 [2e213c34] (0/5) No match (V2 was not tested)
04 [59395a16] (0/5) No match (V2 was not tested)
05 [db138b9d] (0/5) No match (V2 was not tested)
06 [b3ff8831] (0/5) No match (V2 was not tested)
07 [da1a2925] (0/5) No match (V2 was not tested)
08 [f0396369] (0/5) No match (V2 was not tested)
09 [e13fd6c5] (0/5) No match (V2 was not tested)
Offsetted by 323:
01 [23459df9] (0/5) No match (V2 was not tested)
02 [48e9a467] (0/5) No match (V2 was not tested)
03 [ec32ce92] (0/5) No match (V2 was not tested)
04 [5e2acd3b] (0/5) No match (V2 was not tested)
05 [c728e84e] (0/5) No match (V2 was not tested)
06 [91c19bc1] (0/5) No match (V2 was not tested)
07 [812fb330] (0/5) No match (V2 was not tested)
08 [ae4f9480] (0/5) No match (V2 was not tested)
09 [460964ea] (0/5) No match (V2 was not tested)

Track Peak [ CRC32 ] [W/O NULL] [ LOG ]
– 100,0 [55760B6E] [78FA5976] CRC32
01 100,0 [CF926D1A] [3B3BF00E]
02 86,8 [FE7DB8E2] [D27C1920]
03 91,3 [EFC45172] [15557B8E]
04 47,0 [84F8ABFE] [7B5782DB]
05 82,1 [00F87EEB] [9CF53F97]
06 98,7 [30A91057] [508A08FA]
07 96,3 [8F5B80ED] [C7AD3490]
08 77,4 [7D0E57B4] [62502685]
09 81,7 [CCB7FAB7] [AFED8303]

Bryan Ferry - Boys And Girls (1985) [Virgin VJCP-23191, Japan]

All thanks go to alexharvey

Bryan Ferry in my Blog

Download Bryan Ferry - Boys And Girls (1985):