Subcategories

Bryan Ferry - In Your Mind (1977) [2015, Universal Music Japan, UICY-40144]

Posted By: v3122
Bryan Ferry - In Your Mind (1977) [2015, Universal Music Japan, UICY-40144]

Bryan Ferry - In Your Mind (1977)
EAC | Flac(Image) + Cue + Log & MP3 CBR 320Kbps
Universal Music Japan, UICY-40144 | ~ 254 or 105 Mb | Scans(png) -> 207 Mb
Pop Rock / Glam

With Roxy Music set aside for the time being, Ferry took the solo plunge with an album of totally original material. As such, the underrated In Your Mind makes a logical follow-on from Roxy's Siren, especially since usual suspects – Thompson, Manzanera, Wetton, and many more – assist him in the brief eight-song effort. While lacking early Roxy's long-gone freakouts In Your Mind still burns more fiercely than both the later solo and group albums, at least on certain tracks - like Siren, it balances between rockier and smoother paths, most often favoring the former. Ferry's lyrics remain in his own realm of intelligent, romantic dissipation, and are some of his best efforts. The strong opener "This Is Tomorrow" starts with Ferry and keyboards before moving into a big, chugging full band arrangement and a wistful chorus: "This is tomorrow callin'/Wish you were here." When Ferry aims for a calmer mood, rather than stripped-down melancholia, he lets everyone play along. Sometimes the arrangements almost swamp the songs, but "One Kiss'" combination of female backing vocals, sax, and straight-up rock for instance, make it a great woozy, end-of-the-night singalong before the bars close. There are a few blatant misfires – "Tokyo Joe" has the chugging, dark funk/rock beat down cold, but the lyrics play around too much with Asian stereotypes (and let's not mention the opening gong and all too obvious attempts at "atmosphere" via the strings). On balance, though, In Your Mind remains the secret highlight of Ferry's musical career, an energetic album that would have received far more attention as a full Roxy release.

by Ned Raggett, AMG

Bryan Ferry - In Your Mind (1977):

Bryan Ferry - In Your Mind (1977) [2015, Universal Music Japan, UICY-40144]

Tracklist:

01. This Is Tomorrow 03:41
02. All Night Operator 03:08
03. One Kiss 03:35
04. Love Me Madly Again 07:26
05. Tokyo Joe 03:55
06. Party Doll 04:32
07. Rock Of Ages 04:30
08. In Your Mind 05:18

Exact Audio Copy V1.0 beta 6 from 9. April 2015

EAC extraction logfile from 16. May 2015, 18:25

Bryan Ferry / In Your Mind PT-SHM

Used drive : PLEXTOR BD-R PX-B950SA Adapter: 1 ID: 1

Read mode : Secure
Utilize accurate stream : Yes
Defeat audio cache : Yes
Make use of C2 pointers : No

Read offset correction : 6
Overread into Lead-In and Lead-Out : No
Fill up missing offset samples with silence : Yes
Delete leading and trailing silent blocks : No
Null samples used in CRC calculations : Yes
Used interface : Native Win32 interface for Win NT & 2000

Used output format : Internal WAV Routines
Sample format : 44.100 Hz; 16 Bit; Stereo


TOC of the extracted CD

Track | Start | Length | Start sector | End sector
––––––––––––––––––––––––––––-
1 | 0:00.00 | 3:41.00 | 0 | 16574
2 | 3:41.00 | 3:08.37 | 16575 | 30711
3 | 6:49.37 | 3:35.60 | 30712 | 46896
4 | 10:25.22 | 7:26.03 | 46897 | 80349
5 | 17:51.25 | 3:55.50 | 80350 | 98024
6 | 21:47.00 | 4:32.12 | 98025 | 118436
7 | 26:19.12 | 4:30.68 | 118437 | 138754
8 | 30:50.05 | 5:18.52 | 138755 | 162656


Range status and errors

Selected range

Filename C:\Users\Meijin\Desktop\ALLexxess\Bryan Ferry\1977 In Your Mind (Mini LP PT-SHM Universal Japan 2015)\Bryan Ferry - In Your Mind PT-SHM.wav

Peak level 98.6 %
Extraction speed 6.4 X
Range quality 100.0 %
Test CRC 25485AB8
Copy CRC 25485AB8
Copy OK

No errors occurred


AccurateRip summary

Track 1 not present in database
Track 2 not present in database
Track 3 not present in database
Track 4 not present in database
Track 5 not present in database
Track 6 not present in database
Track 7 not present in database
Track 8 not present in database

None of the tracks are present in the AccurateRip database

End of status report

–– CUETools DB Plugin V2.1.6

[CTDB TOCID: KISzmwUeYYPFIpLO7EkT34fMeCw-] disk not present in database
Submit result: KISzmwUeYYPFIpLO7EkT34fMeCw- has been uploaded


==== Log checksum 40983EA2465D5BF2CFBDE1489758CD7AE673B255C4D6B87374F3D99A00A855A8 ====

foobar2000 1.2.9 / Dynamic Range Meter 1.1.1
log date: 2015-05-25 15:49:46

––––––––––––––––––––––––––––––––––––––––
Analyzed: Bryan Ferry / In Your Mind PT-SHM
––––––––––––––––––––––––––––––––––––––––

DR Peak RMS Duration Track
––––––––––––––––––––––––––––––––––––––––
DR11 -0.91 dB -14.58 dB 3:41 01-This Is Tomorrow
DR12 -0.12 dB -14.44 dB 3:08 02-All Night Operator
DR11 -1.65 dB -15.22 dB 3:36 03-One Kiss
DR12 -0.77 dB -14.95 dB 7:26 04-Love Me Madly Again
DR12 -0.26 dB -14.29 dB 3:56 05-Tokyo Joe
DR11 -1.45 dB -13.89 dB 4:32 06-Party Doll
DR11 -1.22 dB -15.30 dB 4:31 07-Rock Of Ages
DR12 -0.19 dB -13.96 dB 5:19 08-In Your Mind
––––––––––––––––––––––––––––––––––––––––

Number of tracks: 8
Official DR value: DR11

Samplerate: 44100 Hz
Channels: 2
Bits per sample: 16
Bitrate: 840 kbps
Codec: FLAC

[CUETools log; Date: 25.05.2015 15:37:36; Version: 2.1.4]
[CTDB TOCID: KISzmwUeYYPFIpLO7EkT34fMeCw-] found.
Track | CTDB Status
1 | (1/1) Accurately ripped
2 | (1/1) Accurately ripped
3 | (1/1) Accurately ripped
4 | (1/1) Accurately ripped
5 | (1/1) Accurately ripped
6 | (1/1) Accurately ripped
7 | (1/1) Accurately ripped
8 | (1/1) Accurately ripped
[AccurateRip ID: 000a90b8-0047cdfb-55087808] disk not present in database.

Track Peak [ CRC32 ] [W/O NULL] [ LOG ]
– 98,6 [25485AB8] [39906597] CRC32
01 90,0 [33845DD6] [DA616141]
02 98,6 [27FD8515] [E1602679]
03 82,7 [9008C889] [9EB17FA3]
04 91,4 [E37FD966] [57CC2205]
05 97,0 [32072B3E] [9EDFF802]
06 84,6 [82421A16] [7564C14A]
07 86,8 [A03D6533] [21E8C5CF]
08 97,8 [9EA687D0] [A368947A]

Bryan Ferry - In Your Mind (1977) [2015, Universal Music Japan, UICY-40144]

All thanks go to ALLexxess

More Bryan Ferry in my Blog

Download Bryan Ferry - In Your Mind (1977):