Subcategories
Tags
Language
Tags

Bryan Ferry - Taxi (1993) {2007, Japanese HDCD, Remastered}

Posted By: popsakov
Bryan Ferry - Taxi (1993) {2007, Japanese HDCD, Remastered}

Bryan Ferry - Taxi (1993) {2007, Japanese HDCD, Remastered}
EAC Rip | FLAC (Img) + Cue + Log ~ 276 Mb | MP3 CBR320 ~ 106 Mb
Scans Included | 00:39:59 | RAR 5% Recovery
Art Rock, Pop Rock | Virgin / EMI Music Japan #VJCP-68819

Taxi shows a mature Bryan Ferry, suave and controlled, very much in line with his general career from 1979 on. The choice of songs to cover doesn't make for any surprises – the same selections of classic rock, pop, and soul numbers dominate, with an interesting ringer here and there like "Amazing Grace." As with his other recent solo records, a cast of thousands supports him, ranging from the Grid's Richard Norris on synth programming to Brit guitar legends Robin Trower and Michael Brook, plus vocalist Carleen Anderson. All four feature on the opening "I Put a Spell on You," which manages the neat trick of sounding almost exactly like a Ferry original – what Screamin' Jay Hawkins would have made of it is anyone's guess. The rest of the album takes a similar tone, either crackling with low-key energy or aiming for a more gentle approach. The former style turns up in some welcome guises – thus the take on Fontella Bass' "Rescue Me," here benefiting from a quick beat, mysterious samples and noises buried in the mix and near-subliminal guitar. An overall highlight is the take on the Velvet Underground's "All Tomorrow's Parties," which balances a certain winsomeness with a subtle air of threat, the music just beautiful enough on the one hand and just creepy enough on the other. Ferry's treated vocals, made to sound weirdly flat and compressed, heightens the curious mood.

~ Ned Raggett, All Music

***************

Bryan Ferry - Taxi (1993) {2007, Japanese HDCD, Remastered}

Track List:

01. I Put A Spell On You [05:27]
02. Will You Love Me Tomorrow [04:18]
03. Answer Me [02:46]
04. Just One Look [03:33]
05. Rescue Me [03:41]
06. All Tomorrow's Parties [05:31]
07. Girl of My Best Friend [03:26]
08. Amazing Grace [04:01]
09. Taxi [05:31]
10. Because You're Mine [01:44]

Exact Audio Copy V0.99 prebeta 4 from 23. January 2008

Отчёт EAC об извлечении, выполненном 11. октября 2008, 22:34

Bryan Ferry / Taxi

Дисковод: PLEXTOR DVDR PX-716A Adapter: 0 ID: 0

Режим чтения : Достоверность
Использование точного потока : Да
Отключение кэша аудио : Да
Использование указателей C2 : Нет

Коррекция смещения при чтении : 30
Способность читать области Lead-in и Lead-out : Нет
Заполнение пропущенных сэмплов тишиной : Да
Удаление блоков с тишиной в начале и конце : Нет
При вычислениях CRC использовались нулевые сэмплы : Да
Интерфейс : Встроенный Win32-интерфейс для Win NT/2000

Выходной формат : Пользовательский кодировщик
Выбранный битрейт : 128 kBit/s
Качество : Высокий
Добавление ID3-тэга : Нет
Утилита сжатия : C:\Program Files\FLAC\flac.exe
Дополнительные параметры : -8 -V -T "ARTIST=%a" -T "TITLE=%t" -T "ALBUM=%g" -T "DATE=%y" -T "TRACKNUMBER=%n" -T "GENRE=%m" -T "COMMENT=EAC FLAC -8" %s


TOC извлечённого CD

Трек | Старт | Длительность | Начальный сектор | Конечный сектор
––––––––––––––––––––––––––––––––––-
1 | 0:00.00 | 5:27.25 | 0 | 24549
2 | 5:27.25 | 4:17.55 | 24550 | 43879
3 | 9:45.05 | 2:46.53 | 43880 | 56382
4 | 12:31.58 | 3:33.05 | 56383 | 72362
5 | 16:04.63 | 3:40.22 | 72363 | 88884
6 | 19:45.10 | 5:31.18 | 88885 | 113727
7 | 25:16.28 | 3:26.20 | 113728 | 129197
8 | 28:42.48 | 4:01.00 | 129198 | 147272
9 | 32:43.48 | 5:30.55 | 147273 | 172077
10 | 38:14.28 | 1:44.32 | 172078 | 179909


Характеристики диапазона извлечения и сообщения об ошибках

Выбранный диапазон

Имя файла E:\EAC rip\Bryan Ferry - Taxi.wav

Пиковый уровень 99.9 %
Качество диапазона 100.0 %
CRC теста C97EF918
CRC копии C97EF918
Копирование… OK

Ошибок не произошло


AccurateRip: сводка

Трек 1 нет в базе данных
Трек 2 нет в базе данных
Трек 3 нет в базе данных
Трек 4 нет в базе данных
Трек 5 нет в базе данных
Трек 6 нет в базе данных
Трек 7 нет в базе данных
Трек 8 нет в базе данных
Трек 9 нет в базе данных
Трек 10 нет в базе данных

Ни одного трека нет в базе AccurateRip

Конец отчёта

[CUETools log; Date: 03.03.2019 1:43:07; Version: 2.1.6]
HDCD: peak extend: none, transient filter: none, gain: none
[CTDB TOCID: Lq4LOXp20pZxHXSJNHwNErIKUrQ-] found.
Track | CTDB Status
1 | (4/4) Accurately ripped
2 | (4/4) Accurately ripped
3 | (4/4) Accurately ripped
4 | (4/4) Accurately ripped
5 | (4/4) Accurately ripped
6 | (4/4) Accurately ripped
7 | (4/4) Accurately ripped
8 | (4/4) Accurately ripped
9 | (4/4) Accurately ripped
10 | (3/4) Accurately ripped
[AccurateRip ID: 000fb098-007c74a5-9e095e0a] found.
Track [ CRC | V2 ] Status
01 [46cea8d7|3dfb2e80] (3+5/8) Accurately ripped
02 [76d91e74|e40bfcc8] (3+5/8) Accurately ripped
03 [b5ce259e|7b5db334] (3+5/8) Accurately ripped
04 [aae03641|278ec7db] (3+4/7) Accurately ripped
05 [4ac639b5|ac579f06] (3+4/7) Accurately ripped
06 [2e851716|86f2f58f] (3+5/8) Accurately ripped
07 [f7943463|1a186b86] (3+5/8) Accurately ripped
08 [5f57bdf1|83d56f94] (3+4/7) Accurately ripped
09 [dd83d807|69b1095c] (3+4/7) Accurately ripped
10 [518d458c|947b9cf2] (3+4/7) Accurately ripped

Track Peak [ CRC32 ] [W/O NULL] [ LOG ]
– 99,9 [C97EF918] [ED0F2020] CRC32
01 99,9 [2EB3DB5A] [DCA6F0C5]
02 99,8 [0AAA3D66] [B914B974]
03 99,1 [A82C217E] [FEE86C86]
04 99,7 [548609D2] [B1AA61C2]
05 97,1 [7911E957] [8A75AE01]
06 97,1 [C8E12B5F] [48CB414C]
07 99,2 [DC6E1822] [5BA0E5BD]
08 99,8 [989E5F07] [59DC3F01]
09 97,1 [C9929F6B] [BC1EDD7E]
10 94,2 [E4CAFED7] [FC5BA84A]

Bryan Ferry - Taxi (1993) {2007, Japanese HDCD, Remastered}


All thanks go to the original ripper(s) …

>>> Bryan Ferry in my Blog <<<

DOWNLOAD: