Subcategories

Bryan Ferry + Roxy Music - More Than This: The Best Of (1995/1999)

Posted By: popsakov
Bryan Ferry + Roxy Music - More Than This: The Best Of (1995/1999)

Bryan Ferry + Roxy Music - More Than This: The Best Of (1995/1999)
EAC Rip | FLAC (Img) + Cue + Log ~ 507 Mb | MP3 CBR320 ~ 180 Mb
Scans (JPG, 400 dpi) ~ 68 Mb | RAR 5% Recovery
Art Rock, Pop Rock | Virgin Records #7243 8 48173 2 9

1995 anthology, originally released to coincide with the release of the four disc box set Thrill Of It All. Roxy Music began life as a British Art Rock band in the early '70s but by the time they split a decade later, they had matured into a smooth Rock outfit capable of creating some of the most lush, romantic and beautiful music on the Pop charts. Lead vocalist Bryan Ferry carried on the Roxy tradition on his solo albums recorded during and after the band's original 10 year career.

***************

Bryan Ferry + Roxy Music - More Than This: The Best Of (1995/1999)

Track List:

01. Virginia Plain [02:58]
02. A Hard Rain's A-Gonna Fall [04:14]
03. Street Life [03:27]
04. These Foolish Things [04:47]
05. Love Is The Drug [03:59]
06. Smoke Gets In Your Eyes [02:58]
07. Dance Away [03:47]
08. Let's Stick Together [02:59]
09. Angel Eyes [02:52]
10. Slave To Love [04:20]
11. Oh Yeah [04:51]
12. Don't Stop The Dance [04:20]
13. Same Old Scene [03:58]
14. Jealous Guy [04:54]
15. Kiss And Tell [03:59]
16. More Than This [04:10]
17. I Put A Spell On You [03:57]
18. Avalon [04:14]
19. I'm In The Mood For Love [04:16]

Exact Audio Copy V1.0 beta 3 from 29. August 2011

EAC extraction logfile from 9. October 2015, 0:18

Bryan Ferry + Roxy Music / More Than This - The Best Of

Used drive : PIONEER BD-RW BDR-TD03 Adapter: 0 ID: 1

Read mode : Secure
Utilize accurate stream : Yes
Defeat audio cache : Yes
Make use of C2 pointers : No

Read offset correction : 667
Overread into Lead-In and Lead-Out : No
Fill up missing offset samples with silence : Yes
Delete leading and trailing silent blocks : No
Null samples used in CRC calculations : Yes
Used interface : Native Win32 interface for Win NT & 2000

Used output format : User Defined Encoder
Selected bitrate : 768 kBit/s
Quality : High
Add ID3 tag : No
Command line compressor : C:\Program Files (x86)\Exact Audio Copy\FLAC\FLAC.EXE
Additional command line options : -6 -V -T "ARTIST=%artist%" -T "TITLE=%title%" -T "ALBUM=%albumtitle%" -T "DATE=%year%" -T "TRACKNUMBER=%tracknr%" -T "GENRE=%genre%" -T "COMMENT=%comment%" -T "BAND=%albuminterpret%" -T "ALBUMARTIST=%albuminterpret%" -T "COMPOSER=%composer%" %haslyrics%–tag-from-file=LYRICS="%lyricsfile%"%haslyrics% -T "DISCNUMBER=%cdnumber%" -T "TOTALDISCS=%totalcds%" -T "TOTALTRACKS=%numtracks%" %hascover%–picture="%coverfile%"%hascover% %source% -o %dest%


TOC of the extracted CD

Track | Start | Length | Start sector | End sector
––––––––––––––––––––––––––––-
1 | 0:00.00 | 2:57.25 | 0 | 13299
2 | 2:57.25 | 4:13.52 | 13300 | 32326
3 | 7:11.02 | 3:26.13 | 32327 | 47789
4 | 10:37.15 | 4:46.62 | 47790 | 69301
5 | 15:24.02 | 3:58.70 | 69302 | 87221
6 | 19:22.72 | 2:57.10 | 87222 | 100506
7 | 22:20.07 | 3:46.40 | 100507 | 117496
8 | 26:06.47 | 2:59.00 | 117497 | 130921
9 | 29:05.47 | 2:51.10 | 130922 | 143756
10 | 31:56.57 | 4:19.13 | 143757 | 163194
11 | 36:15.70 | 4:50.70 | 163195 | 185014
12 | 41:06.65 | 4:19.70 | 185015 | 204509
13 | 45:26.60 | 3:57.50 | 204510 | 222334
14 | 49:24.35 | 4:53.50 | 222335 | 244359
15 | 54:18.10 | 3:58.62 | 244360 | 262271
16 | 58:16.72 | 4:09.13 | 262272 | 280959
17 | 62:26.10 | 3:56.35 | 280960 | 298694
18 | 66:22.45 | 4:13.65 | 298695 | 317734
19 | 70:36.35 | 4:15.07 | 317735 | 336866


Range status and errors

Selected range

Filename C:\Users\Deris\Desktop\…\FerRoxBes\Bryan Ferry + Roxy Music - More Than This - The Best Of.wav

Peak level 100.0 %
Extraction speed 5.1 X
Range quality 100.0 %
Test CRC 087070ED
Copy CRC 087070ED
Copy OK

No errors occurred


AccurateRip summary

Track 1 accurately ripped (confidence 9) [A70F7DBD] (AR v2)
Track 2 accurately ripped (confidence 9) [51C5C881] (AR v2)
Track 3 accurately ripped (confidence 9) [E466E3DC] (AR v2)
Track 4 accurately ripped (confidence 9) [BFCDE8CA] (AR v2)
Track 5 accurately ripped (confidence 9) [0334F784] (AR v2)
Track 6 accurately ripped (confidence 9) [4CCB6B81] (AR v2)
Track 7 accurately ripped (confidence 9) [E0D11898] (AR v2)
Track 8 accurately ripped (confidence 9) [9EBB66B8] (AR v2)
Track 9 accurately ripped (confidence 9) [827E0A27] (AR v2)
Track 10 accurately ripped (confidence 9) [A9822632] (AR v2)
Track 11 accurately ripped (confidence 9) [7A4C0851] (AR v2)
Track 12 accurately ripped (confidence 9) [65ED2BC5] (AR v2)
Track 13 accurately ripped (confidence 9) [8D564882] (AR v2)
Track 14 accurately ripped (confidence 9) [7D184703] (AR v2)
Track 15 accurately ripped (confidence 9) [BA9C9CAA] (AR v2)
Track 16 accurately ripped (confidence 9) [FCF77787] (AR v2)
Track 17 accurately ripped (confidence 9) [1E00DB4A] (AR v2)
Track 18 accurately ripped (confidence 9) [CD78E489] (AR v2)
Track 19 accurately ripped (confidence 8) [28773AA0] (AR v2)

All tracks accurately ripped

End of status report

–– CUETools DB Plugin V2.1.3

[CTDB TOCID: Ks6mpVODcfCo0i4BeR5LhhoyRQk-] found, Submit result: Ks6mpVODcfCo0i4BeR5LhhoyRQk- has been confirmed
[c9fe607f] (11/14) Accurately ripped
[27979153] (01/14) No match
[c111fb0b] (01/14) No match
[00722d1d] (01/14) No match


==== Log checksum 2ADB6A8315B55BCD535FDDD09E18BD53B694B0EAFE69A806DA23B67F68BDE936 ====

foobar2000 1.2.6 / Dynamic Range Meter 1.1.1
log date: 2015-10-11 06:26:05

––––––––––––––––––––––––––––––––––––––––
Analyzed: Bryan Ferry + Roxy Music / More Than This - The Best Of
––––––––––––––––––––––––––––––––––––––––

DR Peak RMS Duration Track
––––––––––––––––––––––––––––––––––––––––
DR9 0.00 dB -11.57 dB 2:57 01-Virginia Plain
DR10 -0.20 dB -11.94 dB 4:14 02-A Hard Rain's A-Gonna Fall
DR9 -0.11 dB -10.80 dB 3:26 03-Street Life
DR12 -0.20 dB -14.08 dB 4:47 04-These Foolish Things
DR10 -0.11 dB -11.80 dB 3:59 05-Love Is The Drug
DR10 -0.16 dB -12.56 dB 2:57 06-Smoke Gets In Your Eyes
DR10 -0.05 dB -12.13 dB 3:47 07-Dance Away
DR10 0.00 dB -10.80 dB 2:59 08-Let's Stick Together
DR10 -0.25 dB -12.04 dB 2:51 09-Angel Eyes
DR12 -0.14 dB -13.54 dB 4:19 10-Slave To Love
DR10 -0.20 dB -13.51 dB 4:51 11-Oh Yeah
DR11 -0.20 dB -11.57 dB 4:20 12-Don't Stop The Dance
DR9 -0.20 dB -10.87 dB 3:58 13-Same Old Scene
DR11 -0.20 dB -12.87 dB 4:54 14-Jealous Guy
DR13 -0.16 dB -14.57 dB 3:59 15-Kiss And Tell
DR9 -0.20 dB -11.38 dB 4:09 16-More Than This
DR10 0.00 dB -11.57 dB 3:56 17-I Put A Spell On You
DR11 -0.20 dB -12.43 dB 4:14 18-Avalon
DR10 -0.42 dB -12.86 dB 4:15 19-I'm In The Mood For Love
––––––––––––––––––––––––––––––––––––––––

Number of tracks: 19
Official DR value: DR10

Samplerate: 44100 Hz
Channels: 2
Bits per sample: 16
Bitrate: 902 kbps
Codec: FLAC
================================================================================

[CUETools log; Date: 11.10.2015 6:26:00; Version: 2.1.5]
[CTDB TOCID: Ks6mpVODcfCo0i4BeR5LhhoyRQk-] found.
Track | CTDB Status
1 | (15/15) Accurately ripped
2 | (15/15) Accurately ripped
3 | (15/15) Accurately ripped
4 | (15/15) Accurately ripped
5 | (15/15) Accurately ripped
6 | (15/15) Accurately ripped
7 | (15/15) Accurately ripped
8 | (15/15) Accurately ripped
9 | (15/15) Accurately ripped
10 | (15/15) Accurately ripped
11 | (15/15) Accurately ripped
12 | (15/15) Accurately ripped
13 | (14/15) Accurately ripped
14 | (15/15) Accurately ripped
15 | (15/15) Accurately ripped
16 | (15/15) Accurately ripped
17 | (15/15) Accurately ripped
18 | (13/15) Accurately ripped
19 | (15/15) Accurately ripped
[AccurateRip ID: 0031b8c8-02be33b5-42118b13] found.
Track [ CRC | V2 ] Status
01 [4e10e34a|a70f7dbd] (19+09/44) Accurately ripped
02 [97397a80|51c5c881] (19+09/45) Accurately ripped
03 [65d215fc|e466e3dc] (19+09/44) Accurately ripped
04 [531690ec|bfcde8ca] (19+09/44) Accurately ripped
05 [20e9a10a|0334f784] (20+09/45) Accurately ripped
06 [fbd79143|4ccb6b81] (19+09/44) Accurately ripped
07 [0dff6680|e0d11898] (20+09/45) Accurately ripped
08 [443e2cac|9ebb66b8] (19+09/44) Accurately ripped
09 [8df46d24|827e0a27] (19+09/44) Accurately ripped
10 [e11348be|a9822632] (19+09/44) Accurately ripped
11 [c9a2c442|7a4c0851] (19+09/44) Accurately ripped
12 [ccf35631|65ed2bc5] (19+09/44) Accurately ripped
13 [889c7852|8d564882] (19+09/44) Accurately ripped
14 [9906ed9d|7d184703] (19+09/44) Accurately ripped
15 [b85662be|ba9c9caa] (19+09/45) Accurately ripped
16 [efcab287|fcf77787] (19+09/45) Accurately ripped
17 [94bad27c|1e00db4a] (19+09/43) Accurately ripped
18 [aa4b56ab|cd78e489] (18+09/42) Accurately ripped
19 [bf21dde5|28773aa0] (19+08/42) Accurately ripped
Offsetted by -930:
01 [989c56e4] (08/44) Accurately ripped
02 [2bf902f9] (08/45) Accurately ripped
03 [521d5004] (08/44) Accurately ripped
04 [a6a26975] (08/44) Accurately ripped
05 [52ffe072] (08/45) Accurately ripped
06 [f5075175] (08/44) Accurately ripped
07 [1eeb1768] (08/45) Accurately ripped
08 [7f083b89] (08/44) Accurately ripped
09 [ac4daec5] (08/44) Accurately ripped
10 [34ff8628] (08/44) Accurately ripped
11 [691f431b] (08/44) Accurately ripped
12 [b6f8b20e] (08/44) Accurately ripped
13 [69ab1972] (08/44) Accurately ripped
14 [fca5490f] (08/44) Accurately ripped
15 [caaa2dd8] (08/45) Accurately ripped
16 [e5c96ca3] (08/45) Accurately ripped
17 [8d1c2d5c] (08/43) Accurately ripped
18 [cc512bf7] (08/42) Accurately ripped
19 [f55e22c4] (08/42) Accurately ripped
Offsetted by -1594:
01 [6888fd1c] (00/44) No match (V2 was not tested)
02 [86aa3fee] (00/45) No match (V2 was not tested)
03 [2a8077b8] (00/44) No match (V2 was not tested)
04 [19e4444c] (00/44) No match (V2 was not tested)
05 [d0095c4c] (00/45) No match (V2 was not tested)
06 [10f517d2] (00/44) No match (V2 was not tested)
07 [333b9009] (00/45) No match (V2 was not tested)
08 [ce58a87b] (00/44) No match (V2 was not tested)
09 [27bf4c65] (00/44) No match (V2 was not tested)
10 [8f123de6] (00/44) No match (V2 was not tested)
11 [781f3e8a] (00/44) No match (V2 was not tested)
12 [ff010f92] (00/44) No match (V2 was not tested)
13 [3605e1f7] (00/44) No match (V2 was not tested)
14 [d5b87c78] (00/44) No match (V2 was not tested)
15 [2190da17] (00/45) No match (V2 was not tested)
16 [d0919753] (00/45) No match (V2 was not tested)
17 [3fd9e47c] (00/43) No match (V2 was not tested)
18 [5a6c7587] (00/42) No match (V2 was not tested)
19 [e260d49e] (00/42) No match (V2 was not tested)

Track Peak [ CRC32 ] [W/O NULL] [ LOG ]
– 100,0 [087070ED] [89E8EB68] CRC32
01 99,9 [18DFEBDF] [1F639A9D]
02 97,7 [FE9EADFC] [58F3F45B]
03 98,7 [E2ED6549] [A76974F9]
04 97,7 [EB3C6F23] [9817624C]
05 98,7 [9096AA0E] [F1676A03]
06 98,1 [4050443D] [77B0A2CA]
07 99,4 [3688CA21] [B6F423C0]
08 100,0 [882BB1BD] [3393690F]
09 97,2 [ECAB7BBA] [216FCF6E]
10 98,4 [6081D796] [B9B96882]
11 97,7 [C2D27BE8] [BF10B553]
12 97,7 [119908FE] [0D7B9187]
13 97,7 [BAA011AF] [B8D35C43]
14 97,7 [7EC045EA] [9FC3C9F8]
15 98,2 [6D0E9EB1] [360C7D2A]
16 97,7 [84CE46C2] [F22BABAE]
17 100,0 [6530CFAD] [2D0E9237]
18 97,7 [9A4B2C69] [6DE4DD3C]
19 95,2 [BAD9408B] [6E44E22F]

Bryan Ferry + Roxy Music - More Than This: The Best Of (1995/1999)

Bryan Ferry + Roxy Music - More Than This: The Best Of (1995/1999)

All thanks go to Boris1

Bryan Ferry in my blog!

Download:
Nitroflare: FLAC-part 1 | FLAC-part 2 | Scans | mp3
Uploadable: FLAC-part 1 | FLAC-part 2 | Scans | mp3

Turbobit: FLAC-part 1 | FLAC-part 2 | Scans | mp3