Subcategories

VA - Buddha-Bar: A Night @ Buddha Bar Hotel (2011) [Re-Up]

Posted By: uff
VA - Buddha-Bar: A Night @ Buddha Bar Hotel (2011) [Re-Up]

VA - Buddha-Bar: A Night @ Buddha Bar Hotel (2011)
Chillout | 12cd | Eac Rip | Flac + Cue + Log | covers
George V/Wagram, 3250752/Wag 944 | Limited edition | 5550mb

After several successful Buddha-Bar compilations, the world-famous fusion brand returns with a special release, A Night @ Buddha-Bar Hotel, that will make you travel throughout the fancy world of Buddha-Bar.
This first Buddha-Bar CD Box set is a blend of pure Chill Out & World music, including 90% of unreleased tracks. Discover a special gift inside this unique CD box set, a USB key (including goodies & 12 "best of "Ravin tracks), that will open the door to the dreamy and lush atmosphere of Buddha-Bar, 12 cds for 12 hours of magic and escape especially designed for the Buddha-Bar lovers worldwide + a 20 pages booklet presenting the legendary Buddha Bar universe.
More than another compilation, this is an exclusive musical invitation to experience the Buddha-Bar lifestyle, with a unique concept for Buddha Bar lovers. This CD Box Set is a numbered edition limited to 15 000 copies worldwide.

Track listing
CD1
01. Eli Kazah - Return Home (4:47)
02. Ambray - Runway Girls (3:14)
03. Buddhattitude - Sundown Caravan (4:15)
04. Mademoiselle Caro and Frank Garcia - Pale Christmas (3:59)
05. Buddhattitude - Liberdade (4:24)
06. Emar - Smile At Your Heart (3:50)
07. Inbar Bakal - Song of Songs (5:22)
08. Buddhattitude - Hablare De Ti (3:33)
09. Buddhattitude - Another Sprint (4:01)
10. Buddhattitude - Amon Ra (3:56)
11. Buddhattitude - Grevillea (3:36)
12. Buddhattitude - Black Orchid (4:05)

CD2
01. Buddhattitude - Siberian Shuffle (4:04)
02. Jaime Torres Y Alejandro Seoane - Palomitay (4:03)
03. Lonely Drifter Karen - Railroad (3:30)
04. Urban Myth Club - Coming Home (Daylight Mix) (3:28)
05. Caravane - Hobina Ghiretna (4:36)
06. Natacha Atlas - River Man (Makyo's Summer Rain Remix) (5:23)
07. Papercut - A Dream (4:45)
08. Buddhattitude - Freedom (3:31)
09. Florzinho - Ohm-Chi (4:07)
10. Nada - Earth Garden (6:07)
11. James Bright Feat- Mathew Evans - Set Me Free (6:12)
12. Ayoe Angelica - Quiet Cafe's (4:49)

CD3
01. Nada - Rajamati (6:54)
02. Buddhatittude - Cetacea (4:06)
03. Velvet Lounge Project - Make Me Yours (Hazme Tuya) (Pete Dingon Remix) (6:00)
04. Sookey Bandits - A Son's Lament (5:38)
05. Mashti - The Damn Thing (5:20)
06. Cantoma - Rain (6:41)
07. Buddhatittude - Fracture (6:23)
08. Buddhatittude - Wonder of The Sorm (5:44)
09. Buddhatittude - Copacabana Cafe (4:01)
10. Midival Punditz - Naina Laagey (6:16)
11. Chris Nemmo - Wastin Time (Feat Aris Duke & Helena K) (5:30)
12. Travel Impressions - Agabat (4:27)

CD4
01. Serafim Tsotsonis - Poles (2:24)
02. Goya Project - Megsiratlak, megsiratlak… (5:38)
03. Adani & Wolf - Alhaurun (4:51)
04. Buddhattitude - Dreaming About Anoushka (3:40)
05. Lemongrass - Habla Mi Coraz (Kevin Yost's Otherside Of The World Remix) (6:47)
06. Carmen Rizzo - Bring Down The Mountain (Feat. Grant Lee Phillips) (4:48)
07. Triangle Sun - Secret Desire (5:02)
08. Bahramji & Mashti - All About You (4:55)
09. Nemas Project - Snow In Istanbul (4:24)
10. Sussan Deyhim and Bill Laswell - The Candle & The Moth (5:07)
11. Travel Impressions - Topkapi (5:17)
12. Chandrika Krishnamurthy Tandon - Malkoshm (Carmen Rizzo Remix) (5:10)

CD5
01. Swing Republic Feat.Tommy Dorsey - Any Old Thing (4:25)
02. Mathieu & Florzinho - Closer To The Light (The Mumbai Odyssey Mix) (5:16)
03. Ku-Rush Feat.Starostin & Larina - Rechka (Iskra Flowers Mix) (5:42)
04. Triangle Sun - Diamond (4:10)
05. Loga Ramin Torkian - Golzare Ashegh - Garden Of The Beloved (4:29)
06. Czech Philharmonic Chamber Orchestra - Fellini's Roma (Bent Remix) (4:17)
07. Emar - As I Am (4:28)
08. Roberto Sol & Chris Le Blanc - Oceanic (5:23)
09. Travel Impressions - Funky Cham (4:35)
10. Chris Nemmo feat.Etten - Half Human (4:16)
11. Kaya Project - Saranghi Breaks (4:26)
12. Ion - Electric Poem (Serafim Tsotsonis Remix) (4:50)

CD6
01. Buddha Sounds - Vinoba Road (Mantrams Beats) (5:58)
02. Balkan Fanatik - Elment Az En Rozsam (Easy Drive Folktronic Mix By Zoohacker) (3:15)
03. Razoof Feat. Don Abi - High Tide, Low Tide (Ganga Remix) (5:11)
04. Mathieu & Florzinho - Miracle Of Love (Feat. Ma'dEEvah) (5:01)
05. Bahramji & Mashti - Midnight (4:20)
06. Banzai Republic - When She's Gone (6:19)
07. Kenneth Bager - Go Underground (8:41)
08. Mikael Delta - Disco Over Me (6:10)
09. Freedom Satellite - Astro Black (The Big Wow Mix) (3:41)
10. SoulAvenue - Bombay Blues (5:25)
11. BarBQ - Barbi In Love (6:41)
12. Bird - Some Boys (Valentin Huedo Remix) (7:35)

CD7
01. Waldeck - Midsummernight Blues (4:27)
02. Sunyata Project - Journey to Mandurai (4:46)
03. Czech Philarmonic Chamber Orchestra - Paris Blues (The Real Tuesday Weld Remix) (3:55)
04. Woolfy Vs Projections - Carry On (4:02)
05. Eso Es - Melodia Del Mar (5:13)
06. Drumspyder - Kalypso (4:14)
07. David Sabiu - Badw (4:34)
08. Benny Berigan - Snake Charmer (5:03)
09. Drumspyder - Saudade Do Sahara (4:35)
10. Lovechild - Into The Right Direction (4:32)
11. Marsmobil - Gonna Be My Day (7:33)
12. Thompascal & HP Hoeger - People Mambo (3:20)

CD8
01. Sensibility - Zeebee (3:43)
02. Yupla Toa - Travel Impressions (4:46)
03. Savage - Afterlife feat Briana Corrigan (4:53)
04. In Your Arms - Lukas Greenberg feat Nica Brokke (6:48)
05. ungle Flower (Club Des Belugas Remix) - Les Baxter (3:44)
06. Come Back - James Bright feat Neve (7:06)
07. Booty Swing - Parov Stelar (3:10)
08. Sunrise In Gambia - Roberto Sol & Yann Kuhlmann (5:09)
09. Cry Me A River (Remixed By Black Coffee) - Richar Earnshaw feat Imogen Ryall (6:40)
10. I've Got This Feeling - Mikael Delta (4:10)
11. Two Dots (Nic Fanciulli Remix) - Lusine (8:12)
12. Nightmoves (George Vala & Audioprophecy Remix) - Space Ranger (7:50)

CD9
01. Nitin Sawhney Feat. Reena Bhardwaj - Ek Jaan (2:12)
02. Karsh Kale - Ma (3:41)
03. NUfrequency Feat Ben Onono - Fallen Hero (Motor City Drum Ensemble Remix) (7:34)
04. Chaim Feat Meital De Razon - U & Eye (3:40)
05. Christos Fourkis - Everything You Feel (7:57)
06. Belladonna - Harmony (4:43)
07. Pr0mid - Abandon (5:28)
08. Christos Fourkis - Free Love (8:35)
09. Sabb Feat. Dark Beat - Balkanika (5:45)
10. Phonique Feat. Ian Whitelaw - Our Time Our Chance (3:40)
11. Robert Owens - Happy (James Priestley & Dan Berkson's Remix) (8:09)
12. Smokey Bandits - Angelitos Negros (7:13)
13. Volkan Uсa Feat Resat Tokatli - The Crying Violin (4:43)
14. Buddha Sounds Feat Ahy'o - Time (Sunrise Mix) (3:37)

CD10
01. Azam Ali - Noor (The Light In My Eyes) (2:31)
02. Alfida - Ne Muchay (3:29)
03. Bluetech - Green Sophia (Gnosis Mix) (6:27)
04. Triangle Sun - Beautiful (4:32)
05. Laya Project Remix - Farihi (Fabian Alsultany Remix) (5:09)
06. Stimming, Ben Watt & Julia Biel - Bright Star (Sunset Mix) (7:16)
07. Sister Pearl - Bang The Drum (Manoo Remix) (8:27)
08. Doruk Ozlen - Kaya (Main Mix) (6:22)
09. Sean Bay Feat. Stephanie Farhat - The New Freedom (Original Mix) (8:54)
10. Pat Farrell - Sister Walk Away (Kent & Parker Remix) (6:23)
11. Felix Da Housecat Presents… Thee Nese Djouma Projesi - Zaman (Moguai Remix) (7:12)
12. Glender - Voices From The Desert (7:44)

CD11
01. Buddhattitude - Nomads (4:23)
02. Valravn - Kraka (The Kenneth Bager Experience Remix) (5:52)
03. Mashti - Beautifull (4:53)
04. Laya Project Remix - Hai La Sa (Nickodemus Remix) (7:07)
05. Kaya Project - 23 Towers (Biotone Remix) (5:02)
06. Laya Project Remix - Going To Seville (Kaya Project Remix) (5:43)
07. Drumspyder - Pure Catnip (5:17)
08. Thompascal & HP.Hoeger - Indian Waves (7:18)
09. George Vala & Aurioprophecy - City In Arms (7:07)
10. V-Sag Feat.Alexandra McKay - Feather (Chris Domingo Remix) (6:18)
11. Thompascal & HP.Hoeger - Do Me So Bad (7:07)
12. Zagar Feat.Underground Divas - Wings Of Love (7:45)

CD12
01. Laya Project Remix - Laya Mantra (Kartick & Gotam Yalla) (6:11)
02. Oslo Swan - Dreamin (3:12)
03. Valravn - Farin Uttan At Verda Vekk ( Carmen Rizzo Remix) (4:20)
04. Czech Philarmonic Chamber Orchestra - The Tango I Saved for You (From The Film Gaily, Gaily) ( Zeb's The Tango I Stole From You (5:02)
05. A. M. (Ewan Pearson Re-Edit) - Flowers and Sea Creatures (6:21)
06. Serafim Tsotsonis - My Own Sea (4:32)
07. Betina Bager - Singing In The Rain (Love Baby) (Duet Mix) (5:58)
08. Parov Stelar - Silent Snow (Feat. Max The Sax) (5:08)
09. George Vala & Audioprophecy - Provokateur (7:12)
10. Rodrigo Laffertt - Agua De Rio (7:29)
11. Monsieur Minimal Feat. Dimitra Galani - Mia Zoi (4:57)
12. Tomy Montana - Dadan (6:20)

Exact Audio Copy V1.0 beta 1 from 15. November 2010

EAC extraction logfile from 4. October 2012, 10:51

Various / A Night @ Buddha Bar Hotel - CD 01

Used drive : ASUS DRW-24B3ST Adapter: 3 ID: 0

Read mode : Secure
Utilize accurate stream : Yes
Defeat audio cache : Yes
Make use of C2 pointers : No

Read offset correction : 6
Overread into Lead-In and Lead-Out : No
Fill up missing offset samples with silence : Yes
Delete leading and trailing silent blocks : No
Null samples used in CRC calculations : Yes
Used interface : Native Win32 interface for Win NT & 2000
Gap handling : Appended to previous track

Used output format : User Defined Encoder
Selected bitrate : 1024 kBit/s
Quality : High
Add ID3 tag : No
Command line compressor : C:\Program Files\Exact Audio Copy\Flac\flac.exe
Additional command line options : -8 -V -T "ARTIST=%a" -T "TITLE=%t" -T "ALBUM=%g" -T "DATE=%y" -T "TRACKNUMBER=%n" -T "GENRE=%m" -T "COMMENT=ripped by Oleandris" %s


TOC of the extracted CD

Track | Start | Length | Start sector | End sector
––––––––––––––––––––––––––––-
1 | 0:00.00 | 4:47.31 | 0 | 21555
2 | 4:47.31 | 3:13.59 | 21556 | 36089
3 | 8:01.15 | 4:15.11 | 36090 | 55225
4 | 12:16.26 | 3:58.50 | 55226 | 73125
5 | 16:15.01 | 4:23.41 | 73126 | 92891
6 | 20:38.42 | 3:49.59 | 92892 | 110125
7 | 24:28.26 | 5:22.27 | 110126 | 134302
8 | 29:50.53 | 3:32.67 | 134303 | 150269
9 | 33:23.45 | 4:00.38 | 150270 | 168307
10 | 37:24.08 | 3:55.58 | 168308 | 185990
11 | 41:19.66 | 3:35.49 | 185991 | 202164
12 | 44:55.40 | 4:05.13 | 202165 | 220552


Track 1

Filename F:\ЗАГРУЗКИ\ Buddha-Bar - A Night @ Buddha Bar Hotel By Ravin 12CD Box (2011)\CD1\01. Eli Kazah - Return Home.wav

Pre-gap length 0:00:02.00

Peak level 98.8 %
Extraction speed 3.5 X
Track quality 100.0 %
Test CRC 4FEA0323
Copy CRC 4FEA0323
Accurately ripped (confidence 1) [8DB7EEC6]
Copy OK

Track 2

Filename F:\ЗАГРУЗКИ\ Buddha-Bar - A Night @ Buddha Bar Hotel By Ravin 12CD Box (2011)\CD1\02. Ambray - Runway Girls.wav

Peak level 92.0 %
Extraction speed 3.8 X
Track quality 100.0 %
Test CRC 6C1C017B
Copy CRC 6C1C017B
Accurately ripped (confidence 1) [19FFD611]
Copy OK

Track 3

Filename F:\ЗАГРУЗКИ\ Buddha-Bar - A Night @ Buddha Bar Hotel By Ravin 12CD Box (2011)\CD1\03. Buddhattitude - Sundown Caravan.wav

Peak level 98.8 %
Extraction speed 4.2 X
Track quality 100.0 %
Test CRC AD705D2E
Copy CRC AD705D2E
Accurately ripped (confidence 1) [59BDBE70]
Copy OK

Track 4

Filename F:\ЗАГРУЗКИ\ Buddha-Bar - A Night @ Buddha Bar Hotel By Ravin 12CD Box (2011)\CD1\04. Mademoiselle Caro and Frank Garcia - Pale Christmas.wav

Peak level 98.8 %
Extraction speed 4.5 X
Track quality 100.0 %
Test CRC 2B06C0D3
Copy CRC 2B06C0D3
Accurately ripped (confidence 1) [B12C7649]
Copy OK

Track 5

Filename F:\ЗАГРУЗКИ\ Buddha-Bar - A Night @ Buddha Bar Hotel By Ravin 12CD Box (2011)\CD1\05. Buddhattitude - Liberdade.wav

Peak level 98.8 %
Extraction speed 4.9 X
Track quality 100.0 %
Test CRC 880DD507
Copy CRC 880DD507
Accurately ripped (confidence 1) [A8A5332E]
Copy OK

Track 6

Filename F:\ЗАГРУЗКИ\ Buddha-Bar - A Night @ Buddha Bar Hotel By Ravin 12CD Box (2011)\CD1\06. Emar - Smile At Your Heart.wav

Peak level 98.8 %
Extraction speed 4.0 X
Track quality 99.9 %
Test CRC 36BED62C
Copy CRC 36BED62C
Accurately ripped (confidence 1) [20EC347A]
Copy OK

Track 7

Filename F:\ЗАГРУЗКИ\ Buddha-Bar - A Night @ Buddha Bar Hotel By Ravin 12CD Box (2011)\CD1\07. Inbar Bakal - Song of Songs.wav

Peak level 97.9 %
Extraction speed 5.6 X
Track quality 100.0 %
Test CRC 9E8699E5
Copy CRC 9E8699E5
Accurately ripped (confidence 1) [1021D45A]
Copy OK

Track 8

Filename F:\ЗАГРУЗКИ\ Buddha-Bar - A Night @ Buddha Bar Hotel By Ravin 12CD Box (2011)\CD1\08. Buddhattitude - Hablare De Ti.wav

Peak level 98.8 %
Extraction speed 5.6 X
Track quality 100.0 %
Test CRC DB506905
Copy CRC DB506905
Accurately ripped (confidence 1) [3274E1CC]
Copy OK

Track 9

Filename F:\ЗАГРУЗКИ\ Buddha-Bar - A Night @ Buddha Bar Hotel By Ravin 12CD Box (2011)\CD1\09. Buddhattitude - Another Sprint.wav

Peak level 94.8 %
Extraction speed 5.9 X
Track quality 100.0 %
Test CRC 411C9732
Copy CRC 411C9732
Accurately ripped (confidence 1) [706D8799]
Copy OK

Track 10

Filename F:\ЗАГРУЗКИ\ Buddha-Bar - A Night @ Buddha Bar Hotel By Ravin 12CD Box (2011)\CD1\10. Buddhattitude - Amon Ra.wav

Peak level 98.8 %
Extraction speed 4.8 X
Track quality 99.9 %
Test CRC A1B4D34B
Copy CRC A1B4D34B
Accurately ripped (confidence 1) [F7F71F0F]
Copy OK

Track 11

Filename F:\ЗАГРУЗКИ\ Buddha-Bar - A Night @ Buddha Bar Hotel By Ravin 12CD Box (2011)\CD1\11. Buddhattitude - Grevillea.wav

Peak level 95.8 %
Extraction speed 6.2 X
Track quality 100.0 %
Test CRC 47E2427A
Copy CRC 47E2427A
Accurately ripped (confidence 1) [46169DCA]
Copy OK

Track 12

Filename F:\ЗАГРУЗКИ\ Buddha-Bar - A Night @ Buddha Bar Hotel By Ravin 12CD Box (2011)\CD1\12. Buddhattitude - Black Orchid.wav

Peak level 97.4 %
Extraction speed 6.5 X
Track quality 100.0 %
Test CRC C1396636
Copy CRC C1396636
Accurately ripped (confidence 1) [3E701D3B]
Copy OK


All tracks accurately ripped

No errors occurred

End of status report

==== Log checksum 77B644FE4EC8034DCA6EEDB4B0771DCA17D2EA21463353AEB2030F88CB26AAF2 ====
––––––––
Exact Audio Copy V1.0 beta 1 from 15. November 2010

EAC extraction logfile from 4. October 2012, 10:52

Various / A Night @ Buddha Bar Hotel - CD 02

Used drive : PLEXTOR DVDR PX-L890SA Adapter: 5 ID: 0

Read mode : Secure
Utilize accurate stream : Yes
Defeat audio cache : Yes
Make use of C2 pointers : No

Read offset correction : 6
Overread into Lead-In and Lead-Out : No
Fill up missing offset samples with silence : Yes
Delete leading and trailing silent blocks : No
Null samples used in CRC calculations : Yes
Used interface : Native Win32 interface for Win NT & 2000
Gap handling : Appended to previous track

Used output format : User Defined Encoder
Selected bitrate : 1024 kBit/s
Quality : High
Add ID3 tag : No
Command line compressor : C:\Program Files\Exact Audio Copy\Flac\flac.exe
Additional command line options : -8 -V -T "ARTIST=%a" -T "TITLE=%t" -T "ALBUM=%g" -T "DATE=%y" -T "TRACKNUMBER=%n" -T "GENRE=%m" -T "COMMENT=ripped by Oleandris" %s


TOC of the extracted CD

Track | Start | Length | Start sector | End sector
––––––––––––––––––––––––––––-
1 | 0:00.00 | 4:04.24 | 0 | 18323
2 | 4:04.24 | 4:02.70 | 18324 | 36543
3 | 8:07.19 | 3:30.19 | 36544 | 52312
4 | 11:37.38 | 3:28.16 | 52313 | 67928
5 | 15:05.54 | 4:35.57 | 67929 | 88610
6 | 19:41.36 | 5:22.67 | 88611 | 112827
7 | 25:04.28 | 4:45.04 | 112828 | 134206
8 | 29:49.32 | 3:31.32 | 134207 | 150063
9 | 33:20.64 | 4:06.72 | 150064 | 168585
10 | 37:27.61 | 6:06.43 | 168586 | 196078
11 | 43:34.29 | 6:12.03 | 196079 | 223981
12 | 49:46.32 | 4:48.53 | 223982 | 245634


Track 1

Filename F:\ЗАГРУЗКИ\ Buddha-Bar - A Night @ Buddha Bar Hotel By Ravin 12CD Box (2011)\CD2\01. Buddhattitude - Siberian Shuffle.wav

Pre-gap length 0:00:02.00

Peak level 100.0 %
Extraction speed 3.4 X
Track quality 100.0 %
Test CRC E14F5A5E
Copy CRC E14F5A5E
Accurately ripped (confidence 1) [38A846B5]
Copy OK

Track 2

Filename F:\ЗАГРУЗКИ\ Buddha-Bar - A Night @ Buddha Bar Hotel By Ravin 12CD Box (2011)\CD2\02. Jaime Torres Y Alejandro Seoane - Palomitay.wav

Peak level 100.0 %
Extraction speed 3.9 X
Track quality 100.0 %
Test CRC 600222E3
Copy CRC 600222E3
Accurately ripped (confidence 1) [46A831C4]
Copy OK

Track 3

Filename F:\ЗАГРУЗКИ\ Buddha-Bar - A Night @ Buddha Bar Hotel By Ravin 12CD Box (2011)\CD2\03. Lonely Drifter Karen - Railroad.wav

Peak level 96.8 %
Extraction speed 4.1 X
Track quality 100.0 %
Test CRC B215A29D
Copy CRC B215A29D
Accurately ripped (confidence 1) [E3BB38E0]
Copy OK

Track 4

Filename F:\ЗАГРУЗКИ\ Buddha-Bar - A Night @ Buddha Bar Hotel By Ravin 12CD Box (2011)\CD2\04. Urban Myth Club - Coming Home (Daylight Mix).wav

Peak level 100.0 %
Extraction speed 3.4 X
Track quality 99.9 %
Test CRC C6DBA512
Copy CRC C6DBA512
Accurately ripped (confidence 1) [5DC805D2]
Copy OK

Track 5

Filename F:\ЗАГРУЗКИ\ Buddha-Bar - A Night @ Buddha Bar Hotel By Ravin 12CD Box (2011)\CD2\05. Caravane - Hobina Ghiretna.wav

Peak level 98.9 %
Extraction speed 4.8 X
Track quality 100.0 %
Test CRC E14C8A2E
Copy CRC E14C8A2E
Accurately ripped (confidence 1) [636C7391]
Copy OK

Track 6

Filename F:\ЗАГРУЗКИ\ Buddha-Bar - A Night @ Buddha Bar Hotel By Ravin 12CD Box (2011)\CD2\06. Natacha Atlas - River Man (Makyo's Summer Rain Remix).wav

Peak level 100.0 %
Extraction speed 5.3 X
Track quality 100.0 %
Test CRC 461D16C8
Copy CRC 461D16C8
Accurately ripped (confidence 1) [09497C04]
Copy OK

Track 7

Filename F:\ЗАГРУЗКИ\ Buddha-Bar - A Night @ Buddha Bar Hotel By Ravin 12CD Box (2011)\CD2\07. Papercut - A Dream.wav

Peak level 100.0 %
Extraction speed 5.5 X
Track quality 100.0 %
Test CRC 72A094F1
Copy CRC 72A094F1
Accurately ripped (confidence 1) [574657AF]
Copy OK

Track 8

Filename F:\ЗАГРУЗКИ\ Buddha-Bar - A Night @ Buddha Bar Hotel By Ravin 12CD Box (2011)\CD2\08. Buddhattitude - Freedom.wav

Peak level 99.3 %
Extraction speed 5.5 X
Track quality 100.0 %
Test CRC 9A68EBA8
Copy CRC 9A68EBA8
Accurately ripped (confidence 1) [024437BE]
Copy OK

Track 9

Filename F:\ЗАГРУЗКИ\ Buddha-Bar - A Night @ Buddha Bar Hotel By Ravin 12CD Box (2011)\CD2\09. Florzinho - Ohm-Chi.wav

Peak level 100.0 %
Extraction speed 5.9 X
Track quality 100.0 %
Test CRC DCDF4903
Copy CRC DCDF4903
Accurately ripped (confidence 1) [F5EC6FB7]
Copy OK

Track 10

Filename F:\ЗАГРУЗКИ\ Buddha-Bar - A Night @ Buddha Bar Hotel By Ravin 12CD Box (2011)\CD2\10. Nada - Earth Garden.wav

Peak level 100.0 %
Extraction speed 5.5 X
Track quality 99.9 %
Test CRC A075A238
Copy CRC A075A238
Accurately ripped (confidence 1) [8BC8EB58]
Copy OK

Track 11

Filename F:\ЗАГРУЗКИ\ Buddha-Bar - A Night @ Buddha Bar Hotel By Ravin 12CD Box (2011)\CD2\11. James Bright Feat- Mathew Evans - Set Me Free.wav

Peak level 98.3 %
Extraction speed 6.9 X
Track quality 100.0 %
Test CRC 3BF5AABC
Copy CRC 3BF5AABC
Accurately ripped (confidence 1) [8F1005AB]
Copy OK

Track 12

Filename F:\ЗАГРУЗКИ\ Buddha-Bar - A Night @ Buddha Bar Hotel By Ravin 12CD Box (2011)\CD2\12. Ayoe Angelica - Quiet Cafe's.wav

Peak level 92.8 %
Extraction speed 7.0 X
Track quality 100.0 %
Test CRC FA1C5C80
Copy CRC FA1C5C80
Accurately ripped (confidence 1) [AE01E610]
Copy OK


All tracks accurately ripped

No errors occurred

End of status report

==== Log checksum 098283F0293E9120DA6BDB970084A9B05DD5C162C87E5CD052BF0C5F8DF52308 ====
–––––––––
Exact Audio Copy V1.0 beta 1 from 15. November 2010

EAC extraction logfile from 4. October 2012, 12:37

Various / A Night @ Buddha Bar Hotel - CD 03

Used drive : PLEXTOR DVDR PX-891SA Adapter: 6 ID: 0

Read mode : Secure
Utilize accurate stream : Yes
Defeat audio cache : Yes
Make use of C2 pointers : No

Read offset correction : 6
Overread into Lead-In and Lead-Out : No
Fill up missing offset samples with silence : Yes
Delete leading and trailing silent blocks : No
Null samples used in CRC calculations : Yes
Used interface : Native Win32 interface for Win NT & 2000
Gap handling : Appended to previous track

Used output format : User Defined Encoder
Selected bitrate : 1024 kBit/s
Quality : High
Add ID3 tag : No
Command line compressor : C:\Program Files\Exact Audio Copy\Flac\flac.exe
Additional command line options : -8 -V -T "ARTIST=%a" -T "TITLE=%t" -T "ALBUM=%g" -T "DATE=%y" -T "TRACKNUMBER=%n" -T "GENRE=%m" -T "COMMENT=ripped by Oleandris" %s


TOC of the extracted CD

Track | Start | Length | Start sector | End sector
––––––––––––––––––––––––––––-
1 | 0:00.00 | 6:54.14 | 0 | 31063
2 | 6:54.14 | 4:05.49 | 31064 | 49487
3 | 10:59.63 | 5:59.44 | 49488 | 76456
4 | 16:59.32 | 5:37.56 | 76457 | 101787
5 | 22:37.13 | 5:19.40 | 101788 | 125752
6 | 27:56.53 | 6:41.24 | 125753 | 155851
7 | 34:38.02 | 6:22.38 | 155852 | 184539
8 | 41:00.40 | 5:44.10 | 184540 | 210349
9 | 46:44.50 | 4:00.39 | 210350 | 228388
10 | 50:45.14 | 6:15.52 | 228389 | 256565
11 | 57:00.66 | 5:29.64 | 256566 | 281304
12 | 62:30.55 | 4:26.69 | 281305 | 301323


Track 1

Filename F:\ЗАГРУЗКИ\ Buddha-Bar - A Night @ Buddha Bar Hotel By Ravin 12CD Box (2011)\CD3\01. Nada - Rajamati.wav

Pre-gap length 0:00:02.00

Peak level 100.0 %
Extraction speed 2.0 X
Track quality 100.0 %
Test CRC 581CFF7B
Copy CRC 581CFF7B
Accurately ripped (confidence 1) [9551C6CA]
Copy OK

Track 2

Filename F:\ЗАГРУЗКИ\ Buddha-Bar - A Night @ Buddha Bar Hotel By Ravin 12CD Box (2011)\CD3\02. Buddhatittude - Cetacea.wav

Peak level 94.2 %
Extraction speed 2.2 X
Track quality 100.0 %
Test CRC 97C87E08
Copy CRC 97C87E08
Accurately ripped (confidence 1) [20574B6F]
Copy OK

Track 3

Filename F:\ЗАГРУЗКИ\ Buddha-Bar - A Night @ Buddha Bar Hotel By Ravin 12CD Box (2011)\CD3\03. Velvet Lounge Project - Make Me Yours (Hazme Tuya) (Pete Dingon Remix).wav

Peak level 100.0 %
Extraction speed 2.5 X
Track quality 100.0 %
Test CRC 4CF7A237
Copy CRC 4CF7A237
Accurately ripped (confidence 1) [91D35195]
Copy OK

Track 4

Filename F:\ЗАГРУЗКИ\ Buddha-Bar - A Night @ Buddha Bar Hotel By Ravin 12CD Box (2011)\CD3\04. Sookey Bandits - A Son's Lament.wav

Peak level 98.5 %
Extraction speed 2.8 X
Track quality 100.0 %
Test CRC E25E48E8
Copy CRC E25E48E8
Accurately ripped (confidence 1) [BC8E3320]
Copy OK

Track 5

Filename F:\ЗАГРУЗКИ\ Buddha-Bar - A Night @ Buddha Bar Hotel By Ravin 12CD Box (2011)\CD3\05. Mashti - The Damn Thing.wav

Peak level 100.0 %
Extraction speed 3.0 X
Track quality 100.0 %
Test CRC 993C25CF
Copy CRC 993C25CF
Accurately ripped (confidence 1) [EB920221]
Copy OK

Track 6

Filename F:\ЗАГРУЗКИ\ Buddha-Bar - A Night @ Buddha Bar Hotel By Ravin 12CD Box (2011)\CD3\06. Cantoma - Rain.wav

Peak level 100.0 %
Extraction speed 3.3 X
Track quality 100.0 %
Test CRC 0D08F173
Copy CRC 0D08F173
Accurately ripped (confidence 1) [3131165A]
Copy OK

Track 7

Filename F:\ЗАГРУЗКИ\ Buddha-Bar - A Night @ Buddha Bar Hotel By Ravin 12CD Box (2011)\CD3\07. Buddhatittude - Fracture.wav

Peak level 98.2 %
Extraction speed 3.5 X
Track quality 100.0 %
Test CRC DB1EB8C3
Copy CRC DB1EB8C3
Accurately ripped (confidence 1) [F6813A57]
Copy OK

Track 8

Filename F:\ЗАГРУЗКИ\ Buddha-Bar - A Night @ Buddha Bar Hotel By Ravin 12CD Box (2011)\CD3\08. Buddhatittude - Wonder of The Sorm.wav

Peak level 96.3 %
Extraction speed 3.6 X
Track quality 100.0 %
Test CRC 1451379E
Copy CRC 1451379E
Accurately ripped (confidence 1) [3E27F8CF]
Copy OK

Track 9

Filename F:\ЗАГРУЗКИ\ Buddha-Bar - A Night @ Buddha Bar Hotel By Ravin 12CD Box (2011)\CD3\09. Buddhatittude - Copacabana Cafe.wav

Peak level 100.0 %
Extraction speed 3.6 X
Track quality 100.0 %
Test CRC CF85D073
Copy CRC CF85D073
Accurately ripped (confidence 1) [A3B100A3]
Copy OK

Track 10

Filename F:\ЗАГРУЗКИ\ Buddha-Bar - A Night @ Buddha Bar Hotel By Ravin 12CD Box (2011)\CD3\10. Midival Punditz - Naina Laagey.wav

Peak level 91.9 %
Extraction speed 3.9 X
Track quality 100.0 %
Test CRC 8C0EA9FE
Copy CRC 8C0EA9FE
Accurately ripped (confidence 1) [4A6F954C]
Copy OK

Track 11

Filename F:\ЗАГРУЗКИ\ Buddha-Bar - A Night @ Buddha Bar Hotel By Ravin 12CD Box (2011)\CD3\11. Chris Nemmo - Wastin Time (Feat Aris Duke & Helena K).wav

Peak level 100.0 %
Extraction speed 4.0 X
Track quality 100.0 %
Test CRC E2C23A58
Copy CRC E2C23A58
Accurately ripped (confidence 1) [DCDE1D37]
Copy OK

Track 12

Filename F:\ЗАГРУЗКИ\ Buddha-Bar - A Night @ Buddha Bar Hotel By Ravin 12CD Box (2011)\CD3\12. Travel Impressions - Agabat.wav

Peak level 100.0 %
Extraction speed 4.0 X
Track quality 100.0 %
Test CRC 77FEE60A
Copy CRC 77FEE60A
Accurately ripped (confidence 1) [FC4CFCAB]
Copy OK


All tracks accurately ripped

No errors occurred

End of status report

==== Log checksum 484BB374F4D7C0FC3B58C459EB8C4DE0EC126B0D513E95978F6EA3F9265182B3 ====
–––––––––
Exact Audio Copy V1.0 beta 1 from 15. November 2010

EAC extraction logfile from 4. October 2012, 12:38

Various / A Night @ Buddha Bar Hotel CD4

Used drive : ASUS DRW-24B3ST Adapter: 3 ID: 0

Read mode : Secure
Utilize accurate stream : Yes
Defeat audio cache : Yes
Make use of C2 pointers : No

Read offset correction : 6
Overread into Lead-In and Lead-Out : No
Fill up missing offset samples with silence : Yes
Delete leading and trailing silent blocks : No
Null samples used in CRC calculations : Yes
Used interface : Native Win32 interface for Win NT & 2000
Gap handling : Appended to previous track

Used output format : User Defined Encoder
Selected bitrate : 1024 kBit/s
Quality : High
Add ID3 tag : No
Command line compressor : C:\Program Files\Exact Audio Copy\Flac\flac.exe
Additional command line options : -8 -V -T "ARTIST=%a" -T "TITLE=%t" -T "ALBUM=%g" -T "DATE=%y" -T "TRACKNUMBER=%n" -T "GENRE=%m" -T "COMMENT=ripped by Oleandris" %s


TOC of the extracted CD

Track | Start | Length | Start sector | End sector
––––––––––––––––––––––––––––-
1 | 0:00.00 | 2:24.06 | 0 | 10805
2 | 2:24.06 | 5:37.70 | 10806 | 36150
3 | 8:02.01 | 4:50.63 | 36151 | 57963
4 | 12:52.64 | 3:39.59 | 57964 | 74447
5 | 16:32.48 | 6:46.72 | 74448 | 104969
6 | 23:19.45 | 4:47.74 | 104970 | 126568
7 | 28:07.44 | 5:02.21 | 126569 | 149239
8 | 33:09.65 | 4:55.33 | 149240 | 171397
9 | 38:05.23 | 4:23.46 | 171398 | 191168
10 | 42:28.69 | 5:07.06 | 191169 | 214199
11 | 47:36.00 | 5:16.53 | 214200 | 237952
12 | 52:52.53 | 5:10.16 | 237953 | 261218


Track 1

Filename F:\ЗАГРУЗКИ\ Buddha-Bar - A Night @ Buddha Bar Hotel By Ravin 12CD Box (2011)\CD4\01. Serafim Tsotsonis - Poles.wav

Pre-gap length 0:00:02.00

Peak level 98.8 %
Extraction speed 3.0 X
Track quality 100.0 %
Test CRC 0AB556CB
Copy CRC 0AB556CB
Accurately ripped (confidence 1) [1A1019E4]
Copy OK

Track 2

Filename F:\ЗАГРУЗКИ\ Buddha-Bar - A Night @ Buddha Bar Hotel By Ravin 12CD Box (2011)\CD4\02. Goya Project - Megsiratlak, megsiratlak….wav

Peak level 98.8 %
Extraction speed 3.9 X
Track quality 100.0 %
Test CRC 221A87F4
Copy CRC 221A87F4
Accurately ripped (confidence 1) [C584B79C]
Copy OK

Track 3

Filename F:\ЗАГРУЗКИ\ Buddha-Bar - A Night @ Buddha Bar Hotel By Ravin 12CD Box (2011)\CD4\03. Adani & Wolf - Alhaurun.wav

Peak level 98.8 %
Extraction speed 4.3 X
Track quality 100.0 %
Test CRC 82AA8CA5
Copy CRC 82AA8CA5
Accurately ripped (confidence 1) [E6D56A2B]
Copy OK

Track 4

Filename F:\ЗАГРУЗКИ\ Buddha-Bar - A Night @ Buddha Bar Hotel By Ravin 12CD Box (2011)\CD4\04. Buddhattitude - Dreaming About Anoushka.wav

Peak level 98.8 %
Extraction speed 4.5 X
Track quality 100.0 %
Test CRC 0F56EFFD
Copy CRC 0F56EFFD
Accurately ripped (confidence 1) [4087824A]
Copy OK

Track 5

Filename F:\ЗАГРУЗКИ\ Buddha-Bar - A Night @ Buddha Bar Hotel By Ravin 12CD Box (2011)\CD4\05. Lemongrass - Habla Mi Coraz (Kevin Yost's Otherside Of The World Remix).wav

Peak level 98.8 %
Extraction speed 5.2 X
Track quality 100.0 %
Test CRC 5DDD2118
Copy CRC 5DDD2118
Accurately ripped (confidence 1) [F967EA5D]
Copy OK

Track 6

Filename F:\ЗАГРУЗКИ\ Buddha-Bar - A Night @ Buddha Bar Hotel By Ravin 12CD Box (2011)\CD4\06. Carmen Rizzo - Bring Down The Mountain (Feat. Grant Lee Phillips).wav

Peak level 98.8 %
Extraction speed 5.4 X
Track quality 100.0 %
Test CRC FF64256A
Copy CRC FF64256A
Accurately ripped (confidence 1) [7041991C]
Copy OK

Track 7

Filename F:\ЗАГРУЗКИ\ Buddha-Bar - A Night @ Buddha Bar Hotel By Ravin 12CD Box (2011)\CD4\07. Triangle Sun - Secret Desire.wav

Peak level 98.8 %
Extraction speed 5.8 X
Track quality 100.0 %
Test CRC F740C03F
Copy CRC F740C03F
Accurately ripped (confidence 1) [71723402]
Copy OK

Track 8

Filename F:\ЗАГРУЗКИ\ Buddha-Bar - A Night @ Buddha Bar Hotel By Ravin 12CD Box (2011)\CD4\08. Bahramji & Mashti - All About You.wav

Peak level 100.0 %
Extraction speed 6.0 X
Track quality 100.0 %
Test CRC D38C20C7
Copy CRC D38C20C7
Accurately ripped (confidence 1) [19012EB8]
Copy OK

Track 9

Filename F:\ЗАГРУЗКИ\ Buddha-Bar - A Night @ Buddha Bar Hotel By Ravin 12CD Box (2011)\CD4\09. Nemas Project - Snow In Istanbul.wav

Peak level 98.8 %
Extraction speed 6.2 X
Track quality 100.0 %
Test CRC BC8AF129
Copy CRC BC8AF129
Accurately ripped (confidence 1) [017AA9A7]
Copy OK

Track 10

Filename F:\ЗАГРУЗКИ\ Buddha-Bar - A Night @ Buddha Bar Hotel By Ravin 12CD Box (2011)\CD4\10. Sussan Deyhim and Bill Laswell - The Candle & The Moth.wav

Peak level 98.8 %
Extraction speed 6.7 X
Track quality 100.0 %
Test CRC 34C8B67E
Copy CRC 34C8B67E
Accurately ripped (confidence 1) [604F6EBC]
Copy OK

Track 11

Filename F:\ЗАГРУЗКИ\ Buddha-Bar - A Night @ Buddha Bar Hotel By Ravin 12CD Box (2011)\CD4\11. Travel Impressions - Topkapi.wav

Peak level 98.8 %
Extraction speed 6.9 X
Track quality 100.0 %
Test CRC A630D4EA
Copy CRC A630D4EA
Accurately ripped (confidence 1) [5BE2D67F]
Copy OK

Track 12

Filename F:\ЗАГРУЗКИ\ Buddha-Bar - A Night @ Buddha Bar Hotel By Ravin 12CD Box (2011)\CD4\12. Chandrika Krishnamurthy Tandon - Malkoshm (Carmen Rizzo Remix).wav

Peak level 98.8 %
Extraction speed 7.2 X
Track quality 100.0 %
Test CRC 9B77C7E4
Copy CRC 9B77C7E4
Accurately ripped (confidence 1) [F2176309]
Copy OK


All tracks accurately ripped

No errors occurred

End of status report

==== Log checksum BBFCF28B616444E65476687D71EC5918F0C77AE2D75E2BF0339B8B7A3B34D80E ====
––––––––
Exact Audio Copy V1.0 beta 1 from 15. November 2010

EAC extraction logfile from 4. October 2012, 12:38

Various Artists / A Night @ Buddha-Bar Hotel CD5

Used drive : PLEXTOR DVDR PX-L890SA Adapter: 5 ID: 0

Read mode : Secure
Utilize accurate stream : Yes
Defeat audio cache : Yes
Make use of C2 pointers : No

Read offset correction : 6
Overread into Lead-In and Lead-Out : No
Fill up missing offset samples with silence : Yes
Delete leading and trailing silent blocks : No
Null samples used in CRC calculations : Yes
Used interface : Native Win32 interface for Win NT & 2000
Gap handling : Appended to previous track

Used output format : User Defined Encoder
Selected bitrate : 1024 kBit/s
Quality : High
Add ID3 tag : No
Command line compressor : C:\Program Files\Exact Audio Copy\Flac\flac.exe
Additional command line options : -8 -V -T "ARTIST=%a" -T "TITLE=%t" -T "ALBUM=%g" -T "DATE=%y" -T "TRACKNUMBER=%n" -T "GENRE=%m" -T "COMMENT=ripped by Oleandris" %s


TOC of the extracted CD

Track | Start | Length | Start sector | End sector
––––––––––––––––––––––––––––-
1 | 0:00.00 | 4:25.37 | 0 | 19911
2 | 4:25.37 | 5:15.72 | 19912 | 43608
3 | 9:41.34 | 5:41.59 | 43609 | 69242
4 | 15:23.18 | 4:09.54 | 69243 | 87971
5 | 19:32.72 | 4:28.70 | 87972 | 108141
6 | 24:01.67 | 4:16.42 | 108142 | 127383
7 | 28:18.34 | 4:28.25 | 127384 | 147508
8 | 32:46.59 | 5:23.36 | 147509 | 171769
9 | 38:10.20 | 4:34.70 | 171770 | 192389
10 | 42:45.15 | 4:16.22 | 192390 | 211611
11 | 47:01.37 | 4:25.51 | 211612 | 231537
12 | 51:27.13 | 4:49.62 | 231538 | 253274


Track 1

Filename F:\ЗАГРУЗКИ\ Buddha-Bar - A Night @ Buddha Bar Hotel By Ravin 12CD Box (2011)\CD5\01. Swing Republic Feat.Tommy Dorsey - Any Old Thing.wav

Pre-gap length 0:00:02.00

Peak level 100.0 %
Extraction speed 3.5 X
Track quality 100.0 %
Test CRC 008BDD05
Copy CRC 008BDD05
Accurately ripped (confidence 1) [B63A51C1]
Copy OK

Track 2

Filename F:\ЗАГРУЗКИ\ Buddha-Bar - A Night @ Buddha Bar Hotel By Ravin 12CD Box (2011)\CD5\02. Mathieu & Florzinho - Closer To The Light (The Mumbai Odyssey Mix).wav

Peak level 100.0 %
Extraction speed 4.1 X
Track quality 100.0 %
Test CRC 56707B6D
Copy CRC 56707B6D
Accurately ripped (confidence 1) [112629EC]
Copy OK

Track 3

Filename F:\ЗАГРУЗКИ\ Buddha-Bar - A Night @ Buddha Bar Hotel By Ravin 12CD Box (2011)\CD5\03. Ku-Rush Feat.Starostin & Larina - Rechka (Iskra Flowers Mix).wav

Peak level 100.0 %
Extraction speed 4.6 X
Track quality 100.0 %
Test CRC 5FCE07B0
Copy CRC 5FCE07B0
Accurately ripped (confidence 1) [80539A57]
Copy OK

Track 4

Filename F:\ЗАГРУЗКИ\ Buddha-Bar - A Night @ Buddha Bar Hotel By Ravin 12CD Box (2011)\CD5\04. Triangle Sun - Diamond.wav

Peak level 100.0 %
Extraction speed 3.8 X
Track quality 99.9 %
Test CRC 235FC97B
Copy CRC 235FC97B
Accurately ripped (confidence 1) [FD5D3029]
Copy OK

Track 5

Filename F:\ЗАГРУЗКИ\ Buddha-Bar - A Night @ Buddha Bar Hotel By Ravin 12CD Box (2011)\CD5\05. Loga Ramin Torkian - Golzare Ashegh - Garden Of The Beloved.wav

Peak level 100.0 %
Extraction speed 5.1 X
Track quality 100.0 %
Test CRC 64C744C3
Copy CRC 64C744C3
Accurately ripped (confidence 1) [26CB3CDF]
Copy OK

Track 6

Filename F:\ЗАГРУЗКИ\ Buddha-Bar - A Night @ Buddha Bar Hotel By Ravin 12CD Box (2011)\CD5\06. Czech Philharmonic Chamber Orchestra - Fellini's Roma (Bent Remix).wav

Peak level 100.0 %
Extraction speed 5.4 X
Track quality 100.0 %
Test CRC 19B19412
Copy CRC 19B19412
Accurately ripped (confidence 1) [BA317A84]
Copy OK

Track 7

Filename F:\ЗАГРУЗКИ\ Buddha-Bar - A Night @ Buddha Bar Hotel By Ravin 12CD Box (2011)\CD5\07. Emar - As I Am.wav

Peak level 100.0 %
Extraction speed 5.7 X
Track quality 100.0 %
Test CRC 55B84779
Copy CRC 55B84779
Accurately ripped (confidence 1) [A401B42F]
Copy OK

Track 8

Filename F:\ЗАГРУЗКИ\ Buddha-Bar - A Night @ Buddha Bar Hotel By Ravin 12CD Box (2011)\CD5\08. Roberto Sol & Chris Le Blanc - Oceanic.wav

Peak level 98.8 %
Extraction speed 6.1 X
Track quality 100.0 %
Test CRC E502A7DE
Copy CRC E502A7DE
Accurately ripped (confidence 1) [2CCA0F5A]
Copy OK

Track 9

Filename F:\ЗАГРУЗКИ\ Buddha-Bar - A Night @ Buddha Bar Hotel By Ravin 12CD Box (2011)\CD5\09. Travel Impressions - Funky Cham.wav

Peak level 100.0 %
Extraction speed 5.1 X
Track quality 99.9 %
Test CRC 30BA3297
Copy CRC 30BA3297
Accurately ripped (confidence 1) [42B9C6A4]
Copy OK

Track 10

Filename F:\ЗАГРУЗКИ\ Buddha-Bar - A Night @ Buddha Bar Hotel By Ravin 12CD Box (2011)\CD5\10. Chris Nemmo feat.Etten - Half Human.wav

Peak level 100.0 %
Extraction speed 6.5 X
Track quality 100.0 %
Test CRC 1E4D9434
Copy CRC 1E4D9434
Accurately ripped (confidence 1) [D683433C]
Copy OK

Track 11

Filename F:\ЗАГРУЗКИ\ Buddha-Bar - A Night @ Buddha Bar Hotel By Ravin 12CD Box (2011)\CD5\11. Kaya Project - Saranghi Breaks.wav

Peak level 100.0 %
Extraction speed 6.8 X
Track quality 100.0 %
Test CRC 78B3C146
Copy CRC 78B3C146
Accurately ripped (confidence 1) [B0E64133]
Copy OK

Track 12

Filename F:\ЗАГРУЗКИ\ Buddha-Bar - A Night @ Buddha Bar Hotel By Ravin 12CD Box (2011)\CD5\12. Ion - Electric Poem (Serafim Tsotsonis Remix).wav

Peak level 100.0 %
Extraction speed 7.1 X
Track quality 100.0 %
Test CRC E2A50D2D
Copy CRC E2A50D2D
Accurately ripped (confidence 1) [0EFA0CBF]
Copy OK


All tracks accurately ripped

No errors occurred

End of status report

==== Log checksum 1131E9A0451D7E3A22DC4B06652BE2317E1820DB664B3993863D66B41AFC2DA9 ====
––––––––-
Exact Audio Copy V1.0 beta 1 from 15. November 2010

EAC extraction logfile from 4. October 2012, 15:09

VA / A Night @ Buddha-Bar Hotel CD6

Used drive : ASUS DRW-24B3ST Adapter: 3 ID: 0

Read mode : Secure
Utilize accurate stream : Yes
Defeat audio cache : Yes
Make use of C2 pointers : No

Read offset correction : 6
Overread into Lead-In and Lead-Out : No
Fill up missing offset samples with silence : Yes
Delete leading and trailing silent blocks : No
Null samples used in CRC calculations : Yes
Used interface : Native Win32 interface for Win NT & 2000
Gap handling : Appended to previous track

Used output format : User Defined Encoder
Selected bitrate : 1024 kBit/s
Quality : High
Add ID3 tag : No
Command line compressor : C:\Program Files\Exact Audio Copy\Flac\flac.exe
Additional command line options : -8 -V -T "ARTIST=%a" -T "TITLE=%t" -T "ALBUM=%g" -T "DATE=%y" -T "TRACKNUMBER=%n" -T "GENRE=%m" -T "COMMENT=ripped by Oleandris" %s


TOC of the extracted CD

Track | Start | Length | Start sector | End sector
––––––––––––––––––––––––––––-
1 | 0:00.00 | 5:57.61 | 0 | 26835
2 | 5:57.61 | 3:15.22 | 26836 | 41482
3 | 9:13.08 | 5:11.13 | 41483 | 64820
4 | 14:24.21 | 5:01.02 | 64821 | 87397
5 | 19:25.23 | 4:19.69 | 87398 | 106891
6 | 23:45.17 | 6:18.41 | 106892 | 135282
7 | 30:03.58 | 8:40.74 | 135283 | 174356
8 | 38:44.57 | 6:09.41 | 174357 | 202072
9 | 44:54.23 | 3:41.37 | 202073 | 218684
10 | 48:35.60 | 5:25.07 | 218685 | 243066
11 | 54:00.67 | 6:40.60 | 243067 | 273126
12 | 60:41.52 | 7:35.23 | 273127 | 307274


Track 1

Filename F:\ЗАГРУЗКИ\ Buddha-Bar - A Night @ Buddha Bar Hotel By Ravin 12CD Box (2011)\CD6\01. Buddha Sounds - Vinoba Road (Mantrams Beats).wav

Pre-gap length 0:00:02.00

Peak level 98.8 %
Extraction speed 3.7 X
Track quality 100.0 %
Test CRC B679354D
Copy CRC B679354D
Accurately ripped (confidence 1) [4F4CF820]
Copy OK

Track 2

Filename F:\ЗАГРУЗКИ\ Buddha-Bar - A Night @ Buddha Bar Hotel By Ravin 12CD Box (2011)\CD6\02. Balkan Fanatik - Elment Az En Rozsam (Easy Drive Folktronic Mix By Zoohacker).wav

Peak level 98.8 %
Extraction speed 3.8 X
Track quality 100.0 %
Test CRC 2FA4ED62
Copy CRC 2FA4ED62
Accurately ripped (confidence 1) [8655A2E3]
Copy OK

Track 3

Filename F:\ЗАГРУЗКИ\ Buddha-Bar - A Night @ Buddha Bar Hotel By Ravin 12CD Box (2011)\CD6\03. Razoof Feat. Don Abi - High Tide, Low Tide (Ganga Remix).wav

Peak level 98.8 %
Extraction speed 4.4 X
Track quality 100.0 %
Test CRC 42831E16
Copy CRC 42831E16
Accurately ripped (confidence 1) [5E345A81]
Copy OK

Track 4

Filename F:\ЗАГРУЗКИ\ Buddha-Bar - A Night @ Buddha Bar Hotel By Ravin 12CD Box (2011)\CD6\04. Mathieu & Florzinho - Miracle Of Love (Feat. Ma'dEEvah).wav

Peak level 98.8 %
Extraction speed 4.8 X
Track quality 100.0 %
Test CRC 9FEAC2DF
Copy CRC 9FEAC2DF
Accurately ripped (confidence 1) [FABEEF5C]
Copy OK

Track 5

Filename F:\ЗАГРУЗКИ\ Buddha-Bar - A Night @ Buddha Bar Hotel By Ravin 12CD Box (2011)\CD6\05. Bahramji & Mashti - Midnight.wav

Peak level 98.8 %
Extraction speed 5.0 X
Track quality 100.0 %
Test CRC ACC072CB
Copy CRC ACC072CB
Accurately ripped (confidence 1) [25D65807]
Copy OK

Track 6

Filename F:\ЗАГРУЗКИ\ Buddha-Bar - A Night @ Buddha Bar Hotel By Ravin 12CD Box (2011)\CD6\06. Banzai Republic - When She's Gone.wav

Peak level 98.8 %
Extraction speed 4.7 X
Track quality 99.9 %
Test CRC 87B21D22
Copy CRC 87B21D22
Accurately ripped (confidence 1) [F1BC01B2]
Copy OK

Track 7

Filename F:\ЗАГРУЗКИ\ Buddha-Bar - A Night @ Buddha Bar Hotel By Ravin 12CD Box (2011)\CD6\07. Kenneth Bager - Go Underground.wav

Peak level 98.8 %
Extraction speed 5.5 X
Track quality 99.9 %
Test CRC 2243C3C7
Copy CRC 2243C3C7
Accurately ripped (confidence 1) [71DEFDD2]
Copy OK

Track 8

Filename F:\ЗАГРУЗКИ\ Buddha-Bar - A Night @ Buddha Bar Hotel By Ravin 12CD Box (2011)\CD6\08. Mikael Delta - Disco Over Me.wav

Peak level 98.8 %
Extraction speed 6.5 X
Track quality 100.0 %
Test CRC 06B5DC63
Copy CRC 06B5DC63
Accurately ripped (confidence 1) [A009D62A]
Copy OK

Track 9

Filename F:\ЗАГРУЗКИ\ Buddha-Bar - A Night @ Buddha Bar Hotel By Ravin 12CD Box (2011)\CD6\09. Freedom Satellite - Astro Black (The Big Wow Mix).wav

Peak level 98.8 %
Extraction speed 4.9 X
Track quality 99.9 %
Test CRC 63BD225A
Copy CRC 63BD225A
Accurately ripped (confidence 1) [9705114F]
Copy OK

Track 10

Filename F:\ЗАГРУЗКИ\ Buddha-Bar - A Night @ Buddha Bar Hotel By Ravin 12CD Box (2011)\CD6\10. SoulAvenue - Bombay Blues.wav

Peak level 98.8 %
Extraction speed 5.6 X
Track quality 99.9 %
Test CRC 13D07B30
Copy CRC 13D07B30
Accurately ripped (confidence 1) [BDE4B04D]
Copy OK

Track 11

Filename F:\ЗАГРУЗКИ\ Buddha-Bar - A Night @ Buddha Bar Hotel By Ravin 12CD Box (2011)\CD6\11. BarBQ - Barbi In Love.wav

Peak level 98.8 %
Extraction speed 6.2 X
Track quality 99.9 %
Test CRC 007491EB
Copy CRC 007491EB
Accurately ripped (confidence 1) [0F9BBFB9]
Copy OK

Track 12

Filename F:\ЗАГРУЗКИ\ Buddha-Bar - A Night @ Buddha Bar Hotel By Ravin 12CD Box (2011)\CD6\12. Bird - Some Boys (Valentin Huedo Remix).wav

Peak level 98.8 %
Extraction speed 7.8 X
Track quality 100.0 %
Test CRC DD952100
Copy CRC DD952100
Accurately ripped (confidence 1) [5755A400]
Copy OK


All tracks accurately ripped

No errors occurred

End of status report

==== Log checksum A820C42024FCADB07D98EE12C8AB8F4B0D3BFD9D3C115E2FFB9B87E15426A50D ====
––––––––
Exact Audio Copy V1.0 beta 1 from 15. November 2010

EAC extraction logfile from 4. October 2012, 14:27

Various / A Night @ Buddha Bar Hotel 7

Used drive : PLEXTOR DVDR PX-L890SA Adapter: 5 ID: 0

Read mode : Secure
Utilize accurate stream : Yes
Defeat audio cache : Yes
Make use of C2 pointers : No

Read offset correction : 6
Overread into Lead-In and Lead-Out : No
Fill up missing offset samples with silence : Yes
Delete leading and trailing silent blocks : No
Null samples used in CRC calculations : Yes
Used interface : Native Win32 interface for Win NT & 2000
Gap handling : Appended to previous track

Used output format : User Defined Encoder
Selected bitrate : 1024 kBit/s
Quality : High
Add ID3 tag : No
Command line compressor : C:\Program Files\Exact Audio Copy\Flac\flac.exe
Additional command line options : -8 -V -T "ARTIST=%a" -T "TITLE=%t" -T "ALBUM=%g" -T "DATE=%y" -T "TRACKNUMBER=%n" -T "GENRE=%m" -T "COMMENT=ripped by Oleandris" %s


TOC of the extracted CD

Track | Start | Length | Start sector | End sector
––––––––––––––––––––––––––––-
1 | 0:00.00 | 4:27.37 | 0 | 20061
2 | 4:27.37 | 4:46.20 | 20062 | 41531
3 | 9:13.57 | 3:55.33 | 41532 | 59189
4 | 13:09.15 | 4:02.23 | 59190 | 77362
5 | 17:11.38 | 5:12.61 | 77363 | 100823
6 | 22:24.24 | 4:13.65 | 100824 | 119863
7 | 26:38.14 | 4:34.13 | 119864 | 140426
8 | 31:12.27 | 5:03.23 | 140427 | 163174
9 | 36:15.50 | 4:35.31 | 163175 | 183830
10 | 40:51.06 | 4:31.57 | 183831 | 204212
11 | 45:22.63 | 7:32.67 | 204213 | 238179
12 | 52:55.55 | 3:20.01 | 238180 | 253180


Track 1

Filename F:\ЗАГРУЗКИ\ Buddha-Bar - A Night @ Buddha Bar Hotel By Ravin 12CD Box (2011)\CD7\01. Waldeck - Midsummernight Blues.wav

Pre-gap length 0:00:02.00

Peak level 100.0 %
Extraction speed 3.5 X
Track quality 100.0 %
Test CRC DB890AF4
Copy CRC DB890AF4
Accurately ripped (confidence 1) [5A174425]
Copy OK

Track 2

Filename F:\ЗАГРУЗКИ\ Buddha-Bar - A Night @ Buddha Bar Hotel By Ravin 12CD Box (2011)\CD7\02. Sunyata Project - Journey to Mandurai.wav

Peak level 100.0 %
Extraction speed 3.3 X
Track quality 99.9 %
Test CRC 373419B0
Copy CRC 373419B0
Accurately ripped (confidence 1) [6CE4F4A4]
Copy OK

Track 3

Filename F:\ЗАГРУЗКИ\ Buddha-Bar - A Night @ Buddha Bar Hotel By Ravin 12CD Box (2011)\CD7\03. Czech Philarmonic Chamber Orchestra - Paris Blues (The Real Tuesday Weld Remix).wav

Peak level 100.0 %
Extraction speed 3.4 X
Track quality 99.9 %
Test CRC 2B2FE717
Copy CRC 2B2FE717
Accurately ripped (confidence 1) [E993F61F]
Copy OK

Track 4

Filename F:\ЗАГРУЗКИ\ Buddha-Bar - A Night @ Buddha Bar Hotel By Ravin 12CD Box (2011)\CD7\04. Woolfy Vs Projections - Carry On.wav

Peak level 100.0 %
Extraction speed 4.6 X
Track quality 100.0 %
Test CRC 141CEBA4
Copy CRC 141CEBA4
Accurately ripped (confidence 1) [FE9464C4]
Copy OK

Track 5

Filename F:\ЗАГРУЗКИ\ Buddha-Bar - A Night @ Buddha Bar Hotel By Ravin 12CD Box (2011)\CD7\05. Eso Es - Melodia Del Mar.wav

Peak level 99.9 %
Extraction speed 4.3 X
Track quality 99.9 %
Test CRC EE9017C8
Copy CRC EE9017C8
Accurately ripped (confidence 1) [84A029CC]
Copy OK

Track 6

Filename F:\ЗАГРУЗКИ\ Buddha-Bar - A Night @ Buddha Bar Hotel By Ravin 12CD Box (2011)\CD7\06. Drumspyder - Kalypso.wav

Peak level 99.9 %
Extraction speed 5.3 X
Track quality 100.0 %
Test CRC 3448B52B
Copy CRC 3448B52B
Accurately ripped (confidence 1) [C69EE261]
Copy OK

Track 7

Filename F:\ЗАГРУЗКИ\ Buddha-Bar - A Night @ Buddha Bar Hotel By Ravin 12CD Box (2011)\CD7\07. David Sabiu - Badw.wav

Peak level 100.0 %
Extraction speed 5.6 X
Track quality 100.0 %
Test CRC BFC0A9BB
Copy CRC BFC0A9BB
Accurately ripped (confidence 1) [574A6122]
Copy OK

Track 8

Filename F:\ЗАГРУЗКИ\ Buddha-Bar - A Night @ Buddha Bar Hotel By Ravin 12CD Box (2011)\CD7\08. Benny Berigan - Snake Charmer.wav

Peak level 100.0 %
Extraction speed 6.0 X
Track quality 100.0 %
Test CRC 9D185E54
Copy CRC 9D185E54
Accurately ripped (confidence 1) [168C24F1]
Copy OK

Track 9

Filename F:\ЗАГРУЗКИ\ Buddha-Bar - A Night @ Buddha Bar Hotel By Ravin 12CD Box (2011)\CD7\09. Drumspyder - Saudade Do Sahara.wav

Peak level 100.0 %
Extraction speed 6.2 X
Track quality 100.0 %
Test CRC C2762DD8
Copy CRC C2762DD8
Accurately ripped (confidence 1) [57EDE70E]
Copy OK

Track 10

Filename F:\ЗАГРУЗКИ\ Buddha-Bar - A Night @ Buddha Bar Hotel By Ravin 12CD Box (2011)\CD7\10. Lovechild - Into The Right Direction.wav

Peak level 100.0 %
Extraction speed 6.5 X
Track quality 100.0 %
Test CRC 3E5BCC67
Copy CRC 3E5BCC67
Accurately ripped (confidence 1) [0C122CD5]
Copy OK

Track 11

Filename F:\ЗАГРУЗКИ\ Buddha-Bar - A Night @ Buddha Bar Hotel By Ravin 12CD Box (2011)\CD7\11. Marsmobil - Gonna Be My Day.wav

Peak level 100.0 %
Extraction speed 7.2 X
Track quality 100.0 %
Test CRC BA4FF116
Copy CRC BA4FF116
Accurately ripped (confidence 1) [3635C90C]
Copy OK

Track 12

Filename F:\ЗАГРУЗКИ\ Buddha-Bar - A Night @ Buddha Bar Hotel By Ravin 12CD Box (2011)\CD7\12. Thompascal & HP Hoeger - People Mambo.wav

Peak level 100.0 %
Extraction speed 6.8 X
Track quality 100.0 %
Test CRC 03262DB7
Copy CRC 03262DB7
Accurately ripped (confidence 1) [593C9456]
Copy OK


All tracks accurately ripped

No errors occurred

End of status report

==== Log checksum D3E56F465D3D8360E4892483C4A1E835935AD87F12A28D2D1AC83F2805B7A8DE ====
–––––––––
Exact Audio Copy V1.0 beta 1 from 15. November 2010

EAC extraction logfile from 14. December 2012, 10:08

Various / A Night @ Buddha Bar Hotel - CD 08

Used drive : PLEXTOR DVDR PX-891SA Adapter: 1 ID: 5

Read mode : Secure
Utilize accurate stream : Yes
Defeat audio cache : Yes
Make use of C2 pointers : No

Read offset correction : 6
Overread into Lead-In and Lead-Out : No
Fill up missing offset samples with silence : Yes
Delete leading and trailing silent blocks : No
Null samples used in CRC calculations : Yes
Used interface : Native Win32 interface for Win NT & 2000
Gap handling : Appended to previous track

Used output format : User Defined Encoder
Selected bitrate : 896 kBit/s
Quality : High
Add ID3 tag : No
Command line compressor : C:\Program Files (x86)\Exact Audio Copy\Flac\flac.exe
Additional command line options : -8 -V -T "ARTIST=%a" -T "TITLE=%t" -T "ALBUM=%g" -T "DATE=%y" -T "TRACKNUMBER=%n" -T "GENRE=%m" -T "COMMENT=ripped by Oleandris" %s


TOC of the extracted CD

Track | Start | Length | Start sector | End sector
––––––––––––––––––––––––––––-
1 | 0:00.00 | 3:42.69 | 0 | 16718
2 | 3:42.69 | 4:45.65 | 16719 | 38158
3 | 8:28.59 | 4:52.59 | 38159 | 60117
4 | 13:21.43 | 6:48.03 | 60118 | 90720
5 | 20:09.46 | 3:44.30 | 90721 | 107550
6 | 23:54.01 | 7:05.52 | 107551 | 139477
7 | 30:59.53 | 3:10.07 | 139478 | 153734
8 | 34:09.60 | 5:09.35 | 153735 | 176944
9 | 39:19.20 | 6:40.20 | 176945 | 206964
10 | 45:59.40 | 4:09.68 | 206965 | 225707
11 | 50:09.33 | 8:12.36 | 225708 | 262643
12 | 58:21.69 | 7:50.05 | 262644 | 297898


Track 1

Filename F:\AUDIO - I\ Ambient - Chill Out - Lounge - Easy Listening - Electronic\ Buddha-Bar - A Night @ Buddha Bar Hotel By Ravin 12CD Box (2011)\CD8\01. Zeebee - Sensibility.wav

Pre-gap length 0:00:02.00

Peak level 100.0 %
Extraction speed 5.1 X
Track quality 100.0 %
Test CRC 6729B315
Copy CRC 6729B315
Accurately ripped (confidence 2) [49C55257]
Copy OK

Track 2

Filename F:\AUDIO - I\ Ambient - Chill Out - Lounge - Easy Listening - Electronic\ Buddha-Bar - A Night @ Buddha Bar Hotel By Ravin 12CD Box (2011)\CD8\02. Travel Impressions - Yupla Toa.wav

Peak level 100.0 %
Extraction speed 5.9 X
Track quality 100.0 %
Test CRC BA4F4518
Copy CRC BA4F4518
Accurately ripped (confidence 2) [33E104A3]
Copy OK

Track 3

Filename F:\AUDIO - I\ Ambient - Chill Out - Lounge - Easy Listening - Electronic\ Buddha-Bar - A Night @ Buddha Bar Hotel By Ravin 12CD Box (2011)\CD8\03. Afterlife feat Briana Corrigan - Savage.wav

Peak level 100.0 %
Extraction speed 6.5 X
Track quality 100.0 %
Test CRC 64172D95
Copy CRC 64172D95
Accurately ripped (confidence 2) [B8AFA910]
Copy OK

Track 4

Filename F:\AUDIO - I\ Ambient - Chill Out - Lounge - Easy Listening - Electronic\ Buddha-Bar - A Night @ Buddha Bar Hotel By Ravin 12CD Box (2011)\CD8\04. Lukas Greenberg feat Nica Brokke - In Your Arms.wav

Peak level 100.0 %
Extraction speed 7.4 X
Track quality 100.0 %
Test CRC 8509A5EC
Copy CRC 8509A5EC
Accurately ripped (confidence 2) [73973641]
Copy OK

Track 5

Filename F:\AUDIO - I\ Ambient - Chill Out - Lounge - Easy Listening - Electronic\ Buddha-Bar - A Night @ Buddha Bar Hotel By Ravin 12CD Box (2011)\CD8\05. Les Baxter - Jungle Flower (Club Des Belugas Remix).wav

Peak level 100.0 %
Extraction speed 7.4 X
Track quality 100.0 %
Test CRC 4233192A
Copy CRC 4233192A
Accurately ripped (confidence 2) [1713DBB6]
Copy OK

Track 6

Filename F:\AUDIO - I\ Ambient - Chill Out - Lounge - Easy Listening - Electronic\ Buddha-Bar - A Night @ Buddha Bar Hotel By Ravin 12CD Box (2011)\CD8\06. James Bright feat Neve - Come Back.wav

Peak level 100.0 %
Extraction speed 7.5 X
Track quality 99.9 %
Test CRC EB5E5E47
Copy CRC EB5E5E47
Accurately ripped (confidence 2) [CE95419C]
Copy OK

Track 7

Filename F:\AUDIO - I\ Ambient - Chill Out - Lounge - Easy Listening - Electronic\ Buddha-Bar - A Night @ Buddha Bar Hotel By Ravin 12CD Box (2011)\CD8\07. Parov Stelar - Booty Swing.wav

Peak level 97.4 %
Extraction speed 8.1 X
Track quality 100.0 %
Test CRC 54C0721A
Copy CRC 54C0721A
Accurately ripped (confidence 2) [FA7C62E0]
Copy OK

Track 8

Filename F:\AUDIO - I\ Ambient - Chill Out - Lounge - Easy Listening - Electronic\ Buddha-Bar - A Night @ Buddha Bar Hotel By Ravin 12CD Box (2011)\CD8\08. Roberto Sol & Yann Kuhlmann - Sunrise In Gambia.wav

Peak level 100.0 %
Extraction speed 7.7 X
Track quality 99.9 %
Test CRC 703386EF
Copy CRC 703386EF
Accurately ripped (confidence 2) [6B6DE223]
Copy OK

Track 9

Filename F:\AUDIO - I\ Ambient - Chill Out - Lounge - Easy Listening - Electronic\ Buddha-Bar - A Night @ Buddha Bar Hotel By Ravin 12CD Box (2011)\CD8\09. Richar Earnshaw feat Imogen Ryall - Cry Me A River (Remixed By Black Coffee).wav

Peak level 100.0 %
Extraction speed 9.8 X
Track quality 100.0 %
Test CRC F1172A0F
Copy CRC F1172A0F
Accurately ripped (confidence 2) [C89CDCC6]
Copy OK

Track 10

Filename F:\AUDIO - I\ Ambient - Chill Out - Lounge - Easy Listening - Electronic\ Buddha-Bar - A Night @ Buddha Bar Hotel By Ravin 12CD Box (2011)\CD8\10. Mikael Delta - I've Got This Feeling.wav

Peak level 100.0 %
Extraction speed 9.7 X
Track quality 100.0 %
Test CRC CBEDADFF
Copy CRC CBEDADFF
Accurately ripped (confidence 2) [AB8F24DB]
Copy OK

Track 11

Filename F:\AUDIO - I\ Ambient - Chill Out - Lounge - Easy Listening - Electronic\ Buddha-Bar - A Night @ Buddha Bar Hotel By Ravin 12CD Box (2011)\CD8\11. Lusine - Two Dots (Nic Fanciulli Remix).wav

Peak level 100.0 %
Extraction speed 10.8 X
Track quality 100.0 %
Test CRC 78F5C4E7
Copy CRC 78F5C4E7
Accurately ripped (confidence 2) [6F04BCB5]
Copy OK

Track 12

Filename F:\AUDIO - I\ Ambient - Chill Out - Lounge - Easy Listening - Electronic\ Buddha-Bar - A Night @ Buddha Bar Hotel By Ravin 12CD Box (2011)\CD8\12. Space Ranger - Nightmoves (George Vala & Audioprophecy Remix).wav

Peak level 100.0 %
Extraction speed 11.4 X
Track quality 100.0 %
Test CRC 2DCF4724
Copy CRC 2DCF4724
Accurately ripped (confidence 2) [5DC2B1A1]
Copy OK


All tracks accurately ripped

No errors occurred

End of status report

==== Log checksum 9022DB9F86BDE6C3ECA1425E1CC4CAB00B25A05B490E2EFE0C462CDF2FB4A7CA ====
––––––––––-
Exact Audio Copy V1.0 beta 1 from 15. November 2010

EAC extraction logfile from 4. October 2012, 15:16

Various / A Night @ Buddha-Bar Hotel CD9

Used drive : PLEXTOR DVDR PX-L890SA Adapter: 5 ID: 0

Read mode : Secure
Utilize accurate stream : Yes
Defeat audio cache : Yes
Make use of C2 pointers : No

Read offset correction : 6
Overread into Lead-In and Lead-Out : No
Fill up missing offset samples with silence : Yes
Delete leading and trailing silent blocks : No
Null samples used in CRC calculations : Yes
Used interface : Native Win32 interface for Win NT & 2000
Gap handling : Appended to previous track

Used output format : User Defined Encoder
Selected bitrate : 1024 kBit/s
Quality : High
Add ID3 tag : No
Command line compressor : C:\Program Files\Exact Audio Copy\Flac\flac.exe
Additional command line options : -8 -V -T "ARTIST=%a" -T "TITLE=%t" -T "ALBUM=%g" -T "DATE=%y" -T "TRACKNUMBER=%n" -T "GENRE=%m" -T "COMMENT=ripped by Oleandris" %s


TOC of the extracted CD

Track | Start | Length | Start sector | End sector
––––––––––––––––––––––––––––-
1 | 0:00.00 | 2:11.39 | 0 | 9863
2 | 2:11.39 | 3:41.08 | 9864 | 26446
3 | 5:52.47 | 7:33.68 | 26447 | 60489
4 | 13:26.40 | 3:39.73 | 60490 | 76987
5 | 17:06.38 | 7:57.03 | 76988 | 112765
6 | 25:03.41 | 4:43.21 | 112766 | 134011
7 | 29:46.62 | 5:27.61 | 134012 | 158597
8 | 35:14.48 | 8:34.64 | 158598 | 197211
9 | 43:49.37 | 5:45.31 | 197212 | 223117
10 | 49:34.68 | 3:39.39 | 223118 | 239581
11 | 53:14.32 | 8:08.71 | 239582 | 276252
12 | 61:23.28 | 7:13.14 | 276253 | 308741
13 | 68:36.42 | 4:43.31 | 308742 | 329997
14 | 73:19.73 | 3:36.70 | 329998 | 346267


Track 1

Filename F:\ЗАГРУЗКИ\ Buddha-Bar - A Night @ Buddha Bar Hotel By Ravin 12CD Box (2011)\CD9\01. Nitin Sawhney Feat. Reena Bhardwaj - Ek Jaan.wav

Pre-gap length 0:00:02.00

Peak level 89.1 %
Extraction speed 2.3 X
Track quality 99.9 %
Test CRC EF2BC588
Copy CRC EF2BC588
Accurately ripped (confidence 1) [7EB4D759]
Copy OK

Track 2

Filename F:\ЗАГРУЗКИ\ Buddha-Bar - A Night @ Buddha Bar Hotel By Ravin 12CD Box (2011)\CD9\02. Karsh Kale - Ma.wav

Peak level 100.0 %
Extraction speed 3.8 X
Track quality 100.0 %
Test CRC 79553564
Copy CRC 79553564
Accurately ripped (confidence 1) [4B933228]
Copy OK

Track 3

Filename F:\ЗАГРУЗКИ\ Buddha-Bar - A Night @ Buddha Bar Hotel By Ravin 12CD Box (2011)\CD9\03. NUfrequency Feat Ben Onono - Fallen Hero (Motor City Drum Ensemble Remix).wav

Peak level 100.0 %
Extraction speed 4.1 X
Track quality 99.9 %
Test CRC 501B0EBB
Copy CRC 501B0EBB
Accurately ripped (confidence 1) [C3E077EF]
Copy OK

Track 4

Filename F:\ЗАГРУЗКИ\ Buddha-Bar - A Night @ Buddha Bar Hotel By Ravin 12CD Box (2011)\CD9\04. Chaim Feat Meital De Razon - U & Eye.wav

Peak level 99.9 %
Extraction speed 4.7 X
Track quality 100.0 %
Test CRC 328DFABA
Copy CRC 328DFABA
Accurately ripped (confidence 1) [83030824]
Copy OK

Track 5

Filename F:\ЗАГРУЗКИ\ Buddha-Bar - A Night @ Buddha Bar Hotel By Ravin 12CD Box (2011)\CD9\05. Christos Fourkis - Everything You Feel.wav

Peak level 100.0 %
Extraction speed 5.5 X
Track quality 100.0 %
Test CRC 99DBA7C5
Copy CRC 99DBA7C5
Accurately ripped (confidence 1) [7A70CDB1]
Copy OK

Track 6

Filename F:\ЗАГРУЗКИ\ Buddha-Bar - A Night @ Buddha Bar Hotel By Ravin 12CD Box (2011)\CD9\06. Belladonna - Harmony.wav

Peak level 100.0 %
Extraction speed 5.6 X
Track quality 100.0 %
Test CRC DE3C7487
Copy CRC DE3C7487
Accurately ripped (confidence 1) [7838D4F1]
Copy OK

Track 7

Filename F:\ЗАГРУЗКИ\ Buddha-Bar - A Night @ Buddha Bar Hotel By Ravin 12CD Box (2011)\CD9\07. Pr0mid - Abandon.wav

Peak level 100.0 %
Extraction speed 6.0 X
Track quality 100.0 %
Test CRC 9EC8720A
Copy CRC 9EC8720A
Accurately ripped (confidence 1) [A449F81E]
Copy OK

Track 8

Filename F:\ЗАГРУЗКИ\ Buddha-Bar - A Night @ Buddha Bar Hotel By Ravin 12CD Box (2011)\CD9\08. Christos Fourkis - Free Love.wav

Peak level 100.0 %
Extraction speed 6.8 X
Track quality 100.0 %
Test CRC A70C0BEF
Copy CRC A70C0BEF
Accurately ripped (confidence 1) [EFBCBA19]
Copy OK

Track 9

Filename F:\ЗАГРУЗКИ\ Buddha-Bar - A Night @ Buddha Bar Hotel By Ravin 12CD Box (2011)\CD9\09. Sabb Feat. Dark Beat - Balkanika.wav

Peak level 100.0 %
Extraction speed 6.9 X
Track quality 100.0 %
Test CRC 7413214B
Copy CRC 7413214B
Accurately ripped (confidence 1) [5B079AAB]
Copy OK

Track 10

Filename F:\ЗАГРУЗКИ\ Buddha-Bar - A Night @ Buddha Bar Hotel By Ravin 12CD Box (2011)\CD9\10. Phonique Feat. Ian Whitelaw - Our Time Our Chance.wav

Peak level 100.0 %
Extraction speed 6.7 X
Track quality 100.0 %
Test CRC 1C985939
Copy CRC 1C985939
Accurately ripped (confidence 1) [C8EBBF6B]
Copy OK

Track 11

Filename F:\ЗАГРУЗКИ\ Buddha-Bar - A Night @ Buddha Bar Hotel By Ravin 12CD Box (2011)\CD9\11. Robert Owens - Happy (James Priestley & Dan Berkson's Remix).wav

Peak level 100.0 %
Extraction speed 7.6 X
Track quality 100.0 %
Test CRC C6FB3658
Copy CRC C6FB3658
Accurately ripped (confidence 1) [EC0A213C]
Copy OK

Track 12

Filename F:\ЗАГРУЗКИ\ Buddha-Bar - A Night @ Buddha Bar Hotel By Ravin 12CD Box (2011)\CD9\12. Smokey Bandits - Angelitos Negros.wav

Peak level 100.0 %
Extraction speed 7.9 X
Track quality 100.0 %
Test CRC 749E8FD2
Copy CRC 749E8FD2
Accurately ripped (confidence 1) [C749AA2C]
Copy OK

Track 13

Filename F:\ЗАГРУЗКИ\ Buddha-Bar - A Night @ Buddha Bar Hotel By Ravin 12CD Box (2011)\CD9\13. Volkan U?a Feat Resat Tokatli - The Crying Violin.wav

Peak level 100.0 %
Extraction speed 7.7 X
Track quality 100.0 %
Test CRC EA32B5FF
Copy CRC EA32B5FF
Accurately ripped (confidence 1) [C515E8D0]
Copy OK

Track 14

Filename F:\ЗАГРУЗКИ\ Buddha-Bar - A Night @ Buddha Bar Hotel By Ravin 12CD Box (2011)\CD9\14. Buddha Sounds Feat Ahy'o - Time (Sunrise Mix).wav

Peak level 99.9 %
Extraction speed 7.7 X
Track quality 100.0 %
Test CRC 7D4D1E84
Copy CRC 7D4D1E84
Accurately ripped (confidence 1) [B0820962]
Copy OK


All tracks accurately ripped

No errors occurred

End of status report

==== Log checksum D8C35B7099FB59612DEF85ADA9716DA30B4D9CF29F71488F9CF224B5932D1E28 ====
–––––––––-
Exact Audio Copy V1.0 beta 1 from 15. November 2010

EAC extraction logfile from 4. October 2012, 15:37

VA / A Night @ Buddha-Bar Hotel CD10

Used drive : PLEXTOR DVDR PX-891SA Adapter: 6 ID: 0

Read mode : Secure
Utilize accurate stream : Yes
Defeat audio cache : Yes
Make use of C2 pointers : No

Read offset correction : 6
Overread into Lead-In and Lead-Out : No
Fill up missing offset samples with silence : Yes
Delete leading and trailing silent blocks : No
Null samples used in CRC calculations : Yes
Used interface : Native Win32 interface for Win NT & 2000
Gap handling : Appended to previous track

Used output format : User Defined Encoder
Selected bitrate : 1024 kBit/s
Quality : High
Add ID3 tag : No
Command line compressor : C:\Program Files\Exact Audio Copy\Flac\flac.exe
Additional command line options : -8 -V -T "ARTIST=%a" -T "TITLE=%t" -T "ALBUM=%g" -T "DATE=%y" -T "TRACKNUMBER=%n" -T "GENRE=%m" -T "COMMENT=ripped by Oleandris" %s


TOC of the extracted CD

Track | Start | Length | Start sector | End sector
––––––––––––––––––––––––––––-
1 | 0:00.00 | 2:30.38 | 0 | 11287
2 | 2:30.38 | 3:28.45 | 11288 | 26932
3 | 5:59.08 | 6:26.68 | 26933 | 55950
4 | 12:26.01 | 4:32.01 | 55951 | 76351
5 | 16:58.02 | 5:08.46 | 76352 | 99497
6 | 22:06.48 | 7:15.72 | 99498 | 132194
7 | 29:22.45 | 8:27.24 | 132195 | 170243
8 | 37:49.69 | 6:21.66 | 170244 | 198884
9 | 44:11.60 | 8:54.28 | 198885 | 238962
10 | 53:06.13 | 6:23.31 | 238963 | 267718
11 | 59:29.44 | 7:12.15 | 267719 | 300133
12 | 66:41.59 | 7:44.13 | 300134 | 334946


Track 1

Filename F:\ЗАГРУЗКИ\ Buddha-Bar - A Night @ Buddha Bar Hotel By Ravin 12CD Box (2011)\CD10\01. Azam Ali - Noor (The Light In My Eyes).wav

Pre-gap length 0:00:02.00

Peak level 99.9 %
Extraction speed 1.8 X
Track quality 100.0 %
Test CRC F98B3889
Copy CRC F98B3889
Accurately ripped (confidence 1) [5ACE76AD]
Copy OK

Track 2

Filename F:\ЗАГРУЗКИ\ Buddha-Bar - A Night @ Buddha Bar Hotel By Ravin 12CD Box (2011)\CD10\02. Alfida - Ne Muchay.wav

Peak level 100.0 %
Extraction speed 2.0 X
Track quality 100.0 %
Test CRC 7A673D71
Copy CRC 7A673D71
Accurately ripped (confidence 1) [3EF89525]
Copy OK

Track 3

Filename F:\ЗАГРУЗКИ\ Buddha-Bar - A Night @ Buddha Bar Hotel By Ravin 12CD Box (2011)\CD10\03. Bluetech - Green Sophia (Gnosis Mix).wav

Peak level 100.0 %
Extraction speed 2.4 X
Track quality 100.0 %
Test CRC B0F76D63
Copy CRC B0F76D63
Accurately ripped (confidence 1) [8793ACB3]
Copy OK

Track 4

Filename F:\ЗАГРУЗКИ\ Buddha-Bar - A Night @ Buddha Bar Hotel By Ravin 12CD Box (2011)\CD10\04. Triangle Sun - Beautiful.wav

Peak level 100.0 %
Extraction speed 2.6 X
Track quality 100.0 %
Test CRC D67CB469
Copy CRC D67CB469
Accurately ripped (confidence 1) [1726C2C0]
Copy OK

Track 5

Filename F:\ЗАГРУЗКИ\ Buddha-Bar - A Night @ Buddha Bar Hotel By Ravin 12CD Box (2011)\CD10\05. Laya Project Remix - Farihi (Fabian Alsultany Remix).wav

Peak level 100.0 %
Extraction speed 2.8 X
Track quality 100.0 %
Test CRC 944A1952
Copy CRC 944A1952
Accurately ripped (confidence 1) [6F2628AC]
Copy OK

Track 6

Filename F:\ЗАГРУЗКИ\ Buddha-Bar - A Night @ Buddha Bar Hotel By Ravin 12CD Box (2011)\CD10\06. Stimming, Ben Watt & Julia Biel - Bright Star (Sunset Mix).wav

Peak level 100.0 %
Extraction speed 3.2 X
Track quality 100.0 %
Test CRC 0673AA6A
Copy CRC 0673AA6A
Accurately ripped (confidence 1) [653DBDCE]
Copy OK

Track 7

Filename F:\ЗАГРУЗКИ\ Buddha-Bar - A Night @ Buddha Bar Hotel By Ravin 12CD Box (2011)\CD10\07. Sister Pearl - Bang The Drum (Manoo Remix).wav

Peak level 100.0 %
Extraction speed 3.5 X
Track quality 100.0 %
Test CRC C6DE56F3
Copy CRC C6DE56F3
Accurately ripped (confidence 1) [C2F8E017]
Copy OK

Track 8

Filename F:\ЗАГРУЗКИ\ Buddha-Bar - A Night @ Buddha Bar Hotel By Ravin 12CD Box (2011)\CD10\08. Doruk Ozlen - Kaya (Main Mix).wav

Peak level 100.0 %
Extraction speed 3.3 X
Track quality 99.9 %
Test CRC D2818191
Copy CRC D2818191
Accurately ripped (confidence 1) [F16C3B63]
Copy OK

Track 9

Filename F:\ЗАГРУЗКИ\ Buddha-Bar - A Night @ Buddha Bar Hotel By Ravin 12CD Box (2011)\CD10\09. Sean Bay Feat. Stephanie Farhat - The New Freedom (Original Mix).wav

Peak level 100.0 %
Extraction speed 3.8 X
Track quality 100.0 %
Test CRC 5C0B4EF0
Copy CRC 5C0B4EF0
Accurately ripped (confidence 1) [D2011D69]
Copy OK

Track 10

Filename F:\ЗАГРУЗКИ\ Buddha-Bar - A Night @ Buddha Bar Hotel By Ravin 12CD Box (2011)\CD10\10. Pat Farrell - Sister Walk Away (Kent & Parker Remix).wav

Peak level 100.0 %
Extraction speed 4.1 X
Track quality 100.0 %
Test CRC 2FCBA69A
Copy CRC 2FCBA69A
Accurately ripped (confidence 1) [95C5CF8B]
Copy OK

Track 11

Filename F:\ЗАГРУЗКИ\ Buddha-Bar - A Night @ Buddha Bar Hotel By Ravin 12CD Box (2011)\CD10\11. Felix Da Housecat Presents… Thee Nese Djouma Projesi - Zaman (Moguai Remix).wav

Peak level 100.0 %
Extraction speed 4.3 X
Track quality 100.0 %
Test CRC D167D8D4
Copy CRC D167D8D4
Accurately ripped (confidence 1) [C9D3391E]
Copy OK

Track 12

Filename F:\ЗАГРУЗКИ\ Buddha-Bar - A Night @ Buddha Bar Hotel By Ravin 12CD Box (2011)\CD10\12. Glender - Voices From The Desert.wav

Peak level 100.0 %
Extraction speed 4.5 X
Track quality 100.0 %
Test CRC 2F9375A8
Copy CRC 2F9375A8
Accurately ripped (confidence 1) [D83C76AE]
Copy OK


All tracks accurately ripped

No errors occurred

End of status report

==== Log checksum 836061B320F4F972BE91FE649C1A039C7C9529FD42D758C8BAECA479878385A9 ====
––––––––-
Exact Audio Copy V1.0 beta 1 from 15. November 2010

EAC extraction logfile from 4. October 2012, 15:43

VA / A Night @ Buddha-Bar Hotel CD11

Used drive : ASUS DRW-24B3ST Adapter: 3 ID: 0

Read mode : Secure
Utilize accurate stream : Yes
Defeat audio cache : Yes
Make use of C2 pointers : No

Read offset correction : 6
Overread into Lead-In and Lead-Out : No
Fill up missing offset samples with silence : Yes
Delete leading and trailing silent blocks : No
Null samples used in CRC calculations : Yes
Used interface : Native Win32 interface for Win NT & 2000
Gap handling : Appended to previous track

Used output format : User Defined Encoder
Selected bitrate : 1024 kBit/s
Quality : High
Add ID3 tag : No
Command line compressor : C:\Program Files\Exact Audio Copy\Flac\flac.exe
Additional command line options : -8 -V -T "ARTIST=%a" -T "TITLE=%t" -T "ALBUM=%g" -T "DATE=%y" -T "TRACKNUMBER=%n" -T "GENRE=%m" -T "COMMENT=ripped by Oleandris" %s


TOC of the extracted CD

Track | Start | Length | Start sector | End sector
––––––––––––––––––––––––––––-
1 | 0:00.00 | 4:22.39 | 0 | 19688
2 | 4:22.39 | 5:51.68 | 19689 | 46081
3 | 10:14.32 | 4:53.32 | 46082 | 68088
4 | 15:07.64 | 7:07.01 | 68089 | 100114
5 | 22:14.65 | 5:02.11 | 100115 | 122775
6 | 27:17.01 | 5:43.00 | 122776 | 148500
7 | 33:00.01 | 5:17.21 | 148501 | 172296
8 | 38:17.22 | 7:18.07 | 172297 | 205153
9 | 45:35.29 | 7:07.10 | 205154 | 237188
10 | 52:42.39 | 6:18.08 | 237189 | 265546
11 | 59:00.47 | 7:06.52 | 265547 | 297548
12 | 66:07.24 | 7:45.13 | 297549 | 332436


Track 1

Filename F:\ЗАГРУЗКИ\ Buddha-Bar - A Night @ Buddha Bar Hotel By Ravin 12CD Box (2011)\CD11\01. Buddhattitude - Nomads.wav

Pre-gap length 0:00:02.00

Peak level 100.0 %
Extraction speed 3.6 X
Track quality 100.0 %
Test CRC 630D3FA1
Copy CRC 630D3FA1
Accurately ripped (confidence 1) [D0B18A01]
Copy OK

Track 2

Filename F:\ЗАГРУЗКИ\ Buddha-Bar - A Night @ Buddha Bar Hotel By Ravin 12CD Box (2011)\CD11\02. Valravn - Kraka (The Kenneth Bager Experience Remix).wav

Peak level 100.0 %
Extraction speed 4.3 X
Track quality 100.0 %
Test CRC 16C244CE
Copy CRC 16C244CE
Accurately ripped (confidence 1) [3299CD81]
Copy OK

Track 3

Filename F:\ЗАГРУЗКИ\ Buddha-Bar - A Night @ Buddha Bar Hotel By Ravin 12CD Box (2011)\CD11\03. Mashti - Beautifull.wav

Peak level 100.0 %
Extraction speed 4.6 X
Track quality 100.0 %
Test CRC 7E7B7408
Copy CRC 7E7B7408
Accurately ripped (confidence 1) [4D4B2936]
Copy OK

Track 4

Filename F:\ЗАГРУЗКИ\ Buddha-Bar - A Night @ Buddha Bar Hotel By Ravin 12CD Box (2011)\CD11\04. Laya Project Remix - Hai La Sa (Nickodemus Remix).wav

Peak level 95.6 %
Extraction speed 4.5 X
Track quality 99.9 %
Test CRC 9D4743D5
Copy CRC 9D4743D5
Accurately ripped (confidence 1) [E9062659]
Copy OK

Track 5

Filename F:\ЗАГРУЗКИ\ Buddha-Bar - A Night @ Buddha Bar Hotel By Ravin 12CD Box (2011)\CD11\05. Kaya Project - 23 Towers (Biotone Remix).wav

Peak level 100.0 %
Extraction speed 4.5 X
Track quality 99.9 %
Test CRC A53EFE95
Copy CRC A53EFE95
Accurately ripped (confidence 1) [828CFAB5]
Copy OK

Track 6

Filename F:\ЗАГРУЗКИ\ Buddha-Bar - A Night @ Buddha Bar Hotel By Ravin 12CD Box (2011)\CD11\06. Laya Project Remix - Going To Seville (Kaya Project Remix).wav

Peak level 100.0 %
Extraction speed 4.9 X
Track quality 99.9 %
Test CRC A52B13F3
Copy CRC A52B13F3
Accurately ripped (confidence 1) [7BCF1AAE]
Copy OK

Track 7

Filename F:\ЗАГРУЗКИ\ Buddha-Bar - A Night @ Buddha Bar Hotel By Ravin 12CD Box (2011)\CD11\07. Drumspyder - Pure Catnip.wav

Peak level 100.0 %
Extraction speed 6.2 X
Track quality 100.0 %
Test CRC 206A81ED
Copy CRC 206A81ED
Accurately ripped (confidence 1) [EB235A11]
Copy OK

Track 8

Filename F:\ЗАГРУЗКИ\ Buddha-Bar - A Night @ Buddha Bar Hotel By Ravin 12CD Box (2011)\CD11\08. Thompascal & HP.Hoeger - Indian Waves.wav

Peak level 100.0 %
Extraction speed 6.7 X
Track quality 100.0 %
Test CRC ED77EE4D
Copy CRC ED77EE4D
Accurately ripped (confidence 1) [023D5E34]
Copy OK

Track 9

Filename F:\ЗАГРУЗКИ\ Buddha-Bar - A Night @ Buddha Bar Hotel By Ravin 12CD Box (2011)\CD11\09. George Vala & Aurioprophecy - City In Arms.wav

Peak level 100.0 %
Extraction speed 7.1 X
Track quality 100.0 %
Test CRC 356202B2
Copy CRC 356202B2
Accurately ripped (confidence 1) [E5F2CFC9]
Copy OK

Track 10

Filename F:\ЗАГРУЗКИ\ Buddha-Bar - A Night @ Buddha Bar Hotel By Ravin 12CD Box (2011)\CD11\10. V-Sag Feat.Alexandra McKay - Feather (Chris Domingo Remix).wav

Peak level 100.0 %
Extraction speed 7.3 X
Track quality 100.0 %
Test CRC 381E2C12
Copy CRC 381E2C12
Accurately ripped (confidence 1) [483F5B7D]
Copy OK

Track 11

Filename F:\ЗАГРУЗКИ\ Buddha-Bar - A Night @ Buddha Bar Hotel By Ravin 12CD Box (2011)\CD11\11. Thompascal & HP.Hoeger - Do Me So Bad.wav

Peak level 100.0 %
Extraction speed 6.6 X
Track quality 99.9 %
Test CRC C1694CB7
Copy CRC C1694CB7
Accurately ripped (confidence 1) [1EE54082]
Copy OK

Track 12

Filename F:\ЗАГРУЗКИ\ Buddha-Bar - A Night @ Buddha Bar Hotel By Ravin 12CD Box (2011)\CD11\12. Zagar Feat.Underground Divas - Wings Of Love.wav

Peak level 100.0 %
Extraction speed 8.1 X
Track quality 100.0 %
Test CRC C9D32DB2
Copy CRC C9D32DB2
Accurately ripped (confidence 1) [547F1926]
Copy OK


All tracks accurately ripped

No errors occurred

End of status report

==== Log checksum 9A8EB54DAB95BF87C7BE10B7F669B20497EAD5DC2A1031DC146F5CC2D610F78F ====
–––––––––-
Exact Audio Copy V1.0 beta 1 from 15. November 2010

EAC extraction logfile from 4. October 2012, 16:06

Various / A Night @ Buddha Bar Hotel - CD 12

Used drive : PLEXTOR DVDR PX-L890SA Adapter: 5 ID: 0

Read mode : Secure
Utilize accurate stream : Yes
Defeat audio cache : Yes
Make use of C2 pointers : No

Read offset correction : 6
Overread into Lead-In and Lead-Out : No
Fill up missing offset samples with silence : Yes
Delete leading and trailing silent blocks : No
Null samples used in CRC calculations : Yes
Used interface : Native Win32 interface for Win NT & 2000
Gap handling : Appended to previous track

Used output format : User Defined Encoder
Selected bitrate : 1024 kBit/s
Quality : High
Add ID3 tag : No
Command line compressor : C:\Program Files\Exact Audio Copy\Flac\flac.exe
Additional command line options : -8 -V -T "ARTIST=%a" -T "TITLE=%t" -T "ALBUM=%g" -T "DATE=%y" -T "TRACKNUMBER=%n" -T "GENRE=%m" -T "COMMENT=ripped by Oleandris" %s


TOC of the extracted CD

Track | Start | Length | Start sector | End sector
––––––––––––––––––––––––––––-
1 | 0:00.00 | 6:10.69 | 0 | 27818
2 | 6:10.69 | 3:11.62 | 27819 | 42205
3 | 9:22.56 | 4:19.73 | 42206 | 61703
4 | 13:42.54 | 5:01.72 | 61704 | 84350
5 | 18:44.51 | 6:20.38 | 84351 | 112888
6 | 25:05.14 | 4:32.06 | 112889 | 133294
7 | 29:37.20 | 5:58.25 | 133295 | 160169
8 | 35:35.45 | 5:07.60 | 160170 | 183254
9 | 40:43.30 | 7:12.01 | 183255 | 215655
10 | 47:55.31 | 7:29.21 | 215656 | 249351
11 | 55:24.52 | 4:57.21 | 249352 | 271647
12 | 60:21.73 | 6:20.24 | 271648 | 300171


Track 1

Filename F:\ЗАГРУЗКИ\ Buddha-Bar - A Night @ Buddha Bar Hotel By Ravin 12CD Box (2011)\CD12\01. Laya Project Remix - Laya Mantra (Kartick & Gotam Yalla).wav

Pre-gap length 0:00:02.00

Peak level 100.0 %
Extraction speed 3.2 X
Track quality 99.9 %
Test CRC 283804DB
Copy CRC 283804DB
Accurately ripped (confidence 1) [19D1B82E]
Copy OK

Track 2

Filename F:\ЗАГРУЗКИ\ Buddha-Bar - A Night @ Buddha Bar Hotel By Ravin 12CD Box (2011)\CD12\02. Oslo Swan - Dreamin.wav

Peak level 100.0 %
Extraction speed 3.8 X
Track quality 100.0 %
Test CRC AE8275D3
Copy CRC AE8275D3
Accurately ripped (confidence 1) [BAA7938F]
Copy OK

Track 3

Filename F:\ЗАГРУЗКИ\ Buddha-Bar - A Night @ Buddha Bar Hotel By Ravin 12CD Box (2011)\CD12\03. Valravn - Farin Uttan At Verda Vekk ( Carmen Rizzo Remix).wav

Peak level 100.0 %
Extraction speed 3.5 X
Track quality 99.9 %
Test CRC 40D46670
Copy CRC 40D46670
Accurately ripped (confidence 1) [09D1A58E]
Copy OK

Track 4

Filename F:\ЗАГРУЗКИ\ Buddha-Bar - A Night @ Buddha Bar Hotel By Ravin 12CD Box (2011)\CD12\04. Czech Philarmonic Chamber Orchestra - The Tango I Saved for You (From The Film Gaily, Gaily) ( Zeb's The Tango I Stole From You.wav

Peak level 100.0 %
Extraction speed 4.7 X
Track quality 100.0 %
Test CRC 098E84F5
Copy CRC 098E84F5
Accurately ripped (confidence 1) [4FDED1BE]
Copy OK

Track 5

Filename F:\ЗАГРУЗКИ\ Buddha-Bar - A Night @ Buddha Bar Hotel By Ravin 12CD Box (2011)\CD12\05. A. M. (Ewan Pearson Re-Edit) - Flowers and Sea Creatures.wav

Peak level 95.5 %
Extraction speed 5.3 X
Track quality 100.0 %
Test CRC 1D8F9776
Copy CRC 1D8F9776
Accurately ripped (confidence 1) [A779DDB0]
Copy OK

Track 6

Filename F:\ЗАГРУЗКИ\ Buddha-Bar - A Night @ Buddha Bar Hotel By Ravin 12CD Box (2011)\CD12\06. Serafim Tsotsonis - My Own Sea.wav

Peak level 100.0 %
Extraction speed 5.5 X
Track quality 100.0 %
Test CRC FA4DA2DC
Copy CRC FA4DA2DC
Accurately ripped (confidence 1) [62DD9B75]
Copy OK

Track 7

Filename F:\ЗАГРУЗКИ\ Buddha-Bar - A Night @ Buddha Bar Hotel By Ravin 12CD Box (2011)\CD12\07. Betina Bager - Singing In The Rain (Love Baby) (Duet Mix).wav

Peak level 100.0 %
Extraction speed 5.9 X
Track quality 100.0 %
Test CRC 7BF9CF8D
Copy CRC 7BF9CF8D
Accurately ripped (confidence 1) [FB97C747]
Copy OK

Track 8

Filename F:\ЗАГРУЗКИ\ Buddha-Bar - A Night @ Buddha Bar Hotel By Ravin 12CD Box (2011)\CD12\08. Parov Stelar - Silent Snow (Feat. Max The Sax).wav

Peak level 100.0 %
Extraction speed 5.1 X
Track quality 99.9 %
Test CRC 28D3F0C4
Copy CRC 28D3F0C4
Accurately ripped (confidence 1) [60F4564B]
Copy OK

Track 9

Filename F:\ЗАГРУЗКИ\ Buddha-Bar - A Night @ Buddha Bar Hotel By Ravin 12CD Box (2011)\CD12\09. George Vala & Audioprophecy - Provokateur.wav

Peak level 100.0 %
Extraction speed 5.9 X
Track quality 99.9 %
Test CRC 56BD6189
Copy CRC 56BD6189
Accurately ripped (confidence 1) [B9F1AF5C]
Copy OK

Track 10

Filename F:\ЗАГРУЗКИ\ Buddha-Bar - A Night @ Buddha Bar Hotel By Ravin 12CD Box (2011)\CD12\10. Rodrigo Laffertt - Agua De Rio.wav

Peak level 100.0 %
Extraction speed 6.2 X
Track quality 99.9 %
Test CRC FB4A4DB6
Copy CRC FB4A4DB6
Accurately ripped (confidence 1) [4BF6A197]
Copy OK

Track 11

Filename F:\ЗАГРУЗКИ\ Buddha-Bar - A Night @ Buddha Bar Hotel By Ravin 12CD Box (2011)\CD12\11. Monsieur Minimal Feat. Dimitra Galani - Mia Zoi.wav

Peak level 100.0 %
Extraction speed 7.2 X
Track quality 100.0 %
Test CRC 1498EA61
Copy CRC 1498EA61
Accurately ripped (confidence 1) [419B8DFE]
Copy OK

Track 12

Filename F:\ЗАГРУЗКИ\ Buddha-Bar - A Night @ Buddha Bar Hotel By Ravin 12CD Box (2011)\CD12\12. Tomy Montana - Dadan.wav

Peak level 100.0 %
Extraction speed 4.7 X
Track quality 100.0 %
Test CRC F0C591DC
Copy CRC F0C591DC
Accurately ripped (confidence 1) [292097DD]
Copy OK


All tracks accurately ripped

No errors occurred

End of status report

==== Log checksum 3FE81B8584E0036DA523EA77F640FC9A904298927907BCA619AC5702AEBBB544 ====


[CUETools log; Date: 2017. 04. 04. 11:09:38; Version: 2.1.6]
[CTDB TOCID: ISu4lIQFdwGZUJezr5ojYZxivEQ-] found.
Track | CTDB Status
1 | (17/17) Accurately ripped
2 | (17/17) Accurately ripped
3 | (17/17) Accurately ripped
4 | (17/17) Accurately ripped
5 | (17/17) Accurately ripped
6 | (17/17) Accurately ripped
7 | (17/17) Accurately ripped
8 | (17/17) Accurately ripped
9 | (17/17) Accurately ripped
10 | (17/17) Accurately ripped
11 | (17/17) Accurately ripped
12 | (17/17) Accurately ripped
[AccurateRip ID: 0016226e-00ce3993-af0b7c0c] found.
Track [ CRC | V2 ] Status
01 [8db7eec6|7e0f8790] (02+16/18) Accurately ripped
02 [19ffd611|b63a2cbb] (02+16/18) Accurately ripped
03 [59bdbe70|04a10dee] (02+16/18) Accurately ripped
04 [b12c7649|0cbfb95e] (02+16/18) Accurately ripped
05 [a8a5332e|43cb5aa4] (02+16/18) Accurately ripped
06 [20ec347a|d9666b3e] (02+16/18) Accurately ripped
07 [1021d45a|21b04847] (02+16/18) Accurately ripped
08 [3274e1cc|c01e3a64] (02+16/18) Accurately ripped
09 [706d8799|102febb0] (02+16/18) Accurately ripped
10 [f7f71f0f|639d8859] (02+16/18) Accurately ripped
11 [46169dca|b9937b6e] (02+16/18) Accurately ripped
12 [3e701d3b|c6783445] (02+16/18) Accurately ripped

Track Peak [ CRC32 ] [W/O NULL] [ LOG ]
– 98,8 [BCCC49C0] [FFC180D4]
01 98,8 [4FEA0323] [0AD98EC2] CRC32
02 92,0 [6C1C017B] [C22886FC] CRC32
03 98,8 [AD705D2E] [91A1ACC6] CRC32
04 98,8 [2B06C0D3] [DE902076] CRC32
05 98,8 [880DD507] [18A78D33] CRC32
06 98,8 [36BED62C] [32EF3E1D] CRC32
07 97,9 [9E8699E5] [07866BE8] CRC32
08 98,8 [DB506905] [2F34D664] CRC32
09 94,8 [411C9732] [B5957380] CRC32
10 98,8 [A1B4D34B] [99B115E4] CRC32
11 95,8 [47E2427A] [7FC78D6E] CRC32
12 97,4 [C1396636] [C8BFD875] CRC32

–-
[CUETools log; Date: 2017. 04. 04. 11:10:35; Version: 2.1.6]
[CTDB TOCID: G2DQrz4f0gPWf11qcialTtokxKI-] found.
Track | CTDB Status
1 | (16/16) Accurately ripped
2 | (16/16) Accurately ripped
3 | (16/16) Accurately ripped
4 | (16/16) Accurately ripped
5 | (16/16) Accurately ripped
6 | (16/16) Accurately ripped
7 | (16/16) Accurately ripped
8 | (16/16) Accurately ripped
9 | (16/16) Accurately ripped
10 | (16/16) Accurately ripped
11 | (16/16) Accurately ripped
12 | (15/16) Accurately ripped
[AccurateRip ID: 0016d03e-00d822a0-b50ccb0c] found.
Track [ CRC | V2 ] Status
01 [38a846b5|0dadaf4e] (02+15/17) Accurately ripped
02 [46a831c4|228b61f2] (02+15/17) Accurately ripped
03 [e3bb38e0|8f190570] (02+15/17) Accurately ripped
04 [5dc805d2|a63c126f] (02+15/17) Accurately ripped
05 [636c7391|3115c561] (02+15/17) Accurately ripped
06 [09497c04|c5df41f4] (02+15/17) Accurately ripped
07 [574657af|b8123f75] (02+15/17) Accurately ripped
08 [024437be|340705f8] (02+15/17) Accurately ripped
09 [f5ec6fb7|88c4475c] (02+15/17) Accurately ripped
10 [8bc8eb58|d399b284] (02+15/17) Accurately ripped
11 [8f1005ab|92df4b6c] (02+15/17) Accurately ripped
12 [ae01e610|2fbeb144] (02+15/17) Accurately ripped

Track Peak [ CRC32 ] [W/O NULL] [ LOG ]
– 100,0 [72400906] [FE361747]
01 100,0 [E14F5A5E] [96AA968B] CRC32
02 100,0 [600222E3] [C67F2D94] CRC32
03 96,8 [B215A29D] [4FBAA6E6] CRC32
04 100,0 [C6DBA512] [75158B50] CRC32
05 98,9 [E14C8A2E] [C2B4727C] CRC32
06 100,0 [461D16C8] [3171E847] CRC32
07 100,0 [72A094F1] [754C3196] CRC32
08 99,3 [9A68EBA8] [82B095FD] CRC32
09 100,0 [DCDF4903] [38F9385C] CRC32
10 100,0 [A075A238] [3AEFE7EB] CRC32
11 98,3 [3BF5AABC] [282A4CFA] CRC32
12 92,8 [FA1C5C80] [5AE08060] CRC32
––

[CUETools log; Date: 2017. 04. 04. 11:21:46; Version: 2.1.6]
[CTDB TOCID: fFClgwZv_ttVu65GgsRyBulYbvE-] found.
Track | CTDB Status
1 | (16/16) Accurately ripped
2 | (16/16) Accurately ripped
3 | (16/16) Accurately ripped
4 | (16/16) Accurately ripped
5 | (16/16) Accurately ripped
6 | (16/16) Accurately ripped
7 | (16/16) Accurately ripped
8 | (16/16) Accurately ripped
9 | (16/16) Accurately ripped
10 | (16/16) Accurately ripped
11 | (16/16) Accurately ripped
12 | (16/16) Accurately ripped
[AccurateRip ID: 001e8fbc-011c69c5-980fb10c] found.
Track [ CRC | V2 ] Status
01 [9551c6ca|b7e13e9f] (02+15/17) Accurately ripped
02 [20574b6f|d8bcaeaf] (02+15/17) Accurately ripped
03 [91d35195|26f8e096] (02+15/17) Accurately ripped
04 [bc8e3320|bd1e5d23] (02+15/17) Accurately ripped
05 [eb920221|10327ed4] (02+15/17) Accurately ripped
06 [3131165a|eb5ab837] (02+15/17) Accurately ripped
07 [f6813a57|e933aeb8] (02+15/17) Accurately ripped
08 [3e27f8cf|2cf0025d] (02+15/17) Accurately ripped
09 [a3b100a3|ab4ec00c] (02+15/17) Accurately ripped
10 [4a6f954c|b7c315e0] (02+15/17) Accurately ripped
11 [dcde1d37|33130678] (02+15/17) Accurately ripped
12 [fc4cfcab|15cce0f7] (02+15/17) Accurately ripped

Track Peak [ CRC32 ] [W/O NULL] [ LOG ]
– 100,0 [605BE455] [EC07DBB0]
01 100,0 [581CFF7B] [38351065] CRC32
02 94,2 [97C87E08] [404DC548] CRC32
03 100,0 [4CF7A237] [8AFE38F0] CRC32
04 98,5 [E25E48E8] [D35423AA] CRC32
05 100,0 [993C25CF] [BFE29007] CRC32
06 100,0 [0D08F173] [4CE68F3C] CRC32
07 98,2 [DB1EB8C3] [E7731CFD] CRC32
08 96,3 [1451379E] [CE5E22A6] CRC32
09 100,0 [CF85D073] [EE36494E] CRC32
10 91,9 [8C0EA9FE] [A7F7F784] CRC32
11 100,0 [E2C23A58] [78740141] CRC32
12 100,0 [77FEE60A] [1564FF36] CRC32
––

[CUETools log; Date: 2017. 04. 04. 11:29:50; Version: 2.1.6]
[CTDB TOCID: TH398FtrGE9ZSMfsAeF4FCIJ8vg-] found.
Track | CTDB Status
1 | (15/15) Accurately ripped
2 | (15/15) Accurately ripped
3 | (15/15) Accurately ripped
4 | (15/15) Accurately ripped
5 | (15/15) Accurately ripped
6 | (15/15) Accurately ripped
7 | (15/15) Accurately ripped
8 | (15/15) Accurately ripped
9 | (15/15) Accurately ripped
10 | (15/15) Accurately ripped
11 | (15/15) Accurately ripped
12 | (15/15) Accurately ripped
[AccurateRip ID: 0018f6f7-00ec98e8-bc0d9a0c] found.
Track [ CRC | V2 ] Status
01 [1a1019e4|0bd9f9ab] (02+14/16) Accurately ripped
02 [c584b79c|7af5e576] (02+14/16) Accurately ripped
03 [e6d56a2b|ae4bc883] (02+14/16) Accurately ripped
04 [4087824a|e85bbbb9] (02+14/16) Accurately ripped
05 [f967ea5d|8f143170] (02+14/16) Accurately ripped
06 [7041991c|510c88a3] (02+14/16) Accurately ripped
07 [71723402|14971fc9] (02+14/16) Accurately ripped
08 [19012eb8|74af2037] (02+14/16) Accurately ripped
09 [017aa9a7|89513222] (02+14/16) Accurately ripped
10 [604f6ebc|13268447] (02+14/16) Accurately ripped
11 [5be2d67f|82fa86fc] (02+14/16) Accurately ripped
12 [f2176309|9222d7e9] (02+14/16) Accurately ripped

Track Peak [ CRC32 ] [W/O NULL] [ LOG ]
– 99,9 [217E9830] [2CBA51B6]
01 98,8 [0AB556CB] [5E2778A2] CRC32
02 98,8 [221A87F4] [1005DE67] CRC32
03 98,8 [82AA8CA5] [735366F9] CRC32
04 98,8 [0F56EFFD] [A85C7EDF] CRC32
05 98,8 [5DDD2118] [A2662687] CRC32
06 98,8 [FF64256A] [12BA852D] CRC32
07 98,8 [F740C03F] [5B3FC90E] CRC32
08 99,9 [D38C20C7] [2C381762] CRC32
09 98,8 [BC8AF129] [98202711] CRC32
10 98,8 [34C8B67E] [C4E96A4A] CRC32
11 98,8 [A630D4EA] [B534AE07] CRC32
12 98,8 [9B77C7E4] [12A3D51A] CRC32
––

[CUETools log; Date: 2017. 04. 04. 11:48:24; Version: 2.1.6]
[CTDB TOCID: PF0II84QrjBKuEwzqiO_kXRFDgI-] found.
Track | CTDB Status
1 | (15/15) Accurately ripped
2 | (15/15) Accurately ripped
3 | (15/15) Accurately ripped
4 | (15/15) Accurately ripped
5 | (15/15) Accurately ripped
6 | (15/15) Accurately ripped
7 | (15/15) Accurately ripped
8 | (15/15) Accurately ripped
9 | (15/15) Accurately ripped
10 | (15/15) Accurately ripped
11 | (15/15) Accurately ripped
12 | (15/15) Accurately ripped
[AccurateRip ID: 001cb4d1-010fbe20-b310010c] found.
Track [ CRC | V2 ] Status
01 [4f4cf820|a19c60f5] (02+14/16) Accurately ripped
02 [8655a2e3|5ff54f3c] (02+14/16) Accurately ripped
03 [5e345a81|9bc27b84] (02+14/16) Accurately ripped
04 [fabeef5c|58886081] (02+14/16) Accurately ripped
05 [25d65807|95d6affe] (02+14/16) Accurately ripped
06 [f1bc01b2|da80a9d4] (02+14/16) Accurately ripped
07 [71defdd2|a7e9696d] (02+14/16) Accurately ripped
08 [a009d62a|7675ff7b] (02+14/16) Accurately ripped
09 [9705114f|7c5ad0ef] (02+14/16) Accurately ripped
10 [bde4b04d|878d4bc6] (02+14/16) Accurately ripped
11 [0f9bbfb9|86bfd459] (02+14/16) Accurately ripped
12 [5755a400|a33f1213] (02+13/15) Accurately ripped

Track Peak [ CRC32 ] [W/O NULL] [ LOG ]
– 98,8 [E15E7335] [4D6E5872]
01 98,8 [B679354D] [8C31AAE9] CRC32
02 98,8 [2FA4ED62] [5C477C0E] CRC32
03 98,8 [42831E16] [C0EB6A25] CRC32
04 98,8 [9FEAC2DF] [B6FE87E3] CRC32
05 98,8 [ACC072CB] [DE8D083C] CRC32
06 98,8 [87B21D22] [30BB458F] CRC32
07 98,8 [2243C3C7] [2021CB11] CRC32
08 98,8 [06B5DC63] [E4F0CF77] CRC32
09 98,8 [63BD225A] [874F6F38] CRC32
10 98,8 [13D07B30] [BA9E8346] CRC32
11 98,8 [007491EB] [F3D6C3F3] CRC32
12 98,8 [DD952100] [0A9D74EF] CRC32
–-

[CUETools log; Date: 2017. 04. 04. 11:49:06; Version: 2.1.6]
[CTDB TOCID: k.BfLQ5eKOoAOTDQfIu4Cpe81Qo-] found.
Track | CTDB Status
1 | (15/15) Accurately ripped
2 | (15/15) Accurately ripped
3 | (15/15) Accurately ripped
4 | (15/15) Accurately ripped
5 | (15/15) Accurately ripped
6 | (15/15) Accurately ripped
7 | (15/15) Accurately ripped
8 | (15/15) Accurately ripped
9 | (15/15) Accurately ripped
10 | (15/15) Accurately ripped
11 | (15/15) Accurately ripped
12 | (15/15) Accurately ripped
[AccurateRip ID: 00187132-00e5c60d-a30d2f0c] found.
Track [ CRC | V2 ] Status
01 [5a174425|00df172f] (02+15/17) Accurately ripped
02 [6ce4f4a4|107513ff] (02+15/17) Accurately ripped
03 [e993f61f|4a59897c] (02+15/17) Accurately ripped
04 [fe9464c4|9fcec11f] (02+15/17) Accurately ripped
05 [84a029cc|b626708f] (02+15/17) Accurately ripped
06 [c69ee261|b2f87343] (02+15/17) Accurately ripped
07 [574a6122|bc1125b2] (02+15/17) Accurately ripped
08 [168c24f1|df3af4e8] (02+15/17) Accurately ripped
09 [57ede70e|79ae54ed] (02+15/17) Accurately ripped
10 [0c122cd5|05df114b] (02+15/17) Accurately ripped
11 [3635c90c|98ec930e] (02+15/17) Accurately ripped
12 [593c9456|dae84cba] (02+15/17) Accurately ripped

Track Peak [ CRC32 ] [W/O NULL] [ LOG ]
– 99,9 [A1FB7969] [3EE05E36]
01 99,9 [DB890AF4] [7141EC8C] CRC32
02 99,9 [373419B0] [F6C10A45] CRC32
03 99,9 [2B2FE717] [B1E8E1D9] CRC32
04 99,9 [141CEBA4] [CD9D4961] CRC32
05 99,9 [EE9017C8] [55D41F9D] CRC32
06 99,9 [3448B52B] [D30954CC] CRC32
07 99,9 [BFC0A9BB] [DFC91400] CRC32
08 99,9 [9D185E54] [793A6C71] CRC32
09 99,9 [C2762DD8] [287361B6] CRC32
10 99,9 [3E5BCC67] [DDB63554] CRC32
11 99,9 [BA4FF116] [EF83CFBC] CRC32
12 99,9 [03262DB7] [8C7AF5E6] CRC32
–-

[CUETools log; Date: 2017. 04. 04. 11:49:46; Version: 2.1.6]
[CTDB TOCID: m4nrrxD2G6VyJeAQTlIHrLe6S64-] found.
Track | CTDB Status
1 | (13/13) Accurately ripped
2 | (13/13) Accurately ripped
3 | (13/13) Accurately ripped
4 | (13/13) Accurately ripped
5 | (13/13) Accurately ripped
6 | (13/13) Accurately ripped
7 | (13/13) Accurately ripped
8 | (13/13) Accurately ripped
9 | (13/13) Accurately ripped
10 | (13/13) Accurately ripped
11 | (13/13) Accurately ripped
12 | (11/13) Accurately ripped
[AccurateRip ID: 001b1c02-01014ea3-720f830c] found.
Track [ CRC | V2 ] Status
01 [49c55257|7e69b861] (02+16/18) Accurately ripped
02 [33e104a3|e9a5bfaa] (02+16/18) Accurately ripped
03 [b8afa910|2aa19a30] (02+16/18) Accurately ripped
04 [73973641|bbc3522d] (02+16/18) Accurately ripped
05 [1713dbb6|dd1ae027] (02+16/18) Accurately ripped
06 [ce95419c|e0156a23] (02+16/18) Accurately ripped
07 [fa7c62e0|28913225] (02+16/18) Accurately ripped
08 [6b6de223|00dab755] (02+16/18) Accurately ripped
09 [c89cdcc6|a401845b] (02+16/18) Accurately ripped
10 [ab8f24db|72dfcc4b] (02+16/18) Accurately ripped
11 [6f04bcb5|c31e9e9c] (02+16/18) Accurately ripped
12 [5dc2b1a1|2fb86298] (02+15/17) Accurately ripped

Track Peak [ CRC32 ] [W/O NULL] [ LOG ]
– 100,0 [BFD19D1F] [B87CA4C1]
01 100,0 [6729B315] [ABF9BD7F] CRC32
02 100,0 [BA4F4518] [2A9F4E34] CRC32
03 100,0 [64172D95] [A82A3042] CRC32
04 100,0 [8509A5EC] [318621FB] CRC32
05 100,0 [4233192A] [43220643] CRC32
06 100,0 [EB5E5E47] [8A5C918C] CRC32
07 97,4 [54C0721A] [8848D3EB] CRC32
08 100,0 [703386EF] [205D5EF5] CRC32
09 100,0 [F1172A0F] [33497AE4] CRC32
10 100,0 [CBEDADFF] [0A8F85D6] CRC32
11 100,0 [78F5C4E7] [4EA62019] CRC32
12 100,0 [2DCF4724] [81794349] CRC32
–-

[CUETools log; Date: 2017. 04. 04. 11:50:30; Version: 2.1.6]
[CTDB TOCID: X1bMsPTU5taLG4uvd4cNScw3kxU-] found.
Track | CTDB Status
1 | (16/16) Accurately ripped
2 | (16/16) Accurately ripped
3 | (16/16) Accurately ripped
4 | (16/16) Accurately ripped
5 | (16/16) Accurately ripped
6 | (16/16) Accurately ripped
7 | (16/16) Accurately ripped
8 | (16/16) Accurately ripped
9 | (16/16) Accurately ripped
10 | (16/16) Accurately ripped
11 | (16/16) Accurately ripped
12 | (16/16) Accurately ripped
13 | (15/16) Accurately ripped
14 | (16/16) Accurately ripped
[AccurateRip ID: 002626f2-01a1fe3e-c112080e] found.
Track [ CRC | V2 ] Status
01 [7eb4d759|c95f1cae] (02+15/17) Accurately ripped
02 [4b933228|6671f1f3] (02+15/17) Accurately ripped
03 [c3e077ef|b7726f6a] (02+15/17) Accurately ripped
04 [83030824|1fdb5e89] (02+15/17) Accurately ripped
05 [7a70cdb1|a798927e] (02+15/17) Accurately ripped
06 [7838d4f1|2c10abac] (02+15/17) Accurately ripped
07 [a449f81e|d765f7fd] (02+15/17) Accurately ripped
08 [efbcba19|30ad52e4] (02+15/17) Accurately ripped
09 [5b079aab|92556e24] (02+15/17) Accurately ripped
10 [c8ebbf6b|71f56fe3] (02+15/17) Accurately ripped
11 [ec0a213c|64e96a57] (02+15/17) Accurately ripped
12 [c749aa2c|4cc82663] (02+15/17) Accurately ripped
13 [c515e8d0|f42e496d] (02+15/17) Accurately ripped
14 [b0820962|016013e6] (02+15/17) Accurately ripped

Track Peak [ CRC32 ] [W/O NULL] [ LOG ]
– 99,9 [E3B583F8] [E5FD7AD9]
01 89,1 [EF2BC588] [472E48B2] CRC32
02 99,9 [79553564] [D85D0CD9] CRC32
03 99,9 [501B0EBB] [4EB8EA0D] CRC32
04 99,9 [328DFABA] [7159C195] CRC32
05 99,9 [99DBA7C5] [39E9B31E] CRC32
06 99,9 [DE3C7487] [7FD0A1A5] CRC32
07 99,9 [9EC8720A] [7D6FD233] CRC32
08 99,9 [A70C0BEF] [715CD912] CRC32
09 99,9 [7413214B] [9A563991] CRC32
10 99,9 [1C985939] [E9B7E666] CRC32
11 99,9 [C6FB3658] [B59962DE] CRC32
12 99,9 [749E8FD2] [8E5E1516] CRC32
13 99,9 [EA32B5FF] [6D2B00F8] CRC32
14 99,9 [7D4D1E84] [75D4B23D] CRC32
–-

[CUETools log; Date: 2017. 04. 04. 11:51:03; Version: 2.1.6]
[CTDB TOCID: 0uIiI4fPdT2p_VAVY.YSJdSPNfk-] found.
Track | CTDB Status
1 | (15/15) Accurately ripped
2 | (15/15) Accurately ripped
3 | (15/15) Accurately ripped
4 | (15/15) Accurately ripped
5 | (15/15) Accurately ripped
6 | (15/15) Accurately ripped
7 | (15/15) Accurately ripped
8 | (15/15) Accurately ripped
9 | (15/15) Accurately ripped
10 | (15/15) Accurately ripped
11 | (15/15) Accurately ripped
12 | (15/15) Accurately ripped
[AccurateRip ID: 001d3115-011cf004-9111710c] found.
Track [ CRC | V2 ] Status
01 [5ace76ad|26a0594a] (02+15/17) Accurately ripped
02 [3ef89525|9ee85782] (02+15/17) Accurately ripped
03 [8793acb3|6457813d] (02+15/17) Accurately ripped
04 [1726c2c0|f81a7c94] (02+15/17) Accurately ripped
05 [6f2628ac|c29113eb] (02+15/17) Accurately ripped
06 [653dbdce|c4cb29b5] (02+15/17) Accurately ripped
07 [c2f8e017|4a0261ff] (02+15/17) Accurately ripped
08 [f16c3b63|85601926] (02+15/17) Accurately ripped
09 [d2011d69|22d78bfe] (02+15/17) Accurately ripped
10 [95c5cf8b|38c37fe7] (02+15/17) Accurately ripped
11 [c9d3391e|c5f8f5ad] (02+14/16) Accurately ripped
12 [d83c76ae|3fe7dd1f] (02+12/14) Accurately ripped

Track Peak [ CRC32 ] [W/O NULL] [ LOG ]
– 99,9 [39D6A286] [B839426E]
01 99,9 [F98B3889] [D553B498] CRC32
02 99,9 [7A673D71] [232EF3A5] CRC32
03 99,9 [B0F76D63] [3B98FAFB] CRC32
04 99,9 [D67CB469] [10A1F326] CRC32
05 99,9 [944A1952] [DB121CC8] CRC32
06 99,9 [0673AA6A] [204D192E] CRC32
07 99,9 [C6DE56F3] [2205E2B0] CRC32
08 99,9 [D2818191] [622A8D31] CRC32
09 99,9 [5C0B4EF0] [CE423F81] CRC32
10 99,9 [2FCBA69A] [CA027D17] CRC32
11 99,9 [D167D8D4] [8B273E1E] CRC32
12 99,9 [2F9375A8] [FDBA417B] CRC32
–-

[CUETools log; Date: 2017. 04. 04. 11:51:40; Version: 2.1.6]
[CTDB TOCID: C7ELTGO7UlUV_ckEFH3R1kZw8fQ-] found.
Track | CTDB Status
1 | (15/15) Accurately ripped
2 | (15/15) Accurately ripped
3 | (15/15) Accurately ripped
4 | (15/15) Accurately ripped
5 | (15/15) Accurately ripped
6 | (15/15) Accurately ripped
7 | (15/15) Accurately ripped
8 | (15/15) Accurately ripped
9 | (15/15) Accurately ripped
10 | (15/15) Accurately ripped
11 | (15/15) Accurately ripped
12 | (14/15) Accurately ripped
[AccurateRip ID: 001ec0c1-01240091-c111500c] found.
Track [ CRC | V2 ] Status
01 [d0b18a01|db94d7d9] (02+15/17) Accurately ripped
02 [3299cd81|3d00489a] (02+15/17) Accurately ripped
03 [4d4b2936|04801193] (02+15/17) Accurately ripped
04 [e9062659|40f65b21] (02+15/17) Accurately ripped
05 [828cfab5|ecca2c12] (02+15/17) Accurately ripped
06 [7bcf1aae|b3d7297d] (02+15/17) Accurately ripped
07 [eb235a11|b95990c1] (02+15/17) Accurately ripped
08 [023d5e34|34e1eced] (02+14/16) Accurately ripped
09 [e5f2cfc9|ab1ea230] (02+14/16) Accurately ripped
10 [483f5b7d|22d1a155] (02+14/16) Accurately ripped
11 [1ee54082|921413cf] (02+14/16) Accurately ripped
12 [547f1926|26ae13e3] (02+14/16) Accurately ripped

Track Peak [ CRC32 ] [W/O NULL] [ LOG ]
– 99,9 [04998457] [F5950546]
01 99,9 [630D3FA1] [E484CD58] CRC32
02 99,9 [16C244CE] [9CD2C873] CRC32
03 99,9 [7E7B7408] [A3D6FC05] CRC32
04 95,6 [9D4743D5] [2AA8C1BC] CRC32
05 99,9 [A53EFE95] [9DA9FE2A] CRC32
06 99,9 [A52B13F3] [1F97772A] CRC32
07 99,9 [206A81ED] [E8D81A6A] CRC32
08 99,9 [ED77EE4D] [33766E2E] CRC32
09 99,9 [356202B2] [B4FA1FCC] CRC32
10 99,9 [381E2C12] [67F4CB2B] CRC32
11 99,9 [C1694CB7] [C9E72A20] CRC32
12 99,9 [C9D32DB2] [02EB90C0] CRC32
–-

[CUETools log; Date: 2017. 04. 04. 11:52:14; Version: 2.1.6]
[CTDB TOCID: MWkJkm2wliQeyV2QTqbPIhwIMac-] found.
Track | CTDB Status
1 | (14/14) Accurately ripped
2 | (14/14) Accurately ripped
3 | (14/14) Accurately ripped
4 | (14/14) Accurately ripped
5 | (14/14) Accurately ripped
6 | (14/14) Accurately ripped
7 | (14/14) Accurately ripped
8 | (14/14) Accurately ripped
9 | (14/14) Accurately ripped
10 | (14/14) Accurately ripped
11 | (14/14) Accurately ripped
12 | (14/14) Accurately ripped
[AccurateRip ID: 001c1d55-010a510e-aa0fa20c] found.
Track [ CRC | V2 ] Status
01 [19d1b82e|895fcd14] (02+15/17) Accurately ripped
02 [baa7938f|37f72fb1] (02+15/17) Accurately ripped
03 [09d1a58e|6bfe8ead] (02+15/17) Accurately ripped
04 [4fded1be|29a4d054] (02+15/17) Accurately ripped
05 [a779ddb0|8f876a2e] (02+15/17) Accurately ripped
06 [62dd9b75|040df25b] (02+15/17) Accurately ripped
07 [fb97c747|e0cff9a5] (02+15/17) Accurately ripped
08 [60f4564b|7715e199] (02+15/17) Accurately ripped
09 [b9f1af5c|6c8aa9f4] (02+15/17) Accurately ripped
10 [4bf6a197|c1300f3e] (02+14/16) Accurately ripped
11 [419b8dfe|bfad09f9] (02+15/17) Accurately ripped
12 [292097dd|00098dcb] (02+14/16) Accurately ripped

Track Peak [ CRC32 ] [W/O NULL] [ LOG ]
– 99,9 [58BD3E4B] [2857F9AC]
01 99,9 [283804DB] [A89ABEF9] CRC32
02 99,9 [AE8275D3] [3B0E8C6A] CRC32
03 99,9 [40D46670] [C6057D5B] CRC32
04 99,9 [098E84F5] [2D47DFE0] CRC32
05 95,5 [1D8F9776] [754D503E] CRC32
06 99,9 [FA4DA2DC] [32E299CC] CRC32
07 99,9 [7BF9CF8D] [CF27C680] CRC32
08 99,9 [28D3F0C4] [BE0C2A73] CRC32
09 99,9 [56BD6189] [426AF44D] CRC32
10 99,9 [FB4A4DB6] [5F2181BC] CRC32
11 99,9 [1498EA61] [94727DAF] CRC32
12 99,9 [F0C591DC] [C7BB86CF] CRC32


Thx to Oleandris