Subcategories

Buddy Guy - As Good As It Get (Compilation) [1998]

Posted By: jclane
Buddy Guy - As Good As It Get (Compilation) [1998]

Buddy Guy - As Good As It Get (Compilation) [1998]
XLD Rip | FLAC Image + Cue + Log | 408 MB | Complete Scans, 300 dpi PNG | 33 MB
MP3 CBR @320 kbps (LAME 3.99) | Joint Stereo | 167 MB
Vanguard Records | VCD 79509 | Blues

As Good as It Gets Compilation album by Buddy Guy was released on March 10, 1998 on the Vanguard label. Recorded between 1965 & 1972. As Good as It Gets songs Includes liner notes by Tom VIckers.
Track Listing:

01. Poison Ivy
02. One Room Country Shack
03. Things I Used to Do
04. You Give Me Fever
05. 24 Hours of the Day
06. You Were Wrong
07. Sweet Little Angel
08. You Gotta Hole in Your Sole
09. Slow Blues
10. Dream
11. I'm Ready
12. My Time for After a While
13. Come See About Me
14. Stormy Monday Blues


X Lossless Decoder version 20121222 (142.2)

XLD extraction logfile from 2013-01-12 15:09:19 +0200

Buddy Guy / As Good As It Gets

Used drive : MATSHITA DVD-R UJ-898 (revision HC09)
Media type : Pressed CD

Ripper mode : XLD Secure Ripper
Disable audio cache : OK for the drive with a cache less than 1375KiB
Make use of C2 pointers : NO
Read offset correction : 102
Max retry count : 20
Gap status : Analyzed, Appended

TOC of the extracted CD
Track | Start | Length | Start sector | End sector
––––––––––––––––––––––––––––-
1 | 00:00:00 | 03:25:52 | 0 | 15426
2 | 03:25:52 | 05:38:28 | 15427 | 40804
3 | 09:04:05 | 03:43:22 | 40805 | 57551
4 | 12:47:27 | 06:21:25 | 57552 | 86151
5 | 19:08:52 | 02:53:23 | 86152 | 99149
6 | 22:02:00 | 04:51:47 | 99150 | 121021
7 | 26:53:47 | 05:39:03 | 121022 | 146449
8 | 32:32:50 | 03:56:62 | 146450 | 164211
9 | 36:29:37 | 06:48:15 | 164212 | 194826
10 | 43:17:52 | 05:18:45 | 194827 | 218721
11 | 48:36:22 | 05:05:43 | 218722 | 241639
12 | 53:41:65 | 04:17:62 | 241640 | 260976
13 | 57:59:52 | 08:40:40 | 260977 | 300016
14 | 66:40:17 | 04:21:30 | 300017 | 319621

List of alternate offset correction values
# | Absolute | Relative | Confidence
–––––––––––––––––––––
1 | 791 | 689 | 8
2 | 132 | 30 | 7
3 | -288 | -390 | 2

AccurateRip Summary (DiscID: 002295cf-01768e91-bb10a50e)
Track 01 : OK (v1, confidence 7/15, with different offset)
Track 02 : OK (v1, confidence 7/15, with different offset)
Track 03 : OK (v1, confidence 7/15, with different offset)
Track 04 : OK (v1, confidence 7/16, with different offset)
Track 05 : OK (v1, confidence 8/16, with different offset)
Track 06 : OK (v1, confidence 8/17, with different offset)
Track 07 : OK (v1, confidence 7/16, with different offset)
Track 08 : OK (v1, confidence 7/16, with different offset)
Track 09 : OK (v1, confidence 7/15, with different offset)
Track 10 : OK (v1, confidence 7/16, with different offset)
Track 11 : OK (v1, confidence 7/15, with different offset)
Track 12 : OK (v1, confidence 7/16, with different offset)
Track 13 : OK (v1, confidence 7/15, with different offset)
Track 14 : OK (v1, confidence 7/15, with different offset)
->All tracks accurately ripped.

All Tracks
Filename : /Users/Home/Music/Music/myRips/buddy guy-as good it gets-1998/Buddy Guy - As Good As It Gets .flac
Album gain : -3.53 dB
Peak : 0.954224
CRC32 hash (test run) : CBFE6B5F
CRC32 hash : CBFE6B5F
CRC32 hash (skip zero) : B6DBA980
Statistics
Read error : 0
Jitter error (maybe fixed) : 0
Retry sector count : 0
Damaged sector count : 0

Track 01
Pre-gap length : 00:02:00

Track gain : -0.97 dB
Peak : 0.907440
CRC32 hash (test run) : 4D509A79
CRC32 hash : 4D509A79
CRC32 hash (skip zero) : 59D0D83D
AccurateRip v1 signature : 2BE9AA26 (A3379FD6 w/correction)
AccurateRip v2 signature : A8A29049
->Accurately ripped with different offset (v1, confidence 7/15, offset +30)
Statistics
Read error : 0
Jitter error (maybe fixed) : 0
Retry sector count : 0
Damaged sector count : 0

Track 02
Pre-gap length : 00:01:30

Track gain : 1.35 dB
Peak : 0.743896
CRC32 hash (test run) : 4E470F0C
CRC32 hash : 4E470F0C
CRC32 hash (skip zero) : 4BE2FADE
AccurateRip v1 signature : EA92BE4F (00009689 w/correction)
AccurateRip v2 signature : 7509CC89
->Accurately ripped with different offset (v1, confidence 7/15, offset +30)
Statistics
Read error : 0
Jitter error (maybe fixed) : 0
Retry sector count : 0
Damaged sector count : 0

Track 03
Pre-gap length : 00:01:28

Track gain : -6.11 dB
Peak : 0.819305
CRC32 hash (test run) : 030E32BA
CRC32 hash : 030E32BA
CRC32 hash (skip zero) : E8F0C032
AccurateRip v1 signature : 1E8CA2CE (2F56D70F w/correction)
AccurateRip v2 signature : 2FB3127D
->Accurately ripped with different offset (v1, confidence 7/15, offset +30)
Statistics
Read error : 0
Jitter error (maybe fixed) : 0
Retry sector count : 0
Damaged sector count : 0

Track 04

Track gain : -4.27 dB
Peak : 0.821350
CRC32 hash (test run) : 2CE621A9
CRC32 hash : 2CE621A9
CRC32 hash (skip zero) : DBE732B2
AccurateRip v1 signature : 49DDA253 (6EAC1515 w/correction)
AccurateRip v2 signature : 5470A6A1
->Accurately ripped with different offset (v1, confidence 7/16, offset +30)
Statistics
Read error : 0
Jitter error (maybe fixed) : 0
Retry sector count : 0
Damaged sector count : 0

Track 05

Track gain : -5.75 dB
Peak : 0.887939
CRC32 hash (test run) : 23D3739C
CRC32 hash : 23D3739C
CRC32 hash (skip zero) : 0170E54B
AccurateRip v1 signature : B2F5A104 (837EA1BA w/correction)
AccurateRip v2 signature : 68DE39D9
->Accurately ripped with different offset (v1, confidence 8/16, offset +689)
Statistics
Read error : 0
Jitter error (maybe fixed) : 0
Retry sector count : 0
Damaged sector count : 0

Track 06

Track gain : -6.30 dB
Peak : 0.947723
CRC32 hash (test run) : 9CA8292B
CRC32 hash : 9CA8292B
CRC32 hash (skip zero) : 2427EC3B
AccurateRip v1 signature : FD5E3C3C (7CC4C827 w/correction)
AccurateRip v2 signature : 8ACC27CE
->Accurately ripped with different offset (v1, confidence 8/17, offset +689)
Statistics
Read error : 0
Jitter error (maybe fixed) : 0
Retry sector count : 0
Damaged sector count : 0

Track 07
Pre-gap length : 00:03:02

Track gain : -1.11 dB
Peak : 0.886810
CRC32 hash (test run) : AC4020AC
CRC32 hash : AC4020AC
CRC32 hash (skip zero) : F0C751C0
AccurateRip v1 signature : 3E0CFB11 (53255237 w/correction)
AccurateRip v2 signature : 0BA7DC37
->Accurately ripped with different offset (v1, confidence 7/16, offset +30)
Statistics
Read error : 0
Jitter error (maybe fixed) : 0
Retry sector count : 0
Damaged sector count : 0

Track 08
Pre-gap length : 00:03:49

Track gain : -1.24 dB
Peak : 0.954224
CRC32 hash (test run) : 42D0D201
CRC32 hash : 42D0D201
CRC32 hash (skip zero) : 2CE91C66
AccurateRip v1 signature : A2473326 (3041A000 w/correction)
AccurateRip v2 signature : D96C6300
->Accurately ripped with different offset (v1, confidence 7/16, offset +30)
Statistics
Read error : 0
Jitter error (maybe fixed) : 0
Retry sector count : 0
Damaged sector count : 0

Track 09
Pre-gap length : 00:01:72

Track gain : 1.46 dB
Peak : 0.953033
CRC32 hash (test run) : 6EEEAD23
CRC32 hash : 6EEEAD23
CRC32 hash (skip zero) : A4CD4E15
AccurateRip v1 signature : 475B31C9 (C1F01989 w/correction)
AccurateRip v2 signature : E6E0C570
->Accurately ripped with different offset (v1, confidence 7/15, offset +30)
Statistics
Read error : 0
Jitter error (maybe fixed) : 0
Retry sector count : 0
Damaged sector count : 0

Track 10
Pre-gap length : 00:00:35

Track gain : 0.62 dB
Peak : 0.945190
CRC32 hash (test run) : 7FAAC145
CRC32 hash : 7FAAC145
CRC32 hash (skip zero) : B2D0B62F
AccurateRip v1 signature : F83D5993 (0A7280A3 w/correction)
AccurateRip v2 signature : 38F64C26
->Accurately ripped with different offset (v1, confidence 7/16, offset +30)
Statistics
Read error : 0
Jitter error (maybe fixed) : 0
Retry sector count : 0
Damaged sector count : 0

Track 11
Pre-gap length : 00:02:05

Track gain : -0.57 dB
Peak : 0.781647
CRC32 hash (test run) : 2AA125D5
CRC32 hash : 2AA125D5
CRC32 hash (skip zero) : FCA419C1
AccurateRip v1 signature : 79FF76B5 (4241A8AF w/correction)
AccurateRip v2 signature : 0C86B749
->Accurately ripped with different offset (v1, confidence 7/15, offset +30)
Statistics
Read error : 0
Jitter error (maybe fixed) : 0
Retry sector count : 0
Damaged sector count : 0

Track 12
Pre-gap length : 00:02:58

Track gain : 0.88 dB
Peak : 0.796356
CRC32 hash (test run) : B0C6F4B9
CRC32 hash : B0C6F4B9
CRC32 hash (skip zero) : D07CBE27
AccurateRip v1 signature : 440C938F (19449453 w/correction)
AccurateRip v2 signature : CDA91802
->Accurately ripped with different offset (v1, confidence 7/16, offset +30)
Statistics
Read error : 0
Jitter error (maybe fixed) : 0
Retry sector count : 0
Damaged sector count : 0

Track 13
Pre-gap length : 00:02:65

Track gain : -2.27 dB
Peak : 0.888977
CRC32 hash (test run) : 0A5BABA0
CRC32 hash : 0A5BABA0
CRC32 hash (skip zero) : 7C5F5BA2
AccurateRip v1 signature : F75D66EC (EA67E3F2 w/correction)
AccurateRip v2 signature : 32851083
->Accurately ripped with different offset (v1, confidence 7/15, offset +30)
Statistics
Read error : 0
Jitter error (maybe fixed) : 0
Retry sector count : 0
Damaged sector count : 0

Track 14
Pre-gap length : 00:02:52

Track gain : -1.70 dB
Peak : 0.891510
CRC32 hash (test run) : 0A14BFD7
CRC32 hash : 0A14BFD7
CRC32 hash (skip zero) : BFC99D40
AccurateRip v1 signature : 1270681F (35BDC414 w/correction)
AccurateRip v2 signature : 0A8B8E6B
->Accurately ripped with different offset (v1, confidence 7/15, offset +689)
Statistics
Read error : 0
Jitter error (maybe fixed) : 0
Retry sector count : 0
Damaged sector count : 0

No errors occurred

End of status report


[CUETools log; Date: 25/01/2013 11:30:39; Version: 2.1.4]
[AccurateRip ID: 002295cf-01768e91-bb10a50e] found.
Track [ CRC | V2 ] Status
01 [2be9aa26|a8a29049] (00+00/15) No match
02 [ea92be4f|7509cc89] (00+00/15) No match
03 [1e8ca2ce|2fb3127d] (00+00/15) No match
04 [49dda253|5470a6a1] (00+00/16) No match
05 [b2f5a104|68de39d9] (00+00/16) No match
06 [fd5e3c3c|8acc27ce] (00+00/17) No match
07 [3e0cfb11|0ba7dc37] (00+00/16) No match
08 [a2473326|d96c6300] (00+00/16) No match
09 [475b31c9|e6e0c570] (00+00/15) No match
10 [f83d5993|38f64c26] (00+00/16) No match
11 [79ff76b5|0c86b749] (00+00/15) No match
12 [440c938f|cda91802] (00+00/16) No match
13 [f75d66ec|32851083] (00+00/15) No match
14 [1270681f|0a8b8e6b] (00+00/15) No match
Offsetted by -390:
01 [1cf43036] (02/15) Accurately ripped
02 [d3fec35d] (02/15) Accurately ripped
03 [16d6ecae] (02/15) Accurately ripped
04 [8e13bbb5] (02/16) Accurately ripped
05 [c179e556] (02/16) Accurately ripped
06 [1158d518] (02/17) Accurately ripped
07 [2bd08e23] (02/16) Accurately ripped
08 [6c8fac14] (02/16) Accurately ripped
09 [0dcb6d09] (02/15) Accurately ripped
10 [0b8a5dc3] (02/16) Accurately ripped
11 [4ea2ed03] (02/15) Accurately ripped
12 [7034899b] (02/16) Accurately ripped
13 [9fd50d9e] (02/15) Accurately ripped
14 [77a648d8] (02/15) Accurately ripped
Offsetted by 30:
01 [a3379fd6] (07/15) Accurately ripped
02 [00009689] (07/15) Accurately ripped
03 [2f56d70f] (07/15) Accurately ripped
04 [6eac1515] (07/16) Accurately ripped
05 [58590189] (06/16) Accurately ripped
06 [39ce31a4] (07/17) Accurately ripped
07 [53255237] (07/16) Accurately ripped
08 [3041a000] (07/16) Accurately ripped
09 [c1f01989] (07/15) Accurately ripped
10 [0a7280a3] (07/16) Accurately ripped
11 [4241a8af] (07/15) Accurately ripped
12 [19449453] (07/16) Accurately ripped
13 [ea67e3f2] (07/15) Accurately ripped
14 [1b3c44c7] (06/15) Accurately ripped
Offsetted by 689:
01 [7101bd4e] (06/15) Accurately ripped
02 [4e31c672] (06/15) Accurately ripped
03 [5af9b0c1] (06/15) Accurately ripped
04 [ad9b1251] (07/16) Accurately ripped
05 [837ea1ba] (08/16) Accurately ripped
06 [7cc4c827] (08/17) Accurately ripped
07 [4d33773e] (07/16) Accurately ripped
08 [4571d4f9] (07/16) Accurately ripped
09 [e03f95e9] (06/15) Accurately ripped
10 [4d9bb00b] (07/16) Accurately ripped
11 [c69a69f8] (06/15) Accurately ripped
12 [64f92dad] (07/16) Accurately ripped
13 [92017c29] (06/15) Accurately ripped
14 [35bdc414] (07/15) Accurately ripped

Track Peak [ CRC32 ] [W/O NULL]
– 95,4 [CBFE6B5F] [B6DBA980]
01 90,7 [4D509A79] [59D0D83D]
02 74,3 [4E470F0C] [4BE2FADE]
03 81,9 [030E32BA] [E8F0C032]
04 82,1 [2CE621A9] [DBE732B2]
05 88,7 [23D3739C] [0170E54B]
06 94,7 [9CA8292B] [2427EC3B]
07 88,6 [AC4020AC] [F0C751C0]
08 95,4 [42D0D201] [2CE91C66]
09 95,3 [6EEEAD23] [A4CD4E15]
10 94,5 [7FAAC145] [B2D0B62F]
11 78,1 [2AA125D5] [FCA419C1]
12 79,6 [B0C6F4B9] [D07CBE27]
13 88,9 [0A5BABA0] [7C5F5BA2]
14 89,1 [0A14BFD7] [BFC99D40]


Released Date: 1998
Format: CD, Compilation
Length: 71:01

Buddy Guy - As Good As It Get (Compilation) [1998]
Buddy Guy - As Good As It Get (Compilation) [1998]

******************************************************

CD Rip by igaann

The files are interchangeable!