Subcategories

Buddy Rich Big Band - At Stadshalle Leonberg, Germany 10th July 1986 (This Release 1994)

Posted By: PCWhizzkid
Buddy Rich Big Band - At Stadshalle Leonberg, Germany 10th July 1986 (This Release 1994)

Buddy Rich Big Band - At Stadshalle Leonberg, Germany 10th July 1986 (This Release 1994)
EAC | FLAC+CUE+LOG - 466 MB | SCANS - 18 MB (600dpi) + 3% Recovery
Genre: Jazz / Big Band | Label: Jazz Band | Catalogue No: EBCD 2118-2

The details for this set are incredibly sketchy, but one thing is definite….It sure was a firey performance that night and I rate this as one of Buddy's best performances.Steve Marcus, Buddy's main & longest serving sideman is on absolutely top form as were the whole band.Everyone just seemed inspired.Recorded just 9 months prior to Buddy's death the 1st two tracks had never been recorded before. An electryfing set.


TRACK LIST:

1.Night Blood
2.Winding Way
3.Greensleeves
4.Okay With Jay
5.In A Mellow Tone
6.Porgy & Bess Melody
7.Shawnee
8.Rockin' In Rhythm
9.Good News


Exact Audio Copy V1.0 beta 1 from 15. November 2010

EAC extraction logfile from 26. April 2011, 11:30

Buddy Rich Big Band / At Stadshalle Leonberg, Germany 10th July 1986

Used drive : HL-DT-STDVDRAM GH22NS40 Adapter: 3 ID: 0

Read mode : Secure
Utilize accurate stream : Yes
Defeat audio cache : Yes
Make use of C2 pointers : No

Read offset correction : 667
Overread into Lead-In and Lead-Out : No
Fill up missing offset samples with silence : Yes
Delete leading and trailing silent blocks : No
Null samples used in CRC calculations : Yes
Used interface : Native Win32 interface for Win NT & 2000

Used output format : User Defined Encoder
Selected bitrate : 768 kBit/s
Quality : High
Add ID3 tag : No
Command line compressor : C:\Program Files (x86)\Exact Audio Copy\FLAC\FLAC.EXE
Additional command line options : -6 -V -T "ARTIST=%a" -T "TITLE=%t" -T "ALBUM=%g" -T "DATE=%y" -T "TRACKNUMBER=%n" -T "GENRE=%m" -T "COMMENT=%e" %j–picture="%i"%j %s -o %d


TOC of the extracted CD

Track | Start | Length | Start sector | End sector
––––––––––––––––––––––––––––-
1 | 0:00.32 | 5:11.08 | 32 | 23364
2 | 5:11.40 | 3:58.27 | 23365 | 41241
3 | 9:09.67 | 4:02.70 | 41242 | 59461
4 | 13:12.62 | 5:32.55 | 59462 | 84416
5 | 18:45.42 | 6:11.33 | 84417 | 112274
6 | 24:57.00 | 10:12.40 | 112275 | 158214
7 | 35:09.40 | 3:35.47 | 158215 | 174386
8 | 38:45.12 | 9:36.73 | 174387 | 217659
9 | 48:22.10 | 21:49.37 | 217660 | 315871


Range status and errors

Selected range

Filename T:\Buddy Rich Big Band - At Stadshalle Leonberg, Germany 10th July 1986.wav

Peak level 93.9 %
Extraction speed 0.2 X
Range quality 100.0 %
Test CRC D8454FE8
Copy CRC D8454FE8
Copy OK

No errors occurred


AccurateRip summary

Track 1 accurately ripped (confidence 1) [4E7992CF]
Track 2 accurately ripped (confidence 1) [F8CA9E5B]
Track 3 accurately ripped (confidence 1) [99F3C00E]
Track 4 accurately ripped (confidence 1) [2C0554C3]
Track 5 accurately ripped (confidence 1) [109A4348]
Track 6 accurately ripped (confidence 1) [9B9160D0]
Track 7 accurately ripped (confidence 1) [F1036F1C]
Track 8 accurately ripped (confidence 1) [AA94C361]
Track 9 accurately ripped (confidence 1) [F31B7C7F]

All tracks accurately ripped

End of status report

==== Log checksum 57E403EB525ECF59386490279A4086E6A0329C656238C5D364F61DCF659D8313 ====



Buddy Rich Big Band - At Stadshalle Leonberg, Germany 10th July 1986 (This Release 1994)


Buddy Rich Big Band - At Stadshalle Leonberg, Germany 10th July 1986 (This Release 1994)