Subcategories

Buddy Rich Big Band - Ease on Down the Road (1989)

Posted By: PCWhizzkid
Buddy Rich Big Band - Ease on Down the Road (1989)

Buddy Rich Big Band - Ease on Down the Road (1989)
EAC V1.0 beta 1 | FLAC+CUE+LOG - 375 MB | FULL SCANS - 18 MB (600dpi) + 3% Recovery
Genre: Jazz / Big Band | Label: LRC | Catalogue No: CDC 8511
Filesonic & Fileserve

When it came to speed, power, and dexterity, Buddy Rich was the indisputable king of the drums. It wasn't until the 1950's, when Joe Morello entered the scene, that Rich had a viable technical adversary. On "Ease on Down The Road", from the early '70s, Rich and his Orchestra wail with the kind of conviction one came to expect from the late drumming virtuoso.Performing now-classic big band tunes such as Don Menza's "Time Check" and "Nuttville" by Horace Silver, this incarnation of the Rich Orchestra swings with conviction, playfulness and dynamism. Tunes such as "Backwoods Sideman" "Three Day Sucker," and "Big Mac" also show Rich's surprisingly fervent proclivity for rock charts. While this album has a dated sound, it is filled with a lot of fiery drum solos, and exquisite horn work. A gem for anybody who loves vigorous, spirited big band music.

Recorded over two sessions between 1973 / 1974.

Personnel:

Buddy Rich (drums, percussion); Cliff Morris, Cornell Dupree, Joe Beck , Wayne Wright (guitar); Bob "Mink" Martin, Joe Romano, Bob Martin (flute, alto saxophone); Pat La Barbera, Steve Marcus (soprano saxophone, tenor saxophone); Bill Blaut, Pete Yellin (alto saxophone); Bob Crea, Bob Mintzer (tenor saxophone); John Laws, Roger Rosenberg (baritone saxophone); Richard Hurwitz, Lloyd Michels, Danny Hayes, Lloyd Michaels, Greg Hopkins, John Hoffman , Larry Hall , Charles Camilleri, Ross Konikoff, Charlie Davis (trumpet); Barry Maur, Gerald Chamberlain, Alan Kaplan, Keith O'Quinn (trombone); John Leys, Anthony Salvatori (bass trombone); Greg Kogan, Buddy Budson (piano); Ray Armando (congas); Sam Woodyard (percussion).


TRACK LIST:

01. Time Check (3:51)
02. Backwoods Sideman (4:50)
03. Nuttville (5:51)
04. Playhouse (6:29)
05. Senator Sam (4:11)
06. Big Mac (5:46)
07. Three Day Sucker (5:13)
08. Ease On Down The Road (3:12)
09. Tommy Medley (11:00)
10. Pieces Of Dreams (4:08)
11. Lush Life (4:14)
12. Nik-Nik (3:10)
13. Layin’ It Down (2:50)

Runtime: 64:44



Exact Audio Copy V1.0 beta 1 from 15. November 2010

EAC extraction logfile from 8. May 2011, 16:23

Buddy Rich Big Band / Ease on Down the Road

Used drive : HL-DT-STDVDRAM GH22NS40 Adapter: 3 ID: 0

Read mode : Secure
Utilize accurate stream : Yes
Defeat audio cache : Yes
Make use of C2 pointers : No

Read offset correction : 667
Overread into Lead-In and Lead-Out : No
Fill up missing offset samples with silence : Yes
Delete leading and trailing silent blocks : No
Null samples used in CRC calculations : Yes
Used interface : Native Win32 interface for Win NT & 2000

Used output format : User Defined Encoder
Selected bitrate : 1024 kBit/s
Quality : High
Add ID3 tag : No
Command line compressor : C:\Program Files (x86)\Exact Audio Copy\FLAC\FLAC.EXE
Additional command line options : -6 -V -T "ARTIST=%a" -T "TITLE=%t" -T "ALBUM=%g" -T "DATE=%y" -T "TRACKNUMBER=%n" -T "GENRE=%m" -T "COMMENT=%e" %j–picture="%i"%j %s -o %d


TOC of the extracted CD

Track | Start | Length | Start sector | End sector
––––––––––––––––––––––––––––-
1 | 0:00.00 | 3:50.55 | 0 | 17304
2 | 3:50.55 | 4:50.05 | 17305 | 39059
3 | 8:40.60 | 5:50.30 | 39060 | 65339
4 | 14:31.15 | 6:28.50 | 65340 | 94489
5 | 20:59.65 | 4:11.10 | 94490 | 113324
6 | 25:11.00 | 5:46.37 | 113325 | 139311
7 | 30:57.37 | 5:13.25 | 139312 | 162811
8 | 36:10.62 | 3:11.40 | 162812 | 177176
9 | 39:22.27 | 11:00.18 | 177177 | 226694
10 | 50:22.45 | 4:07.47 | 226695 | 245266
11 | 54:30.17 | 4:13.53 | 245267 | 264294
12 | 58:43.70 | 3:09.52 | 264295 | 278521
13 | 61:53.47 | 2:49.38 | 278522 | 291234


Range status and errors

Selected range

Filename T:\Buddy Rich Big Band - Ease on Down the Road.wav

Peak level 100.0 %
Extraction speed 0.1 X
Range quality 100.0 %
Test CRC 777D9909
Copy CRC 777D9909
Copy OK

No errors occurred


AccurateRip summary

Track 1 accurately ripped (confidence 2) [9D4FC20B]
Track 2 accurately ripped (confidence 2) [50DC1402]
Track 3 accurately ripped (confidence 2) [8DCF7C36]
Track 4 accurately ripped (confidence 2) [62403499]
Track 5 accurately ripped (confidence 2) [31FF833D]
Track 6 accurately ripped (confidence 2) [97AF1F23]
Track 7 accurately ripped (confidence 2) [8DE25C2A]
Track 8 accurately ripped (confidence 2) [F5E59323]
Track 9 accurately ripped (confidence 2) [F0361B6E]
Track 10 accurately ripped (confidence 2) [CAAF6CB1]
Track 11 accurately ripped (confidence 2) [6EBCCE8D]
Track 12 accurately ripped (confidence 2) [32D1647D]
Track 13 accurately ripped (confidence 2) [F5F0124E]

All tracks accurately ripped

End of status report

==== Log checksum 84C451CA7FF0E1140D579B5229CD4CF50B4A55ACB853B28EB51E87D723ECC715 ====



Buddy Rich Big Band - Ease on Down the Road (1989)



Buddy Rich Big Band - Ease on Down the Road (1989)